  0
SECTION
  2
HEADER
  9
$ACADVER
  1
AC1015
  9
$ACADMAINTVER
 70
     6
  9
$DWGCODEPAGE
  3
ANSI_932
  9
$INSBASE
 10
0.0
 20
0.0
 30
0.0
  9
$EXTMIN
 10
21.40466322
 20
87.43948474000001
 30
0.0
  9
$EXTMAX
 10
382.77258508
 20
274.02843234
 30
0.0
  9
$LIMMIN
 10
21.40466322
 20
87.43948474000001
  9
$LIMMAX
 10
382.77258508
 20
274.02843234
  9
$ORTHOMODE
 70
     0
  9
$REGENMODE
 70
     1
  9
$FILLMODE
 70
     1
  9
$QTEXTMODE
 70
     0
  9
$MIRRTEXT
 70
     1
  9
$LTSCALE
 40
1.0
  9
$ATTMODE
 70
     1
  9
$TEXTSIZE
 40
0.2
  9
$TRACEWID
 40
0.05
  9
$TEXTSTYLE
  7
Standard
  9
$CLAYER
  8
0
  9
$CELTYPE
  6
ByLayer
  9
$CECOLOR
 62
   256
  9
$CELTSCALE
 40
1.0
  9
$DISPSILH
 70
     0
  9
$DIMSCALE
 40
1.0
  9
$DIMASZ
 40
0.18
  9
$DIMEXO
 40
0.0625
  9
$DIMDLI
 40
0.38
  9
$DIMRND
 40
0.0
  9
$DIMDLE
 40
0.0
  9
$DIMEXE
 40
0.18
  9
$DIMTP
 40
0.0
  9
$DIMTM
 40
0.0
  9
$DIMTXT
 40
0.18
  9
$DIMCEN
 40
0.09
  9
$DIMTSZ
 40
0.0
  9
$DIMTOL
 70
     0
  9
$DIMLIM
 70
     0
  9
$DIMTIH
 70
     1
  9
$DIMTOH
 70
     1
  9
$DIMSE1
 70
     0
  9
$DIMSE2
 70
     0
  9
$DIMTAD
 70
     0
  9
$DIMZIN
 70
     0
  9
$DIMBLK
  1

  9
$DIMASO
 70
     1
  9
$DIMSHO
 70
     1
  9
$DIMPOST
  1

  9
$DIMAPOST
  1

  9
$DIMALT
 70
     0
  9
$DIMALTD
 70
     2
  9
$DIMALTF
 40
25.4
  9
$DIMLFAC
 40
1.0
  9
$DIMTOFL
 70
     0
  9
$DIMTVP
 40
0.0
  9
$DIMTIX
 70
     0
  9
$DIMSOXD
 70
     0
  9
$DIMSAH
 70
     0
  9
$DIMBLK1
  1

  9
$DIMBLK2
  1

  9
$DIMSTYLE
  2
Standard
  9
$DIMCLRD
 70
     0
  9
$DIMCLRE
 70
     0
  9
$DIMCLRT
 70
     0
  9
$DIMTFAC
 40
1.0
  9
$DIMGAP
 40
0.09
  9
$DIMJUST
 70
     0
  9
$DIMSD1
 70
     0
  9
$DIMSD2
 70
     0
  9
$DIMTOLJ
 70
     1
  9
$DIMTZIN
 70
     0
  9
$DIMALTZ
 70
     0
  9
$DIMALTTZ
 70
     0
  9
$DIMUPT
 70
     0
  9
$DIMDEC
 70
     4
  9
$DIMTDEC
 70
     4
  9
$DIMALTU
 70
     2
  9
$DIMALTTD
 70
     2
  9
$DIMTXSTY
  7
Standard
  9
$DIMAUNIT
 70
     0
  9
$DIMADEC
 70
     0
  9
$DIMALTRND
 40
0.0
  9
$DIMAZIN
 70
     0
  9
$DIMDSEP
 70
    46
  9
$DIMATFIT
 70
     3
  9
$DIMFRAC
 70
     0
  9
$DIMLDRBLK
  1

  9
$DIMLUNIT
 70
     2
  9
$DIMLWD
 70
    -2
  9
$DIMLWE
 70
    -2
  9
$DIMTMOVE
 70
     0
  9
$LUNITS
 70
     2
  9
$LUPREC
 70
     4
  9
$SKETCHINC
 40
0.1
  9
$FILLETRAD
 40
0.5
  9
$AUNITS
 70
     0
  9
$AUPREC
 70
     0
  9
$MENU
  1
.
  9
$ELEVATION
 40
0.0
  9
$PELEVATION
 40
0.0
  9
$THICKNESS
 40
0.0
  9
$LIMCHECK
 70
     0
  9
$CHAMFERA
 40
0.5
  9
$CHAMFERB
 40
0.5
  9
$CHAMFERC
 40
1.0
  9
$CHAMFERD
 40
0.0
  9
$SKPOLY
 70
     0
  9
$TDCREATE
 40
2456238.386157928
  9
$TDUCREATE
 40
2456238.011157928
  9
$TDUPDATE
 40
2456238.38615794
  9
$TDUUPDATE
 40
2456238.01115794
  9
$TDINDWG
 40
0.0000000116
  9
$TDUSRTIMER
 40
0.0000000116
  9
$USRTIMER
 70
     1
  9
$ANGBASE
 50
0.0
  9
$ANGDIR
 70
     0
  9
$PDMODE
 70
     0
  9
$PDSIZE
 40
0.0
  9
$PLINEWID
 40
0.0
  9
$SPLFRAME
 70
     0
  9
$SPLINETYPE
 70
     6
  9
$SPLINESEGS
 70
     8
  9
$HANDSEED
  5
634
  9
$SURFTAB1
 70
     6
  9
$SURFTAB2
 70
     6
  9
$SURFTYPE
 70
     6
  9
$SURFU
 70
     6
  9
$SURFV
 70
     6
  9
$UCSBASE
  2

  9
$UCSNAME
  2

  9
$UCSORG
 10
0.0
 20
0.0
 30
0.0
  9
$UCSXDIR
 10
1.0
 20
0.0
 30
0.0
  9
$UCSYDIR
 10
0.0
 20
1.0
 30
0.0
  9
$UCSORTHOREF
  2

  9
$UCSORTHOVIEW
 70
     0
  9
$UCSORGTOP
 10
0.0
 20
0.0
 30
0.0
  9
$UCSORGBOTTOM
 10
0.0
 20
0.0
 30
0.0
  9
$UCSORGLEFT
 10
0.0
 20
0.0
 30
0.0
  9
$UCSORGRIGHT
 10
0.0
 20
0.0
 30
0.0
  9
$UCSORGFRONT
 10
0.0
 20
0.0
 30
0.0
  9
$UCSORGBACK
 10
0.0
 20
0.0
 30
0.0
  9
$PUCSBASE
  2

  9
$PUCSNAME
  2

  9
$PUCSORG
 10
0.0
 20
0.0
 30
0.0
  9
$PUCSXDIR
 10
1.0
 20
0.0
 30
0.0
  9
$PUCSYDIR
 10
0.0
 20
1.0
 30
0.0
  9
$PUCSORTHOREF
  2

  9
$PUCSORTHOVIEW
 70
     0
  9
$PUCSORGTOP
 10
0.0
 20
0.0
 30
0.0
  9
$PUCSORGBOTTOM
 10
0.0
 20
0.0
 30
0.0
  9
$PUCSORGLEFT
 10
0.0
 20
0.0
 30
0.0
  9
$PUCSORGRIGHT
 10
0.0
 20
0.0
 30
0.0
  9
$PUCSORGFRONT
 10
0.0
 20
0.0
 30
0.0
  9
$PUCSORGBACK
 10
0.0
 20
0.0
 30
0.0
  9
$USERI1
 70
     0
  9
$USERI2
 70
     0
  9
$USERI3
 70
     0
  9
$USERI4
 70
     0
  9
$USERI5
 70
     0
  9
$USERR1
 40
0.0
  9
$USERR2
 40
0.0
  9
$USERR3
 40
0.0
  9
$USERR4
 40
0.0
  9
$USERR5
 40
0.0
  9
$WORLDVIEW
 70
     1
  9
$SHADEDGE
 70
     3
  9
$SHADEDIF
 70
    70
  9
$TILEMODE
 70
     1
  9
$MAXACTVP
 70
    64
  9
$PINSBASE
 10
0.0
 20
0.0
 30
0.0
  9
$PLIMCHECK
 70
     0
  9
$PEXTMIN
 10
1.000000000000000E+20
 20
1.000000000000000E+20
 30
1.000000000000000E+20
  9
$PEXTMAX
 10
-1.000000000000000E+20
 20
-1.000000000000000E+20
 30
-1.000000000000000E+20
  9
$PLIMMIN
 10
0.0
 20
0.0
  9
$PLIMMAX
 10
12.0
 20
9.0
  9
$UNITMODE
 70
     0
  9
$VISRETAIN
 70
     1
  9
$PLINEGEN
 70
     0
  9
$PSLTSCALE
 70
     1
  9
$TREEDEPTH
 70
  3020
  9
$CMLSTYLE
  2
Standard
  9
$CMLJUST
 70
     0
  9
$CMLSCALE
 40
1.0
  9
$PROXYGRAPHICS
 70
     1
  9
$MEASUREMENT
 70
     0
  9
$CELWEIGHT
370
    -1
  9
$ENDCAPS
280
     0
  9
$JOINSTYLE
280
     0
  9
$LWDISPLAY
290
     0
  9
$INSUNITS
 70
     4
  9
$HYPERLINKBASE
  1

  9
$STYLESHEET
  1

  9
$XEDIT
290
     1
  9
$CEPSNTYPE
380
     0
  9
$PSTYLEMODE
290
     1
  9
$FINGERPRINTGUID
  2
{4F4319EF-E76F-44E4-A9A2-6A30462E23B1}
  9
$VERSIONGUID
  2
{FAEB1C32-E019-11D5-929B-00C0DF256EC4}
  9
$EXTNAMES
290
     1
  9
$PSVPSCALE
 40
0.0
  9
$OLESTARTUP
290
     0
  0
ENDSEC
  0
SECTION
  2
CLASSES
  0
CLASS
  1
ACDBDICTIONARYWDFLT
  2
AcDbDictionaryWithDefault
  3
ObjectDBX Classes
 90
        0
280
     0
281
     0
  0
CLASS
  1
VISUALSTYLE
  2
AcDbVisualStyle
  3
ObjectDBX Classes
 90
     4095
280
     0
281
     0
  0
CLASS
  1
MATERIAL
  2
AcDbMaterial
  3
ObjectDBX Classes
 90
     1153
280
     0
281
     0
  0
CLASS
  1
SCALE
  2
AcDbScale
  3
ObjectDBX Classes
 90
     1153
280
     0
281
     0
  0
CLASS
  1
DICTIONARYVAR
  2
AcDbDictionaryVar
  3
ObjectDBX Classes
 90
        0
280
     0
281
     0
  0
CLASS
  1
ACDBPLACEHOLDER
  2
AcDbPlaceHolder
  3
ObjectDBX Classes
 90
        0
280
     0
281
     0
  0
CLASS
  1
LAYOUT
  2
AcDbLayout
  3
ObjectDBX Classes
 90
        0
280
     0
281
     0
  0
ENDSEC
  0
SECTION
  2
TABLES
  0
TABLE
  2
VPORT
  5
8
330
0
100
AcDbSymbolTable
 70
     1
  0
VPORT
  5
29
330
8
100
AcDbSymbolTableRecord
100
AcDbViewportTableRecord
  2
*Active
 70
     0
 10
0.0
 20
0.0
 11
1.0
 21
1.0
 12
202.08862415
 22
180.811339492381
 13
0.0
 23
0.0
 14
0.5
 24
0.5
 15
0.5
 25
0.5
 16
0.0
 26
0.0
 36
1.0
 17
0.0
 27
0.0
 37
0.0
 40
190.4785836948572
 41
1.935100908182319
 42
50.0
 43
0.0
 44
0.0
 50
0.0
 51
0.0
 71
     0
 72
  1000
 73
     1
 74
     3
 75
     0
 76
     0
 77
     0
 78
     0
281
     0
 65
     1
110
0.0
120
0.0
130
0.0
111
1.0
121
0.0
131
0.0
112
0.0
122
1.0
132
0.0
 79
     0
146
0.0
  0
ENDTAB
  0
TABLE
  2
LTYPE
  5
5
330
0
100
AcDbSymbolTable
 70
     3
  0
LTYPE
  5
14
330
5
100
AcDbSymbolTableRecord
100
AcDbLinetypeTableRecord
  2
ByBlock
 70
     0
  3

 72
    65
 73
     0
 40
0.0
  0
LTYPE
  5
15
330
5
100
AcDbSymbolTableRecord
100
AcDbLinetypeTableRecord
  2
ByLayer
 70
     0
  3

 72
    65
 73
     0
 40
0.0
  0
LTYPE
  5
16
330
5
100
AcDbSymbolTableRecord
100
AcDbLinetypeTableRecord
  2
Continuous
 70
     0
  3
Solid line
 72
    65
 73
     0
 40
0.0
  0
LTYPE
  5
3F
330
5
100
AcDbSymbolTableRecord
100
AcDbLinetypeTableRecord
  2
chain
 70
     0
  3
_____ __ _____ __ _____
 72
    65
 73
     4
 40
18.5
 49
12.0
 74
     4
 75
     0
340
0
 46
1.0
 50
0.0
 44
0.0
 45
0.0
 49
-1.5
 74
     4
 75
     0
340
0
 46
1.0
 50
0.0
 44
0.0
 45
0.0
 49
3.5
 74
     4
 75
     0
340
0
 46
1.0
 50
0.0
 44
0.0
 45
0.0
 49
-1.5
 74
     4
 75
     0
340
0
 46
1.0
 50
0.0
 44
0.0
 45
0.0
  0
LTYPE
  5
40
330
5
100
AcDbSymbolTableRecord
100
AcDbLinetypeTableRecord
  2
USER_1
 70
     0
  3
UserDefineLineType1
 72
    65
 73
     2
 40
3.5
 49
2.5
 74
     4
 75
     0
340
0
 46
1.0
 50
0.0
 44
0.0
 45
0.0
 49
-1.0
 74
     4
 75
     0
340
0
 46
1.0
 50
0.0
 44
0.0
 45
0.0
  0
ENDTAB
  0
TABLE
  2
LAYER
  5
2
330
0
100
AcDbSymbolTable
 70
    15
  0
LAYER
  5
10
330
2
100
AcDbSymbolTableRecord
100
AcDbLayerTableRecord
  2
0
 70
     0
 62
     7
  6
Continuous
370
    -3
390
F
  0
LAYER
  5
41
330
2
100
AcDbSymbolTableRecord
100
AcDbLayerTableRecord
  2
D-TTL
 70
     0
 62
     7
  6
Continuous
370
    -3
390
F
  0
LAYER
  5
42
330
2
100
AcDbSymbolTableRecord
100
AcDbLayerTableRecord
  2
D-TTL-LINE
 70
     0
 62
     7
  6
Continuous
370
    -3
390
F
  0
LAYER
  5
43
330
2
100
AcDbSymbolTableRecord
100
AcDbLayerTableRecord
  2
D-TTL-TXT
 70
     0
 62
     7
  6
Continuous
370
    -3
390
F
  0
LAYER
  5
44
330
2
100
AcDbSymbolTableRecord
100
AcDbLayerTableRecord
  2
D-BGD
 70
     0
 62
   134
  6
Continuous
370
    -3
390
F
  0
LAYER
  5
45
330
2
100
AcDbSymbolTableRecord
100
AcDbLayerTableRecord
  2
D-STR
 70
     0
 62
     1
  6
Continuous
370
    -3
390
F
  0
LAYER
  5
46
330
2
100
AcDbSymbolTableRecord
100
AcDbLayerTableRecord
  2
D-STR-DIM
 70
     0
 62
     5
  6
Continuous
370
    -3
390
F
  0
LAYER
  5
47
330
2
100
AcDbSymbolTableRecord
100
AcDbLayerTableRecord
  2
D-STR-HTXT
 70
     0
 62
     5
  6
Continuous
370
    -3
390
F
  0
LAYER
  5
48
330
2
100
AcDbSymbolTableRecord
100
AcDbLayerTableRecord
  2
D-MTR
 70
     0
 62
     7
  6
Continuous
370
    -3
390
F
  0
LAYER
  5
49
330
2
100
AcDbSymbolTableRecord
100
AcDbLayerTableRecord
  2
D-MTR-FRAM
 70
     0
 62
     7
  6
Continuous
370
    -3
390
F
  0
LAYER
  5
4A
330
2
100
AcDbSymbolTableRecord
100
AcDbLayerTableRecord
  2
D-MTR-LINE
 70
     0
 62
     7
  6
Continuous
370
    -3
390
F
  0
LAYER
  5
4B
330
2
100
AcDbSymbolTableRecord
100
AcDbLayerTableRecord
  2
D-MTR-TXT
 70
     0
 62
     7
  6
Continuous
370
    -3
390
F
  0
LAYER
  5
4C
330
2
100
AcDbSymbolTableRecord
100
AcDbLayerTableRecord
  2
D-STR-STR5
 70
     0
 62
    83
  6
Continuous
370
    -3
390
F
  0
LAYER
  5
4D
330
2
100
AcDbSymbolTableRecord
100
AcDbLayerTableRecord
  2
寸法
 70
     0
 62
   132
  6
Continuous
370
    -3
390
F
  0
LAYER
  5
3DF
330
2
100
AcDbSymbolTableRecord
100
AcDbLayerTableRecord
  2
Defpoints
 70
     0
 62
     7
  6
Continuous
290
     0
370
    -3
390
F
  0
ENDTAB
  0
TABLE
  2
STYLE
  5
3
330
0
100
AcDbSymbolTable
 70
     3
  0
STYLE
  5
11
330
3
100
AcDbSymbolTableRecord
100
AcDbTextStyleTableRecord
  2
Standard
 70
     0
 40
0.0
 41
1.0
 50
0.0
 71
     0
 42
0.2
  3
txt
  4

  0
STYLE
  5
4E
330
3
100
AcDbSymbolTableRecord
100
AcDbTextStyleTableRecord
  2
STANDARD-FC
 70
     0
 40
0.0
 41
1.0
 50
0.0
 71
     0
 42
0.2
  3
txt
  4
bigfont
  0
STYLE
  5
4F
330
3
100
AcDbSymbolTableRecord
100
AcDbTextStyleTableRecord
  2
ＭＳ ゴシック
 70
     0
 40
0.0
 41
1.0
 50
0.0
 71
     0
 42
0.2
  3
msgothic.ttc
  4

1001
ACAD
1000
MS Gothic
1071
    32817
  0
ENDTAB
  0
TABLE
  2
VIEW
  5
6
330
0
100
AcDbSymbolTable
 70
     0
  0
ENDTAB
  0
TABLE
  2
UCS
  5
7
330
0
100
AcDbSymbolTable
 70
     0
  0
ENDTAB
  0
TABLE
  2
APPID
  5
9
330
0
100
AcDbSymbolTable
 70
     1
  0
APPID
  5
12
330
9
100
AcDbSymbolTableRecord
100
AcDbRegAppTableRecord
  2
ACAD
 70
     0
  0
ENDTAB
  0
TABLE
  2
DIMSTYLE
  5
A
330
0
100
AcDbSymbolTable
 70
     1
100
AcDbDimStyleTable
  0
DIMSTYLE
105
27
102
{ACAD_REACTORS
330
3DE
330
3E9
330
3F8
330
406
330
413
330
420
330
494
330
4A1
330
4E3
330
4F0
330
523
330
530
102
}
330
A
100
AcDbSymbolTableRecord
100
AcDbDimStyleTableRecord
  2
Standard
 70
     0
178
     0
340
11
  0
ENDTAB
  0
TABLE
  2
BLOCK_RECORD
  5
1
330
0
100
AcDbSymbolTable
 70
    13
  0
BLOCK_RECORD
  5
1F
330
1
100
AcDbSymbolTableRecord
100
AcDbBlockTableRecord
  2
*Model_Space
340
22
  0
BLOCK_RECORD
  5
1B
330
1
100
AcDbSymbolTableRecord
100
AcDbBlockTableRecord
  2
*Paper_Space
340
1E
  0
BLOCK_RECORD
  5
23
330
1
100
AcDbSymbolTableRecord
100
AcDbBlockTableRecord
  2
*Paper_Space0
340
26
  0
BLOCK_RECORD
  5
3E0
330
1
100
AcDbSymbolTableRecord
100
AcDbBlockTableRecord
  2
*D1
340
0
  0
BLOCK_RECORD
  5
3EA
330
1
100
AcDbSymbolTableRecord
100
AcDbBlockTableRecord
  2
*D2
340
0
  0
BLOCK_RECORD
  5
3F9
330
1
100
AcDbSymbolTableRecord
100
AcDbBlockTableRecord
  2
*D3
340
0
  0
BLOCK_RECORD
  5
407
330
1
100
AcDbSymbolTableRecord
100
AcDbBlockTableRecord
  2
*D4
340
0
  0
BLOCK_RECORD
  5
414
330
1
100
AcDbSymbolTableRecord
100
AcDbBlockTableRecord
  2
*D5
340
0
  0
BLOCK_RECORD
  5
421
330
1
100
AcDbSymbolTableRecord
100
AcDbBlockTableRecord
  2
*D6
340
0
  0
BLOCK_RECORD
  5
495
330
1
100
AcDbSymbolTableRecord
100
AcDbBlockTableRecord
  2
*D7
340
0
  0
BLOCK_RECORD
  5
4A2
330
1
100
AcDbSymbolTableRecord
100
AcDbBlockTableRecord
  2
*D8
340
0
  0
BLOCK_RECORD
  5
4E4
330
1
100
AcDbSymbolTableRecord
100
AcDbBlockTableRecord
  2
*D9
340
0
  0
BLOCK_RECORD
  5
4F1
330
1
100
AcDbSymbolTableRecord
100
AcDbBlockTableRecord
  2
*D10
340
0
  0
BLOCK_RECORD
  5
524
330
1
100
AcDbSymbolTableRecord
100
AcDbBlockTableRecord
  2
*D11
340
0
  0
BLOCK_RECORD
  5
531
330
1
100
AcDbSymbolTableRecord
100
AcDbBlockTableRecord
  2
*D12
340
0
  0
ENDTAB
  0
ENDSEC
  0
SECTION
  2
BLOCKS
  0
BLOCK
  5
20
330
1F
100
AcDbEntity
  8
0
100
AcDbBlockBegin
  2
*Model_Space
 70
     0
 10
0.0
 20
0.0
 30
0.0
  3
*Model_Space
  1

  0
ENDBLK
  5
21
330
1F
100
AcDbEntity
  8
0
100
AcDbBlockEnd
  0
BLOCK
  5
1C
330
1B
100
AcDbEntity
 67
     1
  8
0
100
AcDbBlockBegin
  2
*Paper_Space
 70
     0
 10
0.0
 20
0.0
 30
0.0
  3
*Paper_Space
  1

  0
ENDBLK
  5
1D
330
1B
100
AcDbEntity
 67
     1
  8
0
100
AcDbBlockEnd
  0
BLOCK
  5
24
330
23
100
AcDbEntity
  8
0
100
AcDbBlockBegin
  2
*Paper_Space0
 70
     0
 10
0.0
 20
0.0
 30
0.0
  3
*Paper_Space0
  1

  0
ENDBLK
  5
25
330
23
100
AcDbEntity
  8
0
100
AcDbBlockEnd
  0
BLOCK
  5
3E7
330
3E0
100
AcDbEntity
  8
0
100
AcDbBlockBegin
  2
*D1
 70
     1
 10
0.0
 20
0.0
 30
0.0
  3
*D1
  1

  0
LINE
  5
3E1
330
3E0
100
AcDbEntity
  8
D-STR-DIM
  6
Continuous
 62
     5
370
    -2
100
AcDbLine
 10
74.83951824964444
 20
237.4227918686336
 30
0.0
 11
58.91810415035557
 21
227.4274250113664
 31
0.0
  0
MTEXT
  5
3E2
330
3E0
100
AcDbEntity
  8
D-STR-DIM
 62
     5
370
    13
100
AcDbMText
 10
65.04775179958652
 20
233.9322247627945
 30
0.0
 40
2.777777777777778
 41
0.0
 71
     5
 72
     1
  1
\A1;600～1000
  7
ＭＳ ゴシック
 11
0.8469331103555866
 21
0.5316994513664762
 31
0.0
 73
     1
 44
1.0
1001
ACAD
1000
ACAD_MTEXT_DEFINED_HEIGHT_BEGIN
1070
    46
1040
0.2
1000
ACAD_MTEXT_DEFINED_HEIGHT_END
  0
SOLID
  5
3E3
330
3E0
100
AcDbEntity
  8
D-STR-DIM
 62
     5
100
AcDbTrace
 10
58.82948757512782
 20
227.568580529759
 30
0.0
 11
59.00672072558331
 21
227.2862694929738
 31
0.0
 12
58.07117104
 22
226.89572556
 32
0.0
 13
58.07117104
 23
226.89572556
 33
0.0
  0
SOLID
  5
3E4
330
3E0
100
AcDbEntity
  8
D-STR-DIM
 62
     5
100
AcDbTrace
 10
74.92813482487219
 20
237.281636350241
 30
0.0
 11
74.7509016744167
 21
237.5639473870262
 31
0.0
 12
75.68645136
 22
237.95449132
 32
0.0
 13
75.68645136
 23
237.95449132
 33
0.0
  0
POINT
  5
3E5
330
3E0
100
AcDbEntity
  8
Defpoints
 62
     0
100
AcDbPoint
 10
75.68645136
 20
237.95449132
 30
0.0
  0
POINT
  5
3E6
330
3E0
100
AcDbEntity
  8
Defpoints
 62
     0
100
AcDbPoint
 10
58.07117104
 20
226.89572556
 30
0.0
  0
ENDBLK
  5
3E8
330
3E0
100
AcDbEntity
  8
0
100
AcDbBlockEnd
  0
BLOCK
  5
3F6
330
3EA
100
AcDbEntity
  8
0
100
AcDbBlockBegin
  2
*D2
 70
     1
 10
0.0
 20
0.0
 30
0.0
  3
*D2
  1

  0
LINE
  5
3EB
330
3EA
100
AcDbEntity
  8
D-STR-DIM
  6
Continuous
 62
     5
370
    -2
100
AcDbLine
 10
146.21711982
 20
146.63749704
 30
0.0
 11
171.21711982
 21
146.63749704
 31
0.0
  0
LINE
  5
3EC
330
3EA
100
AcDbEntity
  8
D-STR-DIM
  6
Continuous
 62
     5
370
    -2
100
AcDbLine
 10
146.21711982
 20
148.63749654
 30
0.0
 11
171.21711982
 21
148.63749654
 31
0.0
  0
LINE
  5
3ED
330
3EA
100
AcDbEntity
  8
D-STR-DIM
  6
Continuous
 62
     5
370
    -2
100
AcDbLine
 10
170.21711982
 20
146.63749704
 30
0.0
 11
170.21711982
 21
148.63749654
 31
0.0
  0
LINE
  5
3EE
330
3EA
100
AcDbEntity
  8
D-STR-DIM
  6
Continuous
 62
     5
370
    -2
100
AcDbLine
 10
170.21711982
 20
145.63749704
 30
0.0
 11
170.21711982
 21
144.6374970400001
 31
0.0
  0
LINE
  5
3EF
330
3EA
100
AcDbEntity
  8
D-STR-DIM
  6
Continuous
 62
     5
370
    -2
100
AcDbLine
 10
170.21711982
 20
149.63749654
 30
0.0
 11
170.21711982
 21
150.6374965399999
 31
0.0
  0
SOLID
  5
3F0
330
3EA
100
AcDbEntity
  8
D-STR-DIM
 62
     5
100
AcDbTrace
 10
170.3837864866667
 20
145.63749704
 30
0.0
 11
170.0504531533334
 21
145.63749704
 31
0.0
 12
170.21711982
 22
146.63749704
 32
0.0
 13
170.21711982
 23
146.63749704
 33
0.0
  0
SOLID
  5
3F1
330
3EA
100
AcDbEntity
  8
D-STR-DIM
 62
     5
100
AcDbTrace
 10
170.0504531533334
 20
149.63749654
 30
0.0
 11
170.3837864866667
 21
149.63749654
 31
0.0
 12
170.21711982
 22
148.63749654
 32
0.0
 13
170.21711982
 23
148.63749654
 33
0.0
  0
MTEXT
  5
3F2
330
3EA
100
AcDbEntity
  8
D-STR-DIM
 62
     5
370
    13
100
AcDbMText
 10
167.96711982
 20
147.63749678
 30
0.0
 40
2.777777777777778
 41
0.0
 71
     5
 72
     1
  1
\A1;100
  7
ＭＳ ゴシック
 11
6.123233995736766E-17
 21
1.0
 31
0.0
 73
     1
 44
1.0
1001
ACAD
1000
ACAD_MTEXT_DEFINED_HEIGHT_BEGIN
1070
    46
1040
0.2
1000
ACAD_MTEXT_DEFINED_HEIGHT_END
  0
POINT
  5
3F3
330
3EA
100
AcDbEntity
  8
Defpoints
 62
     0
100
AcDbPoint
 10
145.21711982
 20
146.63749704
 30
0.0
  0
POINT
  5
3F4
330
3EA
100
AcDbEntity
  8
Defpoints
 62
     0
100
AcDbPoint
 10
145.21711982
 20
148.63749654
 30
0.0
  0
POINT
  5
3F5
330
3EA
100
AcDbEntity
  8
Defpoints
 62
     0
100
AcDbPoint
 10
170.21711982
 20
148.63749654
 30
0.0
  0
ENDBLK
  5
3F7
330
3EA
100
AcDbEntity
  8
0
100
AcDbBlockEnd
  0
BLOCK
  5
403
330
3F9
100
AcDbEntity
  8
0
100
AcDbBlockBegin
  2
*D3
 70
     1
 10
0.0
 20
0.0
 30
0.0
  3
*D3
  1

  0
LINE
  5
3FA
330
3F9
100
AcDbEntity
  8
D-STR-DIM
  6
Continuous
 62
     5
370
    -2
100
AcDbLine
 10
146.21711982
 20
148.63749654
 30
0.0
 11
171.21711982
 21
148.63749654
 31
0.0
  0
LINE
  5
3FB
330
3F9
100
AcDbEntity
  8
D-STR-DIM
  6
Continuous
 62
     5
370
    -2
100
AcDbLine
 10
141.11711982
 20
236.63749554
 30
0.0
 11
171.21711982
 21
236.63749554
 31
0.0
  0
LINE
  5
3FC
330
3F9
100
AcDbEntity
  8
D-STR-DIM
  6
Continuous
 62
     5
370
    -2
100
AcDbLine
 10
170.21711982
 20
149.63749654
 30
0.0
 11
170.21711982
 21
235.6374955400001
 31
0.0
  0
SOLID
  5
3FD
330
3F9
100
AcDbEntity
  8
D-STR-DIM
 62
     5
100
AcDbTrace
 10
170.0504531533334
 20
149.63749654
 30
0.0
 11
170.3837864866667
 21
149.63749654
 31
0.0
 12
170.21711982
 22
148.63749654
 32
0.0
 13
170.21711982
 23
148.63749654
 33
0.0
  0
SOLID
  5
3FE
330
3F9
100
AcDbEntity
  8
D-STR-DIM
 62
     5
100
AcDbTrace
 10
170.3837864866667
 20
235.6374955400001
 30
0.0
 11
170.0504531533334
 21
235.6374955400001
 31
0.0
 12
170.21711982
 22
236.63749554
 32
0.0
 13
170.21711982
 23
236.63749554
 33
0.0
  0
MTEXT
  5
3FF
330
3F9
100
AcDbEntity
  8
D-STR-DIM
 62
     5
370
    13
100
AcDbMText
 10
167.96711982
 20
192.63749604
 30
0.0
 40
2.777777777777778
 41
0.0
 71
     5
 72
     1
  1
\A1;3600～4700
  7
ＭＳ ゴシック
 11
6.123233995736766E-17
 21
1.0
 31
0.0
 73
     1
 44
1.0
1001
ACAD
1000
ACAD_MTEXT_DEFINED_HEIGHT_BEGIN
1070
    46
1040
0.2
1000
ACAD_MTEXT_DEFINED_HEIGHT_END
  0
POINT
  5
400
330
3F9
100
AcDbEntity
  8
Defpoints
 62
     0
100
AcDbPoint
 10
145.21711982
 20
148.63749654
 30
0.0
  0
POINT
  5
401
330
3F9
100
AcDbEntity
  8
Defpoints
 62
     0
100
AcDbPoint
 10
140.11711982
 20
236.63749554
 30
0.0
  0
POINT
  5
402
330
3F9
100
AcDbEntity
  8
Defpoints
 62
     0
100
AcDbPoint
 10
170.21711982
 20
236.63749554
 30
0.0
  0
ENDBLK
  5
404
330
3F9
100
AcDbEntity
  8
0
100
AcDbBlockEnd
  0
BLOCK
  5
411
330
407
100
AcDbEntity
  8
0
100
AcDbBlockBegin
  2
*D4
 70
     1
 10
0.0
 20
0.0
 30
0.0
  3
*D4
  1

  0
LINE
  5
408
330
407
100
AcDbEntity
  8
D-STR-DIM
  6
Continuous
 62
     5
370
    -2
100
AcDbLine
 10
146.21711982
 20
148.63749654
 30
0.0
 11
163.21711982
 21
148.63749654
 31
0.0
  0
LINE
  5
409
330
407
100
AcDbEntity
  8
D-STR-DIM
  6
Continuous
 62
     5
370
    -2
100
AcDbLine
 10
158.21711982
 20
172.63749654
 30
0.0
 11
163.21711982
 21
172.63749654
 31
0.0
  0
LINE
  5
40A
330
407
100
AcDbEntity
  8
D-STR-DIM
  6
Continuous
 62
     5
370
    -2
100
AcDbLine
 10
162.21711982
 20
149.63749654
 30
0.0
 11
162.21711982
 21
171.63749654
 31
0.0
  0
SOLID
  5
40B
330
407
100
AcDbEntity
  8
D-STR-DIM
 62
     5
100
AcDbTrace
 10
162.0504531533334
 20
149.63749654
 30
0.0
 11
162.3837864866667
 21
149.63749654
 31
0.0
 12
162.21711982
 22
148.63749654
 32
0.0
 13
162.21711982
 23
148.63749654
 33
0.0
  0
SOLID
  5
40C
330
407
100
AcDbEntity
  8
D-STR-DIM
 62
     5
100
AcDbTrace
 10
162.3837864866667
 20
171.63749654
 30
0.0
 11
162.0504531533334
 21
171.63749654
 31
0.0
 12
162.21711982
 22
172.63749654
 32
0.0
 13
162.21711982
 23
172.63749654
 33
0.0
  0
MTEXT
  5
40D
330
407
100
AcDbEntity
  8
D-STR-DIM
 62
     5
370
    13
100
AcDbMText
 10
159.61711982
 20
160.98749654
 30
0.0
 40
2.777777777777778
 41
0.0
 71
     5
 72
     1
  1
\A1;H
  7
ＭＳ ゴシック
 11
6.123233995736766E-17
 21
1.0
 31
0.0
 73
     1
 44
1.0
1001
ACAD
1000
ACAD_MTEXT_DEFINED_HEIGHT_BEGIN
1070
    46
1040
0.2
1000
ACAD_MTEXT_DEFINED_HEIGHT_END
  0
POINT
  5
40E
330
407
100
AcDbEntity
  8
Defpoints
 62
     0
100
AcDbPoint
 10
145.21711982
 20
148.63749654
 30
0.0
  0
POINT
  5
40F
330
407
100
AcDbEntity
  8
Defpoints
 62
     0
100
AcDbPoint
 10
157.21711982
 20
172.63749654
 30
0.0
  0
POINT
  5
410
330
407
100
AcDbEntity
  8
Defpoints
 62
     0
100
AcDbPoint
 10
162.21711982
 20
172.63749654
 30
0.0
  0
ENDBLK
  5
412
330
407
100
AcDbEntity
  8
0
100
AcDbBlockEnd
  0
BLOCK
  5
41E
330
414
100
AcDbEntity
  8
0
100
AcDbBlockBegin
  2
*D5
 70
     1
 10
0.0
 20
0.0
 30
0.0
  3
*D5
  1

  0
LINE
  5
415
330
414
100
AcDbEntity
  8
D-STR-DIM
  6
Continuous
 62
     5
370
    -2
100
AcDbLine
 10
158.21711982
 20
172.63749654
 30
0.0
 11
163.21711982
 21
172.63749654
 31
0.0
  0
LINE
  5
416
330
414
100
AcDbEntity
  8
D-STR-DIM
  6
Continuous
 62
     5
370
    -2
100
AcDbLine
 10
135.21712032
 20
222.63749604
 30
0.0
 11
163.21711982
 21
222.63749604
 31
0.0
  0
LINE
  5
417
330
414
100
AcDbEntity
  8
D-STR-DIM
  6
Continuous
 62
     5
370
    -2
100
AcDbLine
 10
162.21711982
 20
173.63749654
 30
0.0
 11
162.21711982
 21
221.63749604
 31
0.0
  0
SOLID
  5
418
330
414
100
AcDbEntity
  8
D-STR-DIM
 62
     5
100
AcDbTrace
 10
162.0504531533334
 20
173.63749654
 30
0.0
 11
162.3837864866667
 21
173.63749654
 31
0.0
 12
162.21711982
 22
172.63749654
 32
0.0
 13
162.21711982
 23
172.63749654
 33
0.0
  0
SOLID
  5
419
330
414
100
AcDbEntity
  8
D-STR-DIM
 62
     5
100
AcDbTrace
 10
162.3837864866667
 20
221.63749604
 30
0.0
 11
162.0504531533334
 21
221.63749604
 31
0.0
 12
162.21711982
 22
222.63749604
 32
0.0
 13
162.21711982
 23
222.63749604
 33
0.0
  0
MTEXT
  5
41A
330
414
100
AcDbEntity
  8
D-STR-DIM
 62
     5
370
    13
100
AcDbMText
 10
159.96711982
 20
197.63749628
 30
0.0
 40
2.777777777777778
 41
0.0
 71
     5
 72
     1
  1
\A1;標準 2500
  7
ＭＳ ゴシック
 11
6.123233995736766E-17
 21
1.0
 31
0.0
 73
     1
 44
1.0
1001
ACAD
1000
ACAD_MTEXT_DEFINED_HEIGHT_BEGIN
1070
    46
1040
0.2
1000
ACAD_MTEXT_DEFINED_HEIGHT_END
  0
POINT
  5
41B
330
414
100
AcDbEntity
  8
Defpoints
 62
     0
100
AcDbPoint
 10
157.21711982
 20
172.63749654
 30
0.0
  0
POINT
  5
41C
330
414
100
AcDbEntity
  8
Defpoints
 62
     0
100
AcDbPoint
 10
134.21712032
 20
222.63749604
 30
0.0
  0
POINT
  5
41D
330
414
100
AcDbEntity
  8
Defpoints
 62
     0
100
AcDbPoint
 10
162.21711982
 20
222.63749604
 30
0.0
  0
ENDBLK
  5
41F
330
414
100
AcDbEntity
  8
0
100
AcDbBlockEnd
  0
BLOCK
  5
42B
330
421
100
AcDbEntity
  8
0
100
AcDbBlockBegin
  2
*D6
 70
     1
 10
0.0
 20
0.0
 30
0.0
  3
*D6
  1

  0
LINE
  5
422
330
421
100
AcDbEntity
  8
D-STR-DIM
  6
Continuous
 62
     5
370
    -2
100
AcDbLine
 10
145.21711932
 20
170.63749654
 30
0.0
 11
155.21711982
 21
170.63749654
 31
0.0
  0
LINE
  5
423
330
421
100
AcDbEntity
  8
D-STR-DIM
  6
Continuous
 62
     5
370
    -2
100
AcDbLine
 10
156.21711982
 20
172.63749654
 30
0.0
 11
153.2171198200001
 21
172.63749654
 31
0.0
  0
LINE
  5
424
330
421
100
AcDbEntity
  8
D-STR-DIM
  6
Continuous
 62
     5
370
    -2
100
AcDbLine
 10
154.21711982
 20
171.63749654
 30
0.0
 11
154.21711982
 21
171.63749654
 31
0.0
  0
SOLID
  5
425
330
421
100
AcDbEntity
  8
D-STR-DIM
 62
     5
100
AcDbTrace
 10
154.0504531533334
 20
171.63749654
 30
0.0
 11
154.3837864866667
 21
171.63749654
 31
0.0
 12
154.21711982
 22
170.63749654
 32
0.0
 13
154.21711982
 23
170.63749654
 33
0.0
  0
SOLID
  5
426
330
421
100
AcDbEntity
  8
D-STR-DIM
 62
     5
100
AcDbTrace
 10
154.3837864866667
 20
171.63749654
 30
0.0
 11
154.0504531533334
 21
171.63749654
 31
0.0
 12
154.21711982
 22
172.63749654
 32
0.0
 13
154.21711982
 23
172.63749654
 33
0.0
  0
MTEXT
  5
427
330
421
100
AcDbEntity
  8
D-STR-DIM
 62
     5
370
    13
100
AcDbMText
 10
151.96711982
 20
171.63749654
 30
0.0
 40
2.777777777777778
 41
0.0
 71
     5
 72
     1
  1
\A1;100
  7
ＭＳ ゴシック
 11
6.123233995736766E-17
 21
1.0
 31
0.0
 73
     1
 44
1.0
1001
ACAD
1000
ACAD_MTEXT_DEFINED_HEIGHT_BEGIN
1070
    46
1040
0.2
1000
ACAD_MTEXT_DEFINED_HEIGHT_END
  0
POINT
  5
428
330
421
100
AcDbEntity
  8
Defpoints
 62
     0
100
AcDbPoint
 10
144.21711932
 20
170.63749654
 30
0.0
  0
POINT
  5
429
330
421
100
AcDbEntity
  8
Defpoints
 62
     0
100
AcDbPoint
 10
157.21711982
 20
172.63749654
 30
0.0
  0
POINT
  5
42A
330
421
100
AcDbEntity
  8
Defpoints
 62
     0
100
AcDbPoint
 10
154.21711982
 20
172.63749654
 30
0.0
  0
ENDBLK
  5
42C
330
421
100
AcDbEntity
  8
0
100
AcDbBlockEnd
  0
BLOCK
  5
49F
330
495
100
AcDbEntity
  8
0
100
AcDbBlockBegin
  2
*D7
 70
     1
 10
0.0
 20
0.0
 30
0.0
  3
*D7
  1

  0
LINE
  5
496
330
495
100
AcDbEntity
  8
D-STR-DIM
  6
Continuous
 62
     5
370
    -2
100
AcDbLine
 10
73.21711932000001
 20
113.43948474
 30
0.0
 11
88.21711932000001
 21
113.43948474
 31
0.0
  0
LINE
  5
497
330
495
100
AcDbEntity
  8
D-STR-DIM
  6
Continuous
 62
     5
370
    -2
100
AcDbLine
 10
73.21711932000001
 20
103.43948474
 30
0.0
 11
88.21711932000001
 21
103.43948474
 31
0.0
  0
LINE
  5
498
330
495
100
AcDbEntity
  8
D-STR-DIM
  6
Continuous
 62
     5
370
    -2
100
AcDbLine
 10
87.21711932000001
 20
112.43948474
 30
0.0
 11
87.21711932000001
 21
104.43948474
 31
0.0
  0
SOLID
  5
499
330
495
100
AcDbEntity
  8
D-STR-DIM
 62
     5
100
AcDbTrace
 10
87.38378598666667
 20
112.43948474
 30
0.0
 11
87.05045265333335
 21
112.43948474
 31
0.0
 12
87.21711932000001
 22
113.43948474
 32
0.0
 13
87.21711932000001
 23
113.43948474
 33
0.0
  0
SOLID
  5
49A
330
495
100
AcDbEntity
  8
D-STR-DIM
 62
     5
100
AcDbTrace
 10
87.05045265333335
 20
104.43948474
 30
0.0
 11
87.38378598666667
 21
104.43948474
 31
0.0
 12
87.21711932000001
 22
103.43948474
 32
0.0
 13
87.21711932000001
 23
103.43948474
 33
0.0
  0
MTEXT
  5
49B
330
495
100
AcDbEntity
  8
D-STR-DIM
 62
     5
370
    13
100
AcDbMText
 10
84.96711932000001
 20
108.43948474
 30
0.0
 40
2.777777777777778
 41
0.0
 71
     5
 72
     1
  1
\A1;500
  7
ＭＳ ゴシック
 11
6.123233995736766E-17
 21
1.0
 31
0.0
 73
     1
 44
1.0
1001
ACAD
1000
ACAD_MTEXT_DEFINED_HEIGHT_BEGIN
1070
    46
1040
0.2
1000
ACAD_MTEXT_DEFINED_HEIGHT_END
  0
POINT
  5
49C
330
495
100
AcDbEntity
  8
Defpoints
 62
     0
100
AcDbPoint
 10
72.21711932000001
 20
113.43948474
 30
0.0
  0
POINT
  5
49D
330
495
100
AcDbEntity
  8
Defpoints
 62
     0
100
AcDbPoint
 10
72.21711932000001
 20
103.43948474
 30
0.0
  0
POINT
  5
49E
330
495
100
AcDbEntity
  8
Defpoints
 62
     0
100
AcDbPoint
 10
87.21711932000001
 20
103.43948474
 30
0.0
  0
ENDBLK
  5
4A0
330
495
100
AcDbEntity
  8
0
100
AcDbBlockEnd
  0
BLOCK
  5
4AC
330
4A2
100
AcDbEntity
  8
0
100
AcDbBlockBegin
  2
*D8
 70
     1
 10
0.0
 20
0.0
 30
0.0
  3
*D8
  1

  0
LINE
  5
4A3
330
4A2
100
AcDbEntity
  8
D-STR-DIM
  6
Continuous
 62
     5
370
    -2
100
AcDbLine
 10
62.21712032000001
 20
102.43948474
 30
0.0
 11
62.21712032000001
 21
87.43948474000001
 31
0.0
  0
LINE
  5
4A4
330
4A2
100
AcDbEntity
  8
D-STR-DIM
  6
Continuous
 62
     5
370
    -2
100
AcDbLine
 10
72.21711932000001
 20
102.43948474
 30
0.0
 11
72.21711932000001
 21
87.43948474000001
 31
0.0
  0
LINE
  5
4A5
330
4A2
100
AcDbEntity
  8
D-STR-DIM
  6
Continuous
 62
     5
370
    -2
100
AcDbLine
 10
63.21712031999998
 20
88.43948474000001
 30
0.0
 11
71.21711932000004
 21
88.43948474000001
 31
0.0
  0
SOLID
  5
4A6
330
4A2
100
AcDbEntity
  8
D-STR-DIM
 62
     5
100
AcDbTrace
 10
63.21712031999998
 20
88.60615140666667
 30
0.0
 11
63.21712031999998
 21
88.27281807333335
 31
0.0
 12
62.21712032000001
 22
88.43948474000001
 32
0.0
 13
62.21712032000001
 23
88.43948474000001
 33
0.0
  0
SOLID
  5
4A7
330
4A2
100
AcDbEntity
  8
D-STR-DIM
 62
     5
100
AcDbTrace
 10
71.21711932000004
 20
88.27281807333335
 30
0.0
 11
71.21711932000004
 21
88.60615140666667
 31
0.0
 12
72.21711932000001
 22
88.43948474000001
 32
0.0
 13
72.21711932000001
 23
88.43948474000001
 33
0.0
  0
MTEXT
  5
4A8
330
4A2
100
AcDbEntity
  8
D-STR-DIM
 62
     5
370
    13
100
AcDbMText
 10
67.21711982
 20
90.68948474000001
 30
0.0
 40
2.777777777777778
 41
0.0
 71
     5
 72
     1
  1
\A1;500
  7
ＭＳ ゴシック
 73
     1
 44
1.0
1001
ACAD
1000
ACAD_MTEXT_DEFINED_HEIGHT_BEGIN
1070
    46
1040
0.2
1000
ACAD_MTEXT_DEFINED_HEIGHT_END
  0
POINT
  5
4A9
330
4A2
100
AcDbEntity
  8
Defpoints
 62
     0
100
AcDbPoint
 10
62.21712032000001
 20
103.43948474
 30
0.0
  0
POINT
  5
4AA
330
4A2
100
AcDbEntity
  8
Defpoints
 62
     0
100
AcDbPoint
 10
72.21711932000001
 20
103.43948474
 30
0.0
  0
POINT
  5
4AB
330
4A2
100
AcDbEntity
  8
Defpoints
 62
     0
100
AcDbPoint
 10
72.21711932000001
 20
88.43948474000001
 30
0.0
  0
ENDBLK
  5
4AD
330
4A2
100
AcDbEntity
  8
0
100
AcDbBlockEnd
  0
BLOCK
  5
4EE
330
4E4
100
AcDbEntity
  8
0
100
AcDbBlockBegin
  2
*D9
 70
     1
 10
0.0
 20
0.0
 30
0.0
  3
*D9
  1

  0
LINE
  5
4E5
330
4E4
100
AcDbEntity
  8
D-STR-DIM
  6
Continuous
 62
     5
370
    -2
100
AcDbLine
 10
145.21711932
 20
113.43948474
 30
0.0
 11
160.21711932
 21
113.43948474
 31
0.0
  0
LINE
  5
4E6
330
4E4
100
AcDbEntity
  8
D-STR-DIM
  6
Continuous
 62
     5
370
    -2
100
AcDbLine
 10
145.21711932
 20
103.43948474
 30
0.0
 11
160.21711932
 21
103.43948474
 31
0.0
  0
LINE
  5
4E7
330
4E4
100
AcDbEntity
  8
D-STR-DIM
  6
Continuous
 62
     5
370
    -2
100
AcDbLine
 10
159.21711932
 20
112.43948474
 30
0.0
 11
159.21711932
 21
104.43948474
 31
0.0
  0
SOLID
  5
4E8
330
4E4
100
AcDbEntity
  8
D-STR-DIM
 62
     5
100
AcDbTrace
 10
159.3837859866667
 20
112.43948474
 30
0.0
 11
159.0504526533333
 21
112.43948474
 31
0.0
 12
159.21711932
 22
113.43948474
 32
0.0
 13
159.21711932
 23
113.43948474
 33
0.0
  0
SOLID
  5
4E9
330
4E4
100
AcDbEntity
  8
D-STR-DIM
 62
     5
100
AcDbTrace
 10
159.0504526533333
 20
104.43948474
 30
0.0
 11
159.3837859866667
 21
104.43948474
 31
0.0
 12
159.21711932
 22
103.43948474
 32
0.0
 13
159.21711932
 23
103.43948474
 33
0.0
  0
MTEXT
  5
4EA
330
4E4
100
AcDbEntity
  8
D-STR-DIM
 62
     5
370
    13
100
AcDbMText
 10
156.96711932
 20
108.43948474
 30
0.0
 40
2.777777777777778
 41
0.0
 71
     5
 72
     1
  1
\A1;500
  7
ＭＳ ゴシック
 11
6.123233995736766E-17
 21
1.0
 31
0.0
 73
     1
 44
1.0
1001
ACAD
1000
ACAD_MTEXT_DEFINED_HEIGHT_BEGIN
1070
    46
1040
0.2
1000
ACAD_MTEXT_DEFINED_HEIGHT_END
  0
POINT
  5
4EB
330
4E4
100
AcDbEntity
  8
Defpoints
 62
     0
100
AcDbPoint
 10
144.21711932
 20
113.43948474
 30
0.0
  0
POINT
  5
4EC
330
4E4
100
AcDbEntity
  8
Defpoints
 62
     0
100
AcDbPoint
 10
144.21711932
 20
103.43948474
 30
0.0
  0
POINT
  5
4ED
330
4E4
100
AcDbEntity
  8
Defpoints
 62
     0
100
AcDbPoint
 10
159.21711932
 20
103.43948474
 30
0.0
  0
ENDBLK
  5
4EF
330
4E4
100
AcDbEntity
  8
0
100
AcDbBlockEnd
  0
BLOCK
  5
4FB
330
4F1
100
AcDbEntity
  8
0
100
AcDbBlockBegin
  2
*D10
 70
     1
 10
0.0
 20
0.0
 30
0.0
  3
*D10
  1

  0
LINE
  5
4F2
330
4F1
100
AcDbEntity
  8
D-STR-DIM
  6
Continuous
 62
     5
370
    -2
100
AcDbLine
 10
134.21712032
 20
102.43948474
 30
0.0
 11
134.21712032
 21
87.43948474000001
 31
0.0
  0
LINE
  5
4F3
330
4F1
100
AcDbEntity
  8
D-STR-DIM
  6
Continuous
 62
     5
370
    -2
100
AcDbLine
 10
144.21711932
 20
102.43948474
 30
0.0
 11
144.21711932
 21
87.43948474000001
 31
0.0
  0
LINE
  5
4F4
330
4F1
100
AcDbEntity
  8
D-STR-DIM
  6
Continuous
 62
     5
370
    -2
100
AcDbLine
 10
135.21712032
 20
88.43948474000001
 30
0.0
 11
143.21711932
 21
88.43948474000001
 31
0.0
  0
SOLID
  5
4F5
330
4F1
100
AcDbEntity
  8
D-STR-DIM
 62
     5
100
AcDbTrace
 10
135.21712032
 20
88.60615140666667
 30
0.0
 11
135.21712032
 21
88.27281807333335
 31
0.0
 12
134.21712032
 22
88.43948474000001
 32
0.0
 13
134.21712032
 23
88.43948474000001
 33
0.0
  0
SOLID
  5
4F6
330
4F1
100
AcDbEntity
  8
D-STR-DIM
 62
     5
100
AcDbTrace
 10
143.21711932
 20
88.27281807333335
 30
0.0
 11
143.21711932
 21
88.60615140666667
 31
0.0
 12
144.21711932
 22
88.43948474000001
 32
0.0
 13
144.21711932
 23
88.43948474000001
 33
0.0
  0
MTEXT
  5
4F7
330
4F1
100
AcDbEntity
  8
D-STR-DIM
 62
     5
370
    13
100
AcDbMText
 10
139.21711982
 20
90.68948474000001
 30
0.0
 40
2.777777777777778
 41
0.0
 71
     5
 72
     1
  1
\A1;500
  7
ＭＳ ゴシック
 73
     1
 44
1.0
1001
ACAD
1000
ACAD_MTEXT_DEFINED_HEIGHT_BEGIN
1070
    46
1040
0.2
1000
ACAD_MTEXT_DEFINED_HEIGHT_END
  0
POINT
  5
4F8
330
4F1
100
AcDbEntity
  8
Defpoints
 62
     0
100
AcDbPoint
 10
134.21712032
 20
103.43948474
 30
0.0
  0
POINT
  5
4F9
330
4F1
100
AcDbEntity
  8
Defpoints
 62
     0
100
AcDbPoint
 10
144.21711932
 20
103.43948474
 30
0.0
  0
POINT
  5
4FA
330
4F1
100
AcDbEntity
  8
Defpoints
 62
     0
100
AcDbPoint
 10
144.21711932
 20
88.43948474000001
 30
0.0
  0
ENDBLK
  5
4FC
330
4F1
100
AcDbEntity
  8
0
100
AcDbBlockEnd
  0
BLOCK
  5
52E
330
524
100
AcDbEntity
  8
0
100
AcDbBlockBegin
  2
*D11
 70
     1
 10
0.0
 20
0.0
 30
0.0
  3
*D11
  1

  0
LINE
  5
525
330
524
100
AcDbEntity
  8
D-STR-DIM
  6
Continuous
 62
     5
370
    -2
100
AcDbLine
 10
205.21711932
 20
113.43948474
 30
0.0
 11
220.21711932
 21
113.43948474
 31
0.0
  0
LINE
  5
526
330
524
100
AcDbEntity
  8
D-STR-DIM
  6
Continuous
 62
     5
370
    -2
100
AcDbLine
 10
205.21711932
 20
103.43948474
 30
0.0
 11
220.21711932
 21
103.43948474
 31
0.0
  0
LINE
  5
527
330
524
100
AcDbEntity
  8
D-STR-DIM
  6
Continuous
 62
     5
370
    -2
100
AcDbLine
 10
219.21711932
 20
112.43948474
 30
0.0
 11
219.21711932
 21
104.43948474
 31
0.0
  0
SOLID
  5
528
330
524
100
AcDbEntity
  8
D-STR-DIM
 62
     5
100
AcDbTrace
 10
219.3837859866667
 20
112.43948474
 30
0.0
 11
219.0504526533333
 21
112.43948474
 31
0.0
 12
219.21711932
 22
113.43948474
 32
0.0
 13
219.21711932
 23
113.43948474
 33
0.0
  0
SOLID
  5
529
330
524
100
AcDbEntity
  8
D-STR-DIM
 62
     5
100
AcDbTrace
 10
219.0504526533333
 20
104.43948474
 30
0.0
 11
219.3837859866667
 21
104.43948474
 31
0.0
 12
219.21711932
 22
103.43948474
 32
0.0
 13
219.21711932
 23
103.43948474
 33
0.0
  0
MTEXT
  5
52A
330
524
100
AcDbEntity
  8
D-STR-DIM
 62
     5
370
    13
100
AcDbMText
 10
216.96711932
 20
108.43948474
 30
0.0
 40
2.777777777777778
 41
0.0
 71
     5
 72
     1
  1
\A1;500
  7
ＭＳ ゴシック
 11
6.123233995736766E-17
 21
1.0
 31
0.0
 73
     1
 44
1.0
1001
ACAD
1000
ACAD_MTEXT_DEFINED_HEIGHT_BEGIN
1070
    46
1040
0.2
1000
ACAD_MTEXT_DEFINED_HEIGHT_END
  0
POINT
  5
52B
330
524
100
AcDbEntity
  8
Defpoints
 62
     0
100
AcDbPoint
 10
204.21711932
 20
113.43948474
 30
0.0
  0
POINT
  5
52C
330
524
100
AcDbEntity
  8
Defpoints
 62
     0
100
AcDbPoint
 10
204.21711932
 20
103.43948474
 30
0.0
  0
POINT
  5
52D
330
524
100
AcDbEntity
  8
Defpoints
 62
     0
100
AcDbPoint
 10
219.21711932
 20
103.43948474
 30
0.0
  0
ENDBLK
  5
52F
330
524
100
AcDbEntity
  8
0
100
AcDbBlockEnd
  0
BLOCK
  5
53B
330
531
100
AcDbEntity
  8
0
100
AcDbBlockBegin
  2
*D12
 70
     1
 10
0.0
 20
0.0
 30
0.0
  3
*D12
  1

  0
LINE
  5
532
330
531
100
AcDbEntity
  8
D-STR-DIM
  6
Continuous
 62
     5
370
    -2
100
AcDbLine
 10
194.21712032
 20
102.43948474
 30
0.0
 11
194.21712032
 21
87.43948474000001
 31
0.0
  0
LINE
  5
533
330
531
100
AcDbEntity
  8
D-STR-DIM
  6
Continuous
 62
     5
370
    -2
100
AcDbLine
 10
204.21711932
 20
102.43948474
 30
0.0
 11
204.21711932
 21
87.43948474000001
 31
0.0
  0
LINE
  5
534
330
531
100
AcDbEntity
  8
D-STR-DIM
  6
Continuous
 62
     5
370
    -2
100
AcDbLine
 10
195.21712032
 20
88.43948474000001
 30
0.0
 11
203.21711932
 21
88.43948474000001
 31
0.0
  0
SOLID
  5
535
330
531
100
AcDbEntity
  8
D-STR-DIM
 62
     5
100
AcDbTrace
 10
195.21712032
 20
88.60615140666667
 30
0.0
 11
195.21712032
 21
88.27281807333335
 31
0.0
 12
194.21712032
 22
88.43948474000001
 32
0.0
 13
194.21712032
 23
88.43948474000001
 33
0.0
  0
SOLID
  5
536
330
531
100
AcDbEntity
  8
D-STR-DIM
 62
     5
100
AcDbTrace
 10
203.21711932
 20
88.27281807333335
 30
0.0
 11
203.21711932
 21
88.60615140666667
 31
0.0
 12
204.21711932
 22
88.43948474000001
 32
0.0
 13
204.21711932
 23
88.43948474000001
 33
0.0
  0
MTEXT
  5
537
330
531
100
AcDbEntity
  8
D-STR-DIM
 62
     5
370
    13
100
AcDbMText
 10
199.21711982
 20
90.68948474000001
 30
0.0
 40
2.777777777777778
 41
0.0
 71
     5
 72
     1
  1
\A1;500
  7
ＭＳ ゴシック
 73
     1
 44
1.0
1001
ACAD
1000
ACAD_MTEXT_DEFINED_HEIGHT_BEGIN
1070
    46
1040
0.2
1000
ACAD_MTEXT_DEFINED_HEIGHT_END
  0
POINT
  5
538
330
531
100
AcDbEntity
  8
Defpoints
 62
     0
100
AcDbPoint
 10
194.21712032
 20
103.43948474
 30
0.0
  0
POINT
  5
539
330
531
100
AcDbEntity
  8
Defpoints
 62
     0
100
AcDbPoint
 10
204.21711932
 20
103.43948474
 30
0.0
  0
POINT
  5
53A
330
531
100
AcDbEntity
  8
Defpoints
 62
     0
100
AcDbPoint
 10
204.21711932
 20
88.43948474000001
 30
0.0
  0
ENDBLK
  5
53C
330
531
100
AcDbEntity
  8
0
100
AcDbBlockEnd
  0
ENDSEC
  0
SECTION
  2
ENTITIES
  0
TEXT
  5
50
330
1F
100
AcDbEntity
  8
D-TTL-TXT
  6
Continuous
 62
     7
370
    13
100
AcDbText
 10
21.40466322
 20
269.7533207328572
 30
0.0
 40
3.968253968253968
  1
別図１９  道路反射鏡標準構造図　（第１７条第１項第１号関係)
 41
0.8
  7
ＭＳ ゴシック
 11
21.40466322
 21
269.02843234
 31
0.0
100
AcDbText
 73
     1
  0
CIRCLE
  5
51
330
1F
100
AcDbEntity
  8
D-STR
  6
Continuous
 62
     1
370
    50
100
AcDbCircle
 10
67.21711982
 20
232.63749654
 30
0.0
 40
10.0000005
  0
LINE
  5
52
330
1F
100
AcDbEntity
  8
D-STR
  6
USER_1
 62
     1
370
    50
100
AcDbLine
 10
66.31711982
 20
148.63749654
 30
0.0
 11
66.31711982
 21
173.03749704
 31
0.0
  0
LINE
  5
53
330
1F
100
AcDbEntity
  8
D-STR
  6
USER_1
 62
     1
370
    50
100
AcDbLine
 10
68.11711982
 20
148.63749654
 30
0.0
 11
68.11711982
 21
173.03749704
 31
0.0
  0
LINE
  5
54
330
1F
100
AcDbEntity
  8
D-STR
  6
Continuous
 62
     1
370
    50
100
AcDbLine
 10
68.11711982
 20
222.67807838
 30
0.0
 11
68.11711982
 21
173.03749704
 31
0.0
  0
LINE
  5
55
330
1F
100
AcDbEntity
  8
D-STR
  6
Continuous
 62
     1
370
    50
100
AcDbLine
 10
66.31711982
 20
222.67807838
 30
0.0
 11
66.31711982
 21
173.03749704
 31
0.0
  0
LINE
  5
56
330
1F
100
AcDbEntity
  8
D-TTL-LINE
  6
Continuous
 62
     7
370
    13
100
AcDbLine
 10
54.62024122
 20
256.63749654
 30
0.0
 11
79.03065968
 21
256.63749654
 31
0.0
  0
ARC
  5
57
330
1F
100
AcDbEntity
  8
D-STR
  6
Continuous
 62
     1
370
    50
100
AcDbCircle
 10
67.21711982
 20
232.63749654
 30
0.0
 40
10.6000005
100
AcDbArc
 50
0.0
 51
180.0
  0
LINE
  5
58
330
1F
100
AcDbEntity
  8
D-STR
  6
Continuous
 62
     1
370
    50
100
AcDbLine
 10
64.21711982
 20
154.63749654
 30
0.0
 11
70.21711982
 21
154.63749654
 31
0.0
  0
CIRCLE
  5
59
330
1F
100
AcDbEntity
  8
D-STR
  6
Continuous
 62
     1
370
    50
100
AcDbCircle
 10
67.21711982
 20
166.63749654
 30
0.0
 40
0.1999995
  0
LINE
  5
5A
330
1F
100
AcDbEntity
  8
D-STR
  6
Continuous
 62
     1
370
    50
100
AcDbLine
 10
56.61711932
 20
232.63749654
 30
0.0
 11
57.21711932
 21
232.63749654
 31
0.0
  0
LINE
  5
5B
330
1F
100
AcDbEntity
  8
D-STR
  6
Continuous
 62
     1
370
    50
100
AcDbLine
 10
77.21712032
 20
232.63749654
 30
0.0
 11
77.81712032
 21
232.63749654
 31
0.0
  0
LINE
  5
5C
330
1F
100
AcDbEntity
  8
D-STR
  6
USER_1
 62
     1
370
    50
100
AcDbLine
 10
138.31711982
 20
148.63749654
 30
0.0
 11
138.31711982
 21
173.03749704
 31
0.0
  0
LINE
  5
5D
330
1F
100
AcDbEntity
  8
D-STR
  6
USER_1
 62
     1
370
    50
100
AcDbLine
 10
140.11711982
 20
148.63749654
 30
0.0
 11
140.11711982
 21
173.03749704
 31
0.0
  0
LINE
  5
5E
330
1F
100
AcDbEntity
  8
D-TTL-LINE
  6
Continuous
 62
     7
370
    13
100
AcDbLine
 10
127.76440472
 20
256.63749654
 30
0.0
 11
150.65969376
 21
256.63749654
 31
0.0
  0
ARC
  5
5F
330
1F
100
AcDbEntity
  8
D-STR
  6
Continuous
 62
     1
370
    50
100
AcDbCircle
 10
151.74182324
 20
232.63749578
 30
0.0
 40
21.05147578
100
AcDbArc
 50
165.370314854173
 51
208.3610472929379
  0
LINE
  5
60
330
1F
100
AcDbEntity
  8
D-STR
  6
Continuous
 62
     1
370
    50
100
AcDbLine
 10
133.21711982
 20
234.57724254
 30
0.0
 11
133.21711982
 21
222.63749604
 31
0.0
  0
ARC
  5
61
330
1F
100
AcDbEntity
  8
D-STR
  6
Continuous
 62
     1
370
    50
100
AcDbCircle
 10
134.21712032
 20
243.23749554
 30
0.0
 40
6.0
100
AcDbArc
 50
180.0
 51
239.999996692028
  0
ARC
  5
62
330
1F
100
AcDbEntity
  8
D-STR
  6
Continuous
 62
     1
370
    50
100
AcDbCircle
 10
129.21711982
 20
234.5772418
 30
0.0
 40
4.0
100
AcDbArc
 50
0.0
 51
59.99999669205589
  0
LINE
  5
63
330
1F
100
AcDbEntity
  8
D-STR
  6
Continuous
 62
     1
370
    50
100
AcDbLine
 10
138.31711982
 20
230.63749704
 30
0.0
 11
138.31711982
 21
173.03749704
 31
0.0
  0
LINE
  5
64
330
1F
100
AcDbEntity
  8
D-STR
  6
Continuous
 62
     1
370
    50
100
AcDbLine
 10
140.11711982
 20
236.63749554
 30
0.0
 11
140.11711982
 21
234.63749604
 31
0.0
  0
LINE
  5
65
330
1F
100
AcDbEntity
  8
D-STR
  6
Continuous
 62
     1
370
    50
100
AcDbLine
 10
140.11711982
 20
230.63749704
 30
0.0
 11
140.11711982
 21
173.03749704
 31
0.0
  0
LINE
  5
66
330
1F
100
AcDbEntity
  8
D-STR
  6
Continuous
 62
     1
370
    50
100
AcDbLine
 10
136.21711982
 20
166.63749654
 30
0.0
 11
142.21711982
 21
166.63749654
 31
0.0
  0
CIRCLE
  5
67
330
1F
100
AcDbEntity
  8
D-STR
  6
Continuous
 62
     1
370
    50
100
AcDbCircle
 10
139.21711982
 20
154.63749654
 30
0.0
 40
0.1999995
  0
LINE
  5
68
330
1F
100
AcDbEntity
  8
D-STR
  6
USER_1
 62
     1
370
    50
100
AcDbLine
 10
198.31711982
 20
148.63749654
 30
0.0
 11
198.31711982
 21
173.03749704
 31
0.0
  0
LINE
  5
69
330
1F
100
AcDbEntity
  8
D-STR
  6
USER_1
 62
     1
370
    50
100
AcDbLine
 10
200.11711982
 20
148.63749654
 30
0.0
 11
200.11711982
 21
173.03749704
 31
0.0
  0
LINE
  5
6A
330
1F
100
AcDbEntity
  8
D-TTL-LINE
  6
Continuous
 62
     7
370
    13
100
AcDbLine
 10
188.0606012
 20
256.63749654
 30
0.0
 11
210.89665678
 21
256.63749654
 31
0.0
  0
LINE
  5
6B
330
1F
100
AcDbEntity
  8
D-STR
  6
Continuous
 62
     1
370
    50
100
AcDbLine
 10
196.21711982
 20
166.63749654
 30
0.0
 11
202.21711982
 21
166.63749654
 31
0.0
  0
CIRCLE
  5
6C
330
1F
100
AcDbEntity
  8
D-STR
  6
Continuous
 62
     1
370
    50
100
AcDbCircle
 10
199.21711982
 20
154.63749654
 30
0.0
 40
0.1999995
  0
ARC
  5
6D
330
1F
100
AcDbEntity
  8
D-STR
  6
Continuous
 62
     1
370
    50
100
AcDbCircle
 10
207.64182374
 20
232.63749578
 30
0.0
 40
21.05147578
100
AcDbArc
 50
165.370314854173
 51
208.361047292938
  0
LINE
  5
6E
330
1F
100
AcDbEntity
  8
D-STR
  6
Continuous
 62
     1
370
    50
100
AcDbLine
 10
189.11712032
 20
234.57724254
 30
0.0
 11
189.11712032
 21
222.63749604
 31
0.0
  0
ARC
  5
6F
330
1F
100
AcDbEntity
  8
D-STR
  6
Continuous
 62
     1
370
    50
100
AcDbCircle
 10
190.11712082
 20
243.23749554
 30
0.0
 40
6.0
100
AcDbArc
 50
180.0
 51
239.999996692028
  0
ARC
  5
70
330
1F
100
AcDbEntity
  8
D-STR
  6
Continuous
 62
     1
370
    50
100
AcDbCircle
 10
185.11712032
 20
234.5772418
 30
0.0
 40
4.0
100
AcDbArc
 50
0.0
 51
59.99999669205589
  0
LINE
  5
71
330
1F
100
AcDbEntity
  8
D-STR
  6
Continuous
 62
     1
370
    50
100
AcDbLine
 10
200.11711982
 20
236.63749554
 30
0.0
 11
200.11711982
 21
230.63749704
 31
0.0
  0
ARC
  5
72
330
1F
100
AcDbEntity
  8
D-STR
  6
Continuous
 62
     1
370
    50
100
AcDbCircle
 10
190.7924159
 20
232.63749578
 30
0.0
 40
21.05147578
100
AcDbArc
 50
331.6389527070619
 51
14.62968514582693
  0
LINE
  5
73
330
1F
100
AcDbEntity
  8
D-STR
  6
Continuous
 62
     1
370
    50
100
AcDbLine
 10
209.31711932
 20
234.57724254
 30
0.0
 11
209.31711932
 21
222.63749604
 31
0.0
  0
ARC
  5
74
330
1F
100
AcDbEntity
  8
D-STR
  6
Continuous
 62
     1
370
    50
100
AcDbCircle
 10
208.31711882
 20
243.23749554
 30
0.0
 40
6.0
100
AcDbArc
 50
300.000003307972
 51
0.0
  0
ARC
  5
75
330
1F
100
AcDbEntity
  8
D-STR
  6
Continuous
 62
     1
370
    50
100
AcDbCircle
 10
213.31711932
 20
234.5772418
 30
0.0
 40
4.0
100
AcDbArc
 50
120.0000033079441
 51
180.0
  0
LINE
  5
76
330
1F
100
AcDbEntity
  8
D-STR
  6
Continuous
 62
     1
370
    50
100
AcDbLine
 10
202.41711932
 20
230.63749704
 30
0.0
 11
202.41711932
 21
226.63749804
 31
0.0
  0
LINE
  5
77
330
1F
100
AcDbEntity
  8
D-STR
  6
Continuous
 62
     1
370
    50
100
AcDbLine
 10
204.21711932
 20
226.63749804
 30
0.0
 11
204.21711932
 21
230.63749704
 31
0.0
  0
LINE
  5
78
330
1F
100
AcDbEntity
  8
D-STR
  6
Continuous
 62
     1
370
    50
100
AcDbLine
 10
198.31711982
 20
173.03749704
 30
0.0
 11
198.31711982
 21
222.63749904
 31
0.0
  0
LINE
  5
79
330
1F
100
AcDbEntity
  8
D-STR
  6
Continuous
 62
     1
370
    50
100
AcDbLine
 10
200.11711982
 20
173.03749704
 30
0.0
 11
200.11711982
 21
222.63749904
 31
0.0
  0
LINE
  5
7A
330
1F
100
AcDbEntity
  8
D-BGD
  6
Continuous
 62
   134
370
    13
100
AcDbLine
 10
62.21712032000001
 20
172.63749654
 30
0.0
 11
49.21711982
 21
172.63749654
 31
0.0
  0
LINE
  5
7B
330
1F
100
AcDbEntity
  8
D-BGD
  6
Continuous
 62
   134
370
    13
100
AcDbLine
 10
72.21711932000001
 20
172.63749654
 30
0.0
 11
85.21711982000002
 21
172.63749654
 31
0.0
  0
LINE
  5
7C
330
1F
100
AcDbEntity
  8
D-BGD
  6
Continuous
 62
   134
370
    13
100
AcDbLine
 10
115.21711982
 20
172.63749654
 30
0.0
 11
134.21712032
 21
172.63749654
 31
0.0
  0
LINE
  5
7D
330
1F
100
AcDbEntity
  8
D-BGD
  6
Continuous
 62
   134
370
    13
100
AcDbLine
 10
144.21711932
 20
172.63749654
 30
0.0
 11
157.21711982
 21
172.63749654
 31
0.0
  0
CIRCLE
  5
7E
330
1F
100
AcDbEntity
  8
D-BGD
  6
Continuous
 62
   134
370
    13
100
AcDbCircle
 10
135.42778532
 20
233.54142954
 30
0.0
 40
0.292296
  0
CIRCLE
  5
7F
330
1F
100
AcDbEntity
  8
D-BGD
  6
Continuous
 62
   134
370
    13
100
AcDbCircle
 10
137.34875282
 20
233.54142954
 30
0.0
 40
0.292296
  0
CIRCLE
  5
80
330
1F
100
AcDbEntity
  8
D-BGD
  6
Continuous
 62
   134
370
    13
100
AcDbCircle
 10
135.42778532
 20
231.71341254
 30
0.0
 40
0.292296
  0
CIRCLE
  5
81
330
1F
100
AcDbEntity
  8
D-BGD
  6
Continuous
 62
   134
370
    13
100
AcDbCircle
 10
137.34875282
 20
231.71341254
 30
0.0
 40
0.292296
  0
LINE
  5
82
330
1F
100
AcDbEntity
  8
D-BGD
  6
Continuous
 62
   134
370
    13
100
AcDbLine
 10
204.21711932
 20
172.63749654
 30
0.0
 11
217.21711982
 21
172.63749654
 31
0.0
  0
LINE
  5
83
330
1F
100
AcDbEntity
  8
D-BGD
  6
Continuous
 62
   134
370
    13
100
AcDbLine
 10
175.49655486
 20
172.63749654
 30
0.0
 11
194.21712032
 21
172.63749654
 31
0.0
  0
CIRCLE
  5
84
330
1F
100
AcDbEntity
  8
D-BGD
  6
Continuous
 62
   134
370
    13
100
AcDbCircle
 10
191.32778582
 20
233.54142954
 30
0.0
 40
0.292296
  0
CIRCLE
  5
85
330
1F
100
AcDbEntity
  8
D-BGD
  6
Continuous
 62
   134
370
    13
100
AcDbCircle
 10
193.24875332
 20
233.54142954
 30
0.0
 40
0.292296
  0
CIRCLE
  5
86
330
1F
100
AcDbEntity
  8
D-BGD
  6
Continuous
 62
   134
370
    13
100
AcDbCircle
 10
191.32778582
 20
231.71341254
 30
0.0
 40
0.292296
  0
CIRCLE
  5
87
330
1F
100
AcDbEntity
  8
D-BGD
  6
Continuous
 62
   134
370
    13
100
AcDbCircle
 10
193.24875332
 20
231.71341254
 30
0.0
 40
0.292296
  0
CIRCLE
  5
88
330
1F
100
AcDbEntity
  8
D-BGD
  6
Continuous
 62
   134
370
    13
100
AcDbCircle
 10
195.42778532
 20
229.54143054
 30
0.0
 40
0.292296
  0
CIRCLE
  5
89
330
1F
100
AcDbEntity
  8
D-BGD
  6
Continuous
 62
   134
370
    13
100
AcDbCircle
 10
197.34875282
 20
229.54143054
 30
0.0
 40
0.292296
  0
CIRCLE
  5
8A
330
1F
100
AcDbEntity
  8
D-BGD
  6
Continuous
 62
   134
370
    13
100
AcDbCircle
 10
195.42778532
 20
227.71341354
 30
0.0
 40
0.292296
  0
CIRCLE
  5
8B
330
1F
100
AcDbEntity
  8
D-BGD
  6
Continuous
 62
   134
370
    13
100
AcDbCircle
 10
197.34875282
 20
227.71341354
 30
0.0
 40
0.292296
  0
CIRCLE
  5
8C
330
1F
100
AcDbEntity
  8
D-BGD
  6
Continuous
 62
   134
370
    13
100
AcDbCircle
 10
203.00645432
 20
225.54143154
 30
0.0
 40
0.292296
  0
CIRCLE
  5
8D
330
1F
100
AcDbEntity
  8
D-BGD
  6
Continuous
 62
   134
370
    13
100
AcDbCircle
 10
201.08548682
 20
225.54143154
 30
0.0
 40
0.292296
  0
CIRCLE
  5
8E
330
1F
100
AcDbEntity
  8
D-BGD
  6
Continuous
 62
   134
370
    13
100
AcDbCircle
 10
203.00645432
 20
223.71341454
 30
0.0
 40
0.292296
  0
CIRCLE
  5
8F
330
1F
100
AcDbEntity
  8
D-BGD
  6
Continuous
 62
   134
370
    13
100
AcDbCircle
 10
201.08548682
 20
223.71341454
 30
0.0
 40
0.292296
  0
CIRCLE
  5
90
330
1F
100
AcDbEntity
  8
D-BGD
  6
Continuous
 62
   134
370
    13
100
AcDbCircle
 10
207.10645382
 20
233.54142954
 30
0.0
 40
0.292296
  0
CIRCLE
  5
91
330
1F
100
AcDbEntity
  8
D-BGD
  6
Continuous
 62
   134
370
    13
100
AcDbCircle
 10
205.18548632
 20
233.54142954
 30
0.0
 40
0.292296
  0
CIRCLE
  5
92
330
1F
100
AcDbEntity
  8
D-BGD
  6
Continuous
 62
   134
370
    13
100
AcDbCircle
 10
207.10645382
 20
231.71341254
 30
0.0
 40
0.292296
  0
CIRCLE
  5
93
330
1F
100
AcDbEntity
  8
D-BGD
  6
Continuous
 62
   134
370
    13
100
AcDbCircle
 10
205.18548632
 20
231.71341254
 30
0.0
 40
0.292296
  0
TEXT
  5
94
330
1F
100
AcDbEntity
  8
D-TTL-TXT
  6
Continuous
 62
     7
370
    13
100
AcDbText
 10
57.07145123999999
 20
257.5268147328572
 30
0.0
 40
3.968253968253968
  1
正 面 図
 41
0.8
  7
ＭＳ ゴシック
 11
57.07145123999999
 21
256.80192634
 31
0.0
100
AcDbText
 73
     1
  0
TEXT
  5
95
330
1F
100
AcDbEntity
  8
D-TTL-TXT
  6
Continuous
 62
     7
370
    13
100
AcDbText
 10
129.0637188
 20
257.2693307728572
 30
0.0
 40
3.968253968253968
  1
側 面 図
 41
0.8
  7
ＭＳ ゴシック
 11
129.0637188
 21
256.54444238
 31
0.0
100
AcDbText
 73
     1
  0
TEXT
  5
96
330
1F
100
AcDbEntity
  8
D-TTL-TXT
  6
Continuous
 62
     7
370
    13
100
AcDbText
 10
189.29753508
 20
257.3394756528572
 30
0.0
 40
3.968253968253968
  1
側 面 図
 41
0.8
  7
ＭＳ ゴシック
 11
189.29753508
 21
256.61458726
 31
0.0
100
AcDbText
 73
     1
  0
LINE
  5
97
330
1F
100
AcDbEntity
  8
D-STR
  6
Continuous
 62
     1
370
    50
100
AcDbLine
 10
62.21712032000001
 20
148.63749654
 30
0.0
 11
62.21712032000001
 21
172.63749654
 31
0.0
  0
LINE
  5
98
330
1F
100
AcDbEntity
  8
D-STR
  6
Continuous
 62
     1
370
    50
100
AcDbLine
 10
62.21712032000001
 20
172.63749654
 30
0.0
 11
66.31711982
 21
173.03749704
 31
0.0
  0
LINE
  5
99
330
1F
100
AcDbEntity
  8
D-STR
  6
Continuous
 62
     1
370
    50
100
AcDbLine
 10
66.31711982
 20
173.03749704
 30
0.0
 11
68.11711982
 21
173.03749704
 31
0.0
  0
LINE
  5
9A
330
1F
100
AcDbEntity
  8
D-STR
  6
Continuous
 62
     1
370
    50
100
AcDbLine
 10
68.11711982
 20
173.03749704
 30
0.0
 11
72.21711932000001
 21
172.63749654
 31
0.0
  0
LINE
  5
9B
330
1F
100
AcDbEntity
  8
D-STR
  6
Continuous
 62
     1
370
    50
100
AcDbLine
 10
72.21711932000001
 20
172.63749654
 30
0.0
 11
72.21711932000001
 21
148.63749654
 31
0.0
  0
LINE
  5
9C
330
1F
100
AcDbEntity
  8
D-STR-STR5
  6
Continuous
 62
    83
370
     9
100
AcDbLine
 10
71.12912032
 20
170.89806504
 30
0.0
 11
71.33210632
 21
171.10105104
 31
0.0
  0
LINE
  5
9D
330
1F
100
AcDbEntity
  8
D-STR-STR5
  6
Continuous
 62
    83
370
     9
100
AcDbLine
 10
71.33210632000001
 20
171.10105104
 30
0.0
 11
71.61628432
 21
170.83717104
 31
0.0
  0
LINE
  5
9E
330
1F
100
AcDbEntity
  8
D-STR-STR5
  6
Continuous
 62
    83
370
     9
100
AcDbLine
 10
71.61628432
 20
170.83717104
 30
0.0
 11
71.52155832000001
 21
170.30941104
 31
0.0
  0
LINE
  5
9F
330
1F
100
AcDbEntity
  8
D-STR-STR5
  6
Continuous
 62
    83
370
     9
100
AcDbLine
 10
71.52155832000001
 20
170.30941104
 30
0.0
 11
71.18325032
 21
170.37030504
 31
0.0
  0
LINE
  5
A0
330
1F
100
AcDbEntity
  8
D-STR-STR5
  6
Continuous
 62
    83
370
     9
100
AcDbLine
 10
71.18325032
 20
170.37030504
 30
0.0
 11
71.12912032
 21
170.89806504
 31
0.0
  0
LINE
  5
A1
330
1F
100
AcDbEntity
  8
D-STR-STR5
  6
Continuous
 62
    83
370
     9
100
AcDbLine
 10
69.21858632
 20
170.07656304
 30
0.0
 11
69.34647831999999
 21
170.31844704
 31
0.0
  0
LINE
  5
A2
330
1F
100
AcDbEntity
  8
D-STR-STR5
  6
Continuous
 62
    83
370
     9
100
AcDbLine
 10
69.34647832
 20
170.31844704
 30
0.0
 11
69.51885632000001
 21
170.25172104
 31
0.0
  0
LINE
  5
A3
330
1F
100
AcDbEntity
  8
D-STR-STR5
  6
Continuous
 62
    83
370
     9
100
AcDbLine
 10
69.51885632000001
 20
170.25172104
 30
0.0
 11
69.51885632000001
 21
169.90974804
 31
0.0
  0
LINE
  5
A4
330
1F
100
AcDbEntity
  8
D-STR-STR5
  6
Continuous
 62
    83
370
     9
100
AcDbLine
 10
69.51885632000001
 20
169.90974804
 30
0.0
 11
69.29643432
 21
169.82633904
 31
0.0
  0
LINE
  5
A5
330
1F
100
AcDbEntity
  8
D-STR-STR5
  6
Continuous
 62
    83
370
     9
100
AcDbLine
 10
69.29643432
 20
169.82633904
 30
0.0
 11
69.21858632000001
 21
170.07656304
 31
0.0
  0
LINE
  5
A6
330
1F
100
AcDbEntity
  8
D-STR-STR5
  6
Continuous
 62
    83
370
     9
100
AcDbLine
 10
69.44155832
 20
166.70552604
 30
0.0
 11
69.64454432
 21
166.90851204
 31
0.0
  0
LINE
  5
A7
330
1F
100
AcDbEntity
  8
D-STR-STR5
  6
Continuous
 62
    83
370
     9
100
AcDbLine
 10
69.64454432000001
 20
166.90851204
 30
0.0
 11
69.92872232
 21
166.64463204
 31
0.0
  0
LINE
  5
A8
330
1F
100
AcDbEntity
  8
D-STR-STR5
  6
Continuous
 62
    83
370
     9
100
AcDbLine
 10
69.92872232
 20
166.64463204
 30
0.0
 11
69.83399632000001
 21
166.11687204
 31
0.0
  0
LINE
  5
A9
330
1F
100
AcDbEntity
  8
D-STR-STR5
  6
Continuous
 62
    83
370
     9
100
AcDbLine
 10
69.83399632
 20
166.11687204
 30
0.0
 11
69.49568832
 21
166.17776604
 31
0.0
  0
LINE
  5
AA
330
1F
100
AcDbEntity
  8
D-STR-STR5
  6
Continuous
 62
    83
370
     9
100
AcDbLine
 10
69.49568832
 20
166.17776604
 30
0.0
 11
69.44155832
 21
166.70552604
 31
0.0
  0
LINE
  5
AB
330
1F
100
AcDbEntity
  8
D-STR-STR5
  6
Continuous
 62
    83
370
     9
100
AcDbLine
 10
71.40714432
 20
166.51686204
 30
0.0
 11
71.53503632
 21
166.75874604
 31
0.0
  0
LINE
  5
AC
330
1F
100
AcDbEntity
  8
D-STR-STR5
  6
Continuous
 62
    83
370
     9
100
AcDbLine
 10
71.53503632
 20
166.75874604
 30
0.0
 11
71.70741432
 21
166.69202004
 31
0.0
  0
LINE
  5
AD
330
1F
100
AcDbEntity
  8
D-STR-STR5
  6
Continuous
 62
    83
370
     9
100
AcDbLine
 10
71.70741432
 20
166.69202004
 30
0.0
 11
71.70741432
 21
166.35004704
 31
0.0
  0
LINE
  5
AE
330
1F
100
AcDbEntity
  8
D-STR-STR5
  6
Continuous
 62
    83
370
     9
100
AcDbLine
 10
71.70741432
 20
166.35004704
 30
0.0
 11
71.48499232
 21
166.26663804
 31
0.0
  0
LINE
  5
AF
330
1F
100
AcDbEntity
  8
D-STR-STR5
  6
Continuous
 62
    83
370
     9
100
AcDbLine
 10
71.48499232
 20
166.26663804
 30
0.0
 11
71.40714432
 21
166.51686204
 31
0.0
  0
LINE
  5
B0
330
1F
100
AcDbEntity
  8
D-STR-STR5
  6
Continuous
 62
    83
370
     9
100
AcDbLine
 10
70.41071232
 20
171.75403704
 30
0.0
 11
70.33071232
 21
171.63403704
 31
0.0
  0
LINE
  5
B1
330
1F
100
AcDbEntity
  8
D-STR-STR5
  6
Continuous
 62
    83
370
     9
100
AcDbLine
 10
71.86096232
 20
172.11000804
 30
0.0
 11
71.78096232
 21
171.99000804
 31
0.0
  0
LINE
  5
B2
330
1F
100
AcDbEntity
  8
D-STR-STR5
  6
Continuous
 62
    83
370
     9
100
AcDbLine
 10
68.82862232000001
 20
166.01896104
 30
0.0
 11
68.74862232000001
 21
165.89896104
 31
0.0
  0
LINE
  5
B3
330
1F
100
AcDbEntity
  8
D-STR-STR5
  6
Continuous
 62
    83
370
     9
100
AcDbLine
 10
68.93409432
 20
171.59582604
 30
0.0
 11
68.85409432
 21
171.47582604
 31
0.0
  0
LINE
  5
B4
330
1F
100
AcDbEntity
  8
D-STR-STR5
  6
Continuous
 62
    83
370
     9
100
AcDbLine
 10
70.46344832
 20
169.30179804
 30
0.0
 11
70.38344832
 21
169.18179804
 31
0.0
  0
LINE
  5
B5
330
1F
100
AcDbEntity
  8
D-STR-STR5
  6
Continuous
 62
    83
370
     9
100
AcDbLine
 10
71.59727832
 20
168.43164804
 30
0.0
 11
71.51727832
 21
168.31164804
 31
0.0
  0
LINE
  5
B6
330
1F
100
AcDbEntity
  8
D-STR-STR5
  6
Continuous
 62
    83
370
     9
100
AcDbLine
 10
68.93409432
 20
168.27344004
 30
0.0
 11
68.85409432
 21
168.15344004
 31
0.0
  0
LINE
  5
B7
330
1F
100
AcDbEntity
  8
D-STR-STR5
  6
Continuous
 62
    83
370
     9
100
AcDbLine
 10
70.72713032
 20
167.28463404
 30
0.0
 11
70.64713032
 21
167.16463404
 31
0.0
  0
LINE
  5
B8
330
1F
100
AcDbEntity
  8
D-STR-STR5
  6
Continuous
 62
    83
370
     9
100
AcDbLine
 10
69.67240232
 20
164.87194704
 30
0.0
 11
69.59240232
 21
164.75194704
 31
0.0
  0
LINE
  5
B9
330
1F
100
AcDbEntity
  8
D-STR-STR5
  6
Continuous
 62
    83
370
     9
100
AcDbLine
 10
71.14902032
 20
164.87194704
 30
0.0
 11
71.06902032
 21
164.75194704
 31
0.0
  0
LINE
  5
BA
330
1F
100
AcDbEntity
  8
D-STR-STR5
  6
Continuous
 62
    83
370
    13
100
AcDbLine
 10
74.54752682
 20
170.83965954
 30
0.0
 11
76.34752682
 21
172.63965954
 31
0.0
  0
LINE
  5
BB
330
1F
100
AcDbEntity
  8
D-STR-STR5
  6
Continuous
 62
    83
370
    13
100
AcDbLine
 10
76.34752682
 20
172.63965954
 30
0.0
 11
78.14752682
 21
170.83965954
 31
0.0
  0
LINE
  5
BC
330
1F
100
AcDbEntity
  8
D-STR-STR5
  6
Continuous
 62
    83
370
    13
100
AcDbLine
 10
78.14752682000001
 20
170.83965954
 30
0.0
 11
79.94752682000001
 21
172.63965954
 31
0.0
  0
LINE
  5
BD
330
1F
100
AcDbEntity
  8
D-STR-STR5
  6
Continuous
 62
    83
370
    13
100
AcDbLine
 10
79.94752682000001
 20
172.63965954
 30
0.0
 11
81.74752682
 21
170.83965954
 31
0.0
  0
LINE
  5
BE
330
1F
100
AcDbEntity
  8
D-STR-STR5
  6
Continuous
 62
    83
370
    13
100
AcDbLine
 10
81.74752682
 20
170.83965954
 30
0.0
 11
83.54752682
 21
172.63965954
 31
0.0
  0
LINE
  5
BF
330
1F
100
AcDbEntity
  8
D-STR-STR5
  6
Continuous
 62
    83
370
    13
100
AcDbLine
 10
76.94752682000001
 20
172.03965954
 30
0.0
 11
75.74752682
 21
170.83965954
 31
0.0
  0
LINE
  5
C0
330
1F
100
AcDbEntity
  8
D-STR-STR5
  6
Continuous
 62
    83
370
    13
100
AcDbLine
 10
77.54752682
 20
171.43965954
 30
0.0
 11
76.94752682000001
 21
170.83965954
 31
0.0
  0
LINE
  5
C1
330
1F
100
AcDbEntity
  8
D-STR-STR5
  6
Continuous
 62
    83
370
    13
100
AcDbLine
 10
75.14752682000001
 20
172.63965954
 30
0.0
 11
75.74752682
 21
172.03965954
 31
0.0
  0
LINE
  5
C2
330
1F
100
AcDbEntity
  8
D-STR-STR5
  6
Continuous
 62
    83
370
    13
100
AcDbLine
 10
74.54752682
 20
172.03965954
 30
0.0
 11
75.14752682
 21
171.43965954
 31
0.0
  0
LINE
  5
C3
330
1F
100
AcDbEntity
  8
D-STR-STR5
  6
Continuous
 62
    83
370
    13
100
AcDbLine
 10
77.54752682
 20
172.63965954
 30
0.0
 11
78.74752682
 21
171.43965954
 31
0.0
  0
LINE
  5
C4
330
1F
100
AcDbEntity
  8
D-STR-STR5
  6
Continuous
 62
    83
370
    13
100
AcDbLine
 10
78.74752682
 20
172.63965954
 30
0.0
 11
79.34752682
 21
172.03965954
 31
0.0
  0
LINE
  5
C5
330
1F
100
AcDbEntity
  8
D-STR-STR5
  6
Continuous
 62
    83
370
    13
100
AcDbLine
 10
80.54752682
 20
172.03965954
 30
0.0
 11
79.34752682
 21
170.83965954
 31
0.0
  0
LINE
  5
C6
330
1F
100
AcDbEntity
  8
D-STR-STR5
  6
Continuous
 62
    83
370
    13
100
AcDbLine
 10
81.14752682000001
 20
171.43965954
 30
0.0
 11
80.54752682000002
 21
170.83965954
 31
0.0
  0
LINE
  5
C7
330
1F
100
AcDbEntity
  8
D-STR-STR5
  6
Continuous
 62
    83
370
    13
100
AcDbLine
 10
81.14752682000001
 20
172.63965954
 30
0.0
 11
82.34752682000001
 21
171.43965954
 31
0.0
  0
LINE
  5
C8
330
1F
100
AcDbEntity
  8
D-STR-STR5
  6
Continuous
 62
    83
370
    13
100
AcDbLine
 10
82.34752682
 20
172.63965954
 30
0.0
 11
82.94752682
 21
172.03965954
 31
0.0
  0
LINE
  5
C9
330
1F
100
AcDbEntity
  8
D-STR-STR5
  6
Continuous
 62
    83
370
    13
100
AcDbLine
 10
83.54752682
 20
171.43965954
 30
0.0
 11
82.94752682000001
 21
170.83965954
 31
0.0
  0
LINE
  5
CA
330
1F
100
AcDbEntity
  8
D-STR-STR5
  6
Continuous
 62
    83
370
    13
100
AcDbLine
 10
50.84290382
 20
170.79998904
 30
0.0
 11
52.64290382
 21
172.59998904
 31
0.0
  0
LINE
  5
CB
330
1F
100
AcDbEntity
  8
D-STR-STR5
  6
Continuous
 62
    83
370
    13
100
AcDbLine
 10
52.64290382
 20
172.59998904
 30
0.0
 11
54.44290382
 21
170.79998904
 31
0.0
  0
LINE
  5
CC
330
1F
100
AcDbEntity
  8
D-STR-STR5
  6
Continuous
 62
    83
370
    13
100
AcDbLine
 10
54.44290382000001
 20
170.79998904
 30
0.0
 11
56.24290382
 21
172.59998904
 31
0.0
  0
LINE
  5
CD
330
1F
100
AcDbEntity
  8
D-STR-STR5
  6
Continuous
 62
    83
370
    13
100
AcDbLine
 10
56.24290382
 20
172.59998904
 30
0.0
 11
58.04290382
 21
170.79998904
 31
0.0
  0
LINE
  5
CE
330
1F
100
AcDbEntity
  8
D-STR-STR5
  6
Continuous
 62
    83
370
    13
100
AcDbLine
 10
58.04290382
 20
170.79998904
 30
0.0
 11
59.84290382
 21
172.59998904
 31
0.0
  0
LINE
  5
CF
330
1F
100
AcDbEntity
  8
D-STR-STR5
  6
Continuous
 62
    83
370
    13
100
AcDbLine
 10
53.24290382
 20
171.99998904
 30
0.0
 11
52.04290382
 21
170.79998904
 31
0.0
  0
LINE
  5
D0
330
1F
100
AcDbEntity
  8
D-STR-STR5
  6
Continuous
 62
    83
370
    13
100
AcDbLine
 10
53.84290382
 20
171.39998904
 30
0.0
 11
53.24290382
 21
170.79998904
 31
0.0
  0
LINE
  5
D1
330
1F
100
AcDbEntity
  8
D-STR-STR5
  6
Continuous
 62
    83
370
    13
100
AcDbLine
 10
51.44290382000001
 20
172.59998904
 30
0.0
 11
52.04290382000001
 21
171.99998904
 31
0.0
  0
LINE
  5
D2
330
1F
100
AcDbEntity
  8
D-STR-STR5
  6
Continuous
 62
    83
370
    13
100
AcDbLine
 10
50.84290382
 20
171.99998904
 30
0.0
 11
51.44290382000001
 21
171.39998904
 31
0.0
  0
LINE
  5
D3
330
1F
100
AcDbEntity
  8
D-STR-STR5
  6
Continuous
 62
    83
370
    13
100
AcDbLine
 10
53.84290382
 20
172.59998904
 30
0.0
 11
55.04290382000001
 21
171.39998904
 31
0.0
  0
LINE
  5
D4
330
1F
100
AcDbEntity
  8
D-STR-STR5
  6
Continuous
 62
    83
370
    13
100
AcDbLine
 10
55.04290382
 20
172.59998904
 30
0.0
 11
55.64290382
 21
171.99998904
 31
0.0
  0
LINE
  5
D5
330
1F
100
AcDbEntity
  8
D-STR-STR5
  6
Continuous
 62
    83
370
    13
100
AcDbLine
 10
56.84290382
 20
171.99998904
 30
0.0
 11
55.64290382
 21
170.79998904
 31
0.0
  0
LINE
  5
D6
330
1F
100
AcDbEntity
  8
D-STR-STR5
  6
Continuous
 62
    83
370
    13
100
AcDbLine
 10
57.44290382000001
 20
171.39998904
 30
0.0
 11
56.84290382
 21
170.79998904
 31
0.0
  0
LINE
  5
D7
330
1F
100
AcDbEntity
  8
D-STR-STR5
  6
Continuous
 62
    83
370
    13
100
AcDbLine
 10
57.44290382000001
 20
172.59998904
 30
0.0
 11
58.64290382000001
 21
171.39998904
 31
0.0
  0
LINE
  5
D8
330
1F
100
AcDbEntity
  8
D-STR-STR5
  6
Continuous
 62
    83
370
    13
100
AcDbLine
 10
58.64290382
 20
172.59998904
 30
0.0
 11
59.24290382
 21
171.99998904
 31
0.0
  0
LINE
  5
D9
330
1F
100
AcDbEntity
  8
D-STR-STR5
  6
Continuous
 62
    83
370
    13
100
AcDbLine
 10
59.84290382
 20
171.39998904
 30
0.0
 11
59.24290382
 21
170.79998904
 31
0.0
  0
LINE
  5
DA
330
1F
100
AcDbEntity
  8
D-STR-STR5
  6
Continuous
 62
    83
370
    13
100
AcDbLine
 10
146.70122582
 20
170.77578804
 30
0.0
 11
148.50122582
 21
172.57578804
 31
0.0
  0
LINE
  5
DB
330
1F
100
AcDbEntity
  8
D-STR-STR5
  6
Continuous
 62
    83
370
    13
100
AcDbLine
 10
148.50122582
 20
172.57578804
 30
0.0
 11
150.30122582
 21
170.77578804
 31
0.0
  0
LINE
  5
DC
330
1F
100
AcDbEntity
  8
D-STR-STR5
  6
Continuous
 62
    83
370
    13
100
AcDbLine
 10
150.30122582
 20
170.77578804
 30
0.0
 11
152.10122582
 21
172.57578804
 31
0.0
  0
LINE
  5
DD
330
1F
100
AcDbEntity
  8
D-STR-STR5
  6
Continuous
 62
    83
370
    13
100
AcDbLine
 10
152.10122582
 20
172.57578804
 30
0.0
 11
153.90122582
 21
170.77578804
 31
0.0
  0
LINE
  5
DE
330
1F
100
AcDbEntity
  8
D-STR-STR5
  6
Continuous
 62
    83
370
    13
100
AcDbLine
 10
153.90122582
 20
170.77578804
 30
0.0
 11
155.70122582
 21
172.57578804
 31
0.0
  0
LINE
  5
DF
330
1F
100
AcDbEntity
  8
D-STR-STR5
  6
Continuous
 62
    83
370
    13
100
AcDbLine
 10
149.10122582
 20
171.97578804
 30
0.0
 11
147.90122582
 21
170.77578804
 31
0.0
  0
LINE
  5
E0
330
1F
100
AcDbEntity
  8
D-STR-STR5
  6
Continuous
 62
    83
370
    13
100
AcDbLine
 10
149.70122582
 20
171.37578804
 30
0.0
 11
149.10122582
 21
170.77578804
 31
0.0
  0
LINE
  5
E1
330
1F
100
AcDbEntity
  8
D-STR-STR5
  6
Continuous
 62
    83
370
    13
100
AcDbLine
 10
147.30122582
 20
172.57578804
 30
0.0
 11
147.90122582
 21
171.97578804
 31
0.0
  0
LINE
  5
E2
330
1F
100
AcDbEntity
  8
D-STR-STR5
  6
Continuous
 62
    83
370
    13
100
AcDbLine
 10
146.70122582
 20
171.97578804
 30
0.0
 11
147.30122582
 21
171.37578804
 31
0.0
  0
LINE
  5
E3
330
1F
100
AcDbEntity
  8
D-STR-STR5
  6
Continuous
 62
    83
370
    13
100
AcDbLine
 10
149.70122582
 20
172.57578804
 30
0.0
 11
150.90122582
 21
171.37578804
 31
0.0
  0
LINE
  5
E4
330
1F
100
AcDbEntity
  8
D-STR-STR5
  6
Continuous
 62
    83
370
    13
100
AcDbLine
 10
150.90122582
 20
172.57578804
 30
0.0
 11
151.50122582
 21
171.97578804
 31
0.0
  0
LINE
  5
E5
330
1F
100
AcDbEntity
  8
D-STR-STR5
  6
Continuous
 62
    83
370
    13
100
AcDbLine
 10
152.70122582
 20
171.97578804
 30
0.0
 11
151.50122582
 21
170.77578804
 31
0.0
  0
LINE
  5
E6
330
1F
100
AcDbEntity
  8
D-STR-STR5
  6
Continuous
 62
    83
370
    13
100
AcDbLine
 10
153.30122582
 20
171.37578804
 30
0.0
 11
152.70122582
 21
170.77578804
 31
0.0
  0
LINE
  5
E7
330
1F
100
AcDbEntity
  8
D-STR-STR5
  6
Continuous
 62
    83
370
    13
100
AcDbLine
 10
153.30122582
 20
172.57578804
 30
0.0
 11
154.50122582
 21
171.37578804
 31
0.0
  0
LINE
  5
E8
330
1F
100
AcDbEntity
  8
D-STR-STR5
  6
Continuous
 62
    83
370
    13
100
AcDbLine
 10
154.50122582
 20
172.57578804
 30
0.0
 11
155.10122582
 21
171.97578804
 31
0.0
  0
LINE
  5
E9
330
1F
100
AcDbEntity
  8
D-STR-STR5
  6
Continuous
 62
    83
370
    13
100
AcDbLine
 10
155.70122582
 20
171.37578804
 30
0.0
 11
155.10122582
 21
170.77578804
 31
0.0
  0
LINE
  5
EA
330
1F
100
AcDbEntity
  8
D-STR-STR5
  6
Continuous
 62
    83
370
    13
100
AcDbLine
 10
120.60009782
 20
170.77578804
 30
0.0
 11
122.40009782
 21
172.57578804
 31
0.0
  0
LINE
  5
EB
330
1F
100
AcDbEntity
  8
D-STR-STR5
  6
Continuous
 62
    83
370
    13
100
AcDbLine
 10
122.40009782
 20
172.57578804
 30
0.0
 11
124.20009782
 21
170.77578804
 31
0.0
  0
LINE
  5
EC
330
1F
100
AcDbEntity
  8
D-STR-STR5
  6
Continuous
 62
    83
370
    13
100
AcDbLine
 10
124.20009782
 20
170.77578804
 30
0.0
 11
126.00009782
 21
172.57578804
 31
0.0
  0
LINE
  5
ED
330
1F
100
AcDbEntity
  8
D-STR-STR5
  6
Continuous
 62
    83
370
    13
100
AcDbLine
 10
126.00009782
 20
172.57578804
 30
0.0
 11
127.80009782
 21
170.77578804
 31
0.0
  0
LINE
  5
EE
330
1F
100
AcDbEntity
  8
D-STR-STR5
  6
Continuous
 62
    83
370
    13
100
AcDbLine
 10
127.80009782
 20
170.77578804
 30
0.0
 11
129.60009782
 21
172.57578804
 31
0.0
  0
LINE
  5
EF
330
1F
100
AcDbEntity
  8
D-STR-STR5
  6
Continuous
 62
    83
370
    13
100
AcDbLine
 10
123.00009782
 20
171.97578804
 30
0.0
 11
121.80009782
 21
170.77578804
 31
0.0
  0
LINE
  5
F0
330
1F
100
AcDbEntity
  8
D-STR-STR5
  6
Continuous
 62
    83
370
    13
100
AcDbLine
 10
123.60009782
 20
171.37578804
 30
0.0
 11
123.00009782
 21
170.77578804
 31
0.0
  0
LINE
  5
F1
330
1F
100
AcDbEntity
  8
D-STR-STR5
  6
Continuous
 62
    83
370
    13
100
AcDbLine
 10
121.20009782
 20
172.57578804
 30
0.0
 11
121.80009782
 21
171.97578804
 31
0.0
  0
LINE
  5
F2
330
1F
100
AcDbEntity
  8
D-STR-STR5
  6
Continuous
 62
    83
370
    13
100
AcDbLine
 10
120.60009782
 20
171.97578804
 30
0.0
 11
121.20009782
 21
171.37578804
 31
0.0
  0
LINE
  5
F3
330
1F
100
AcDbEntity
  8
D-STR-STR5
  6
Continuous
 62
    83
370
    13
100
AcDbLine
 10
123.60009782
 20
172.57578804
 30
0.0
 11
124.80009782
 21
171.37578804
 31
0.0
  0
LINE
  5
F4
330
1F
100
AcDbEntity
  8
D-STR-STR5
  6
Continuous
 62
    83
370
    13
100
AcDbLine
 10
124.80009782
 20
172.57578804
 30
0.0
 11
125.40009782
 21
171.97578804
 31
0.0
  0
LINE
  5
F5
330
1F
100
AcDbEntity
  8
D-STR-STR5
  6
Continuous
 62
    83
370
    13
100
AcDbLine
 10
126.60009782
 20
171.97578804
 30
0.0
 11
125.40009782
 21
170.77578804
 31
0.0
  0
LINE
  5
F6
330
1F
100
AcDbEntity
  8
D-STR-STR5
  6
Continuous
 62
    83
370
    13
100
AcDbLine
 10
127.20009782
 20
171.37578804
 30
0.0
 11
126.60009782
 21
170.77578804
 31
0.0
  0
LINE
  5
F7
330
1F
100
AcDbEntity
  8
D-STR-STR5
  6
Continuous
 62
    83
370
    13
100
AcDbLine
 10
127.20009782
 20
172.57578804
 30
0.0
 11
128.40009782
 21
171.37578804
 31
0.0
  0
LINE
  5
F8
330
1F
100
AcDbEntity
  8
D-STR-STR5
  6
Continuous
 62
    83
370
    13
100
AcDbLine
 10
128.40009782
 20
172.57578804
 30
0.0
 11
129.00009782
 21
171.97578804
 31
0.0
  0
LINE
  5
F9
330
1F
100
AcDbEntity
  8
D-STR-STR5
  6
Continuous
 62
    83
370
    13
100
AcDbLine
 10
129.60009782
 20
171.37578804
 30
0.0
 11
129.00009782
 21
170.77578804
 31
0.0
  0
LINE
  5
FA
330
1F
100
AcDbEntity
  8
D-STR-STR5
  6
Continuous
 62
    83
370
    13
100
AcDbLine
 10
206.70122582
 20
170.77578804
 30
0.0
 11
208.50122582
 21
172.57578804
 31
0.0
  0
LINE
  5
FB
330
1F
100
AcDbEntity
  8
D-STR-STR5
  6
Continuous
 62
    83
370
    13
100
AcDbLine
 10
208.50122582
 20
172.57578804
 30
0.0
 11
210.30122582
 21
170.77578804
 31
0.0
  0
LINE
  5
FC
330
1F
100
AcDbEntity
  8
D-STR-STR5
  6
Continuous
 62
    83
370
    13
100
AcDbLine
 10
210.30122582
 20
170.77578804
 30
0.0
 11
212.10122582
 21
172.57578804
 31
0.0
  0
LINE
  5
FD
330
1F
100
AcDbEntity
  8
D-STR-STR5
  6
Continuous
 62
    83
370
    13
100
AcDbLine
 10
212.10122582
 20
172.57578804
 30
0.0
 11
213.90122582
 21
170.77578804
 31
0.0
  0
LINE
  5
FE
330
1F
100
AcDbEntity
  8
D-STR-STR5
  6
Continuous
 62
    83
370
    13
100
AcDbLine
 10
213.90122582
 20
170.77578804
 30
0.0
 11
215.70122582
 21
172.57578804
 31
0.0
  0
LINE
  5
FF
330
1F
100
AcDbEntity
  8
D-STR-STR5
  6
Continuous
 62
    83
370
    13
100
AcDbLine
 10
209.10122582
 20
171.97578804
 30
0.0
 11
207.90122582
 21
170.77578804
 31
0.0
  0
LINE
  5
100
330
1F
100
AcDbEntity
  8
D-STR-STR5
  6
Continuous
 62
    83
370
    13
100
AcDbLine
 10
209.70122582
 20
171.37578804
 30
0.0
 11
209.10122582
 21
170.77578804
 31
0.0
  0
LINE
  5
101
330
1F
100
AcDbEntity
  8
D-STR-STR5
  6
Continuous
 62
    83
370
    13
100
AcDbLine
 10
207.30122582
 20
172.57578804
 30
0.0
 11
207.90122582
 21
171.97578804
 31
0.0
  0
LINE
  5
102
330
1F
100
AcDbEntity
  8
D-STR-STR5
  6
Continuous
 62
    83
370
    13
100
AcDbLine
 10
206.70122582
 20
171.97578804
 30
0.0
 11
207.30122582
 21
171.37578804
 31
0.0
  0
LINE
  5
103
330
1F
100
AcDbEntity
  8
D-STR-STR5
  6
Continuous
 62
    83
370
    13
100
AcDbLine
 10
209.70122582
 20
172.57578804
 30
0.0
 11
210.90122582
 21
171.37578804
 31
0.0
  0
LINE
  5
104
330
1F
100
AcDbEntity
  8
D-STR-STR5
  6
Continuous
 62
    83
370
    13
100
AcDbLine
 10
210.90122582
 20
172.57578804
 30
0.0
 11
211.50122582
 21
171.97578804
 31
0.0
  0
LINE
  5
105
330
1F
100
AcDbEntity
  8
D-STR-STR5
  6
Continuous
 62
    83
370
    13
100
AcDbLine
 10
212.70122582
 20
171.97578804
 30
0.0
 11
211.50122582
 21
170.77578804
 31
0.0
  0
LINE
  5
106
330
1F
100
AcDbEntity
  8
D-STR-STR5
  6
Continuous
 62
    83
370
    13
100
AcDbLine
 10
213.30122582
 20
171.37578804
 30
0.0
 11
212.70122582
 21
170.77578804
 31
0.0
  0
LINE
  5
107
330
1F
100
AcDbEntity
  8
D-STR-STR5
  6
Continuous
 62
    83
370
    13
100
AcDbLine
 10
213.30122582
 20
172.57578804
 30
0.0
 11
214.50122582
 21
171.37578804
 31
0.0
  0
LINE
  5
108
330
1F
100
AcDbEntity
  8
D-STR-STR5
  6
Continuous
 62
    83
370
    13
100
AcDbLine
 10
214.50122582
 20
172.57578804
 30
0.0
 11
215.10122582
 21
171.97578804
 31
0.0
  0
LINE
  5
109
330
1F
100
AcDbEntity
  8
D-STR-STR5
  6
Continuous
 62
    83
370
    13
100
AcDbLine
 10
215.70122582
 20
171.37578804
 30
0.0
 11
215.10122582
 21
170.77578804
 31
0.0
  0
LINE
  5
10A
330
1F
100
AcDbEntity
  8
D-STR-STR5
  6
Continuous
 62
    83
370
    13
100
AcDbLine
 10
180.1252011
 20
170.77578804
 30
0.0
 11
181.9252011
 21
172.57578804
 31
0.0
  0
LINE
  5
10B
330
1F
100
AcDbEntity
  8
D-STR-STR5
  6
Continuous
 62
    83
370
    13
100
AcDbLine
 10
181.9252011
 20
172.57578804
 30
0.0
 11
183.7252011
 21
170.77578804
 31
0.0
  0
LINE
  5
10C
330
1F
100
AcDbEntity
  8
D-STR-STR5
  6
Continuous
 62
    83
370
    13
100
AcDbLine
 10
183.7252011
 20
170.77578804
 30
0.0
 11
185.5252011
 21
172.57578804
 31
0.0
  0
LINE
  5
10D
330
1F
100
AcDbEntity
  8
D-STR-STR5
  6
Continuous
 62
    83
370
    13
100
AcDbLine
 10
185.5252011
 20
172.57578804
 30
0.0
 11
187.3252011
 21
170.77578804
 31
0.0
  0
LINE
  5
10E
330
1F
100
AcDbEntity
  8
D-STR-STR5
  6
Continuous
 62
    83
370
    13
100
AcDbLine
 10
187.3252011
 20
170.77578804
 30
0.0
 11
189.1252011
 21
172.57578804
 31
0.0
  0
LINE
  5
10F
330
1F
100
AcDbEntity
  8
D-STR-STR5
  6
Continuous
 62
    83
370
    13
100
AcDbLine
 10
182.5252011
 20
171.97578804
 30
0.0
 11
181.3252011
 21
170.77578804
 31
0.0
  0
LINE
  5
110
330
1F
100
AcDbEntity
  8
D-STR-STR5
  6
Continuous
 62
    83
370
    13
100
AcDbLine
 10
183.1252011
 20
171.37578804
 30
0.0
 11
182.5252011
 21
170.77578804
 31
0.0
  0
LINE
  5
111
330
1F
100
AcDbEntity
  8
D-STR-STR5
  6
Continuous
 62
    83
370
    13
100
AcDbLine
 10
180.7252011
 20
172.57578804
 30
0.0
 11
181.3252011
 21
171.97578804
 31
0.0
  0
LINE
  5
112
330
1F
100
AcDbEntity
  8
D-STR-STR5
  6
Continuous
 62
    83
370
    13
100
AcDbLine
 10
180.1252011
 20
171.97578804
 30
0.0
 11
180.7252011
 21
171.37578804
 31
0.0
  0
LINE
  5
113
330
1F
100
AcDbEntity
  8
D-STR-STR5
  6
Continuous
 62
    83
370
    13
100
AcDbLine
 10
183.1252011
 20
172.57578804
 30
0.0
 11
184.3252011
 21
171.37578804
 31
0.0
  0
LINE
  5
114
330
1F
100
AcDbEntity
  8
D-STR-STR5
  6
Continuous
 62
    83
370
    13
100
AcDbLine
 10
184.3252011
 20
172.57578804
 30
0.0
 11
184.9252011
 21
171.97578804
 31
0.0
  0
LINE
  5
115
330
1F
100
AcDbEntity
  8
D-STR-STR5
  6
Continuous
 62
    83
370
    13
100
AcDbLine
 10
186.1252011
 20
171.97578804
 30
0.0
 11
184.9252011
 21
170.77578804
 31
0.0
  0
LINE
  5
116
330
1F
100
AcDbEntity
  8
D-STR-STR5
  6
Continuous
 62
    83
370
    13
100
AcDbLine
 10
186.7252011
 20
171.37578804
 30
0.0
 11
186.1252011
 21
170.77578804
 31
0.0
  0
LINE
  5
117
330
1F
100
AcDbEntity
  8
D-STR-STR5
  6
Continuous
 62
    83
370
    13
100
AcDbLine
 10
186.7252011
 20
172.57578804
 30
0.0
 11
187.9252011
 21
171.37578804
 31
0.0
  0
LINE
  5
118
330
1F
100
AcDbEntity
  8
D-STR-STR5
  6
Continuous
 62
    83
370
    13
100
AcDbLine
 10
187.9252011
 20
172.57578804
 30
0.0
 11
188.5252011
 21
171.97578804
 31
0.0
  0
LINE
  5
119
330
1F
100
AcDbEntity
  8
D-STR-STR5
  6
Continuous
 62
    83
370
    13
100
AcDbLine
 10
189.1252011
 20
171.37578804
 30
0.0
 11
188.5252011
 21
170.77578804
 31
0.0
  0
LINE
  5
11A
330
1F
100
AcDbEntity
  8
D-STR
  6
Continuous
 62
     1
370
    50
100
AcDbLine
 10
73.21711982
 20
148.63749654
 30
0.0
 11
61.21711981999999
 21
148.63749654
 31
0.0
  0
LINE
  5
11B
330
1F
100
AcDbEntity
  8
D-STR
  6
Continuous
 62
     1
370
    50
100
AcDbLine
 10
61.21711982
 20
148.63749654
 30
0.0
 11
61.21711982
 21
146.63749704
 31
0.0
  0
LINE
  5
11C
330
1F
100
AcDbEntity
  8
D-STR
  6
Continuous
 62
     1
370
    50
100
AcDbLine
 10
61.21711982
 20
146.63749704
 30
0.0
 11
73.21711982
 21
146.63749704
 31
0.0
  0
LINE
  5
11D
330
1F
100
AcDbEntity
  8
D-STR
  6
Continuous
 62
     1
370
    50
100
AcDbLine
 10
73.21711982
 20
146.63749704
 30
0.0
 11
73.21711982
 21
148.63749654
 31
0.0
  0
LINE
  5
11E
330
1F
100
AcDbEntity
  8
D-STR
  6
Continuous
 62
     1
370
    50
100
AcDbLine
 10
145.21711982
 20
148.63749654
 30
0.0
 11
133.21711982
 21
148.63749654
 31
0.0
  0
LINE
  5
11F
330
1F
100
AcDbEntity
  8
D-STR
  6
Continuous
 62
     1
370
    50
100
AcDbLine
 10
133.21711982
 20
148.63749654
 30
0.0
 11
133.21711982
 21
146.63749704
 31
0.0
  0
LINE
  5
120
330
1F
100
AcDbEntity
  8
D-STR
  6
Continuous
 62
     1
370
    50
100
AcDbLine
 10
133.21711982
 20
146.63749704
 30
0.0
 11
145.21711982
 21
146.63749704
 31
0.0
  0
LINE
  5
121
330
1F
100
AcDbEntity
  8
D-STR
  6
Continuous
 62
     1
370
    50
100
AcDbLine
 10
145.21711982
 20
146.63749704
 30
0.0
 11
145.21711982
 21
148.63749654
 31
0.0
  0
LINE
  5
122
330
1F
100
AcDbEntity
  8
D-STR
  6
Continuous
 62
     1
370
    50
100
AcDbLine
 10
134.21712032
 20
148.63749654
 30
0.0
 11
134.21712032
 21
172.63749654
 31
0.0
  0
LINE
  5
123
330
1F
100
AcDbEntity
  8
D-STR
  6
Continuous
 62
     1
370
    50
100
AcDbLine
 10
134.21712032
 20
172.63749654
 30
0.0
 11
138.31711982
 21
173.03749704
 31
0.0
  0
LINE
  5
124
330
1F
100
AcDbEntity
  8
D-STR
  6
Continuous
 62
     1
370
    50
100
AcDbLine
 10
138.31711982
 20
173.03749704
 30
0.0
 11
140.11711982
 21
173.03749704
 31
0.0
  0
LINE
  5
125
330
1F
100
AcDbEntity
  8
D-STR
  6
Continuous
 62
     1
370
    50
100
AcDbLine
 10
140.11711982
 20
173.03749704
 30
0.0
 11
144.21711932
 21
172.63749654
 31
0.0
  0
LINE
  5
126
330
1F
100
AcDbEntity
  8
D-STR
  6
Continuous
 62
     1
370
    50
100
AcDbLine
 10
144.21711932
 20
172.63749654
 30
0.0
 11
144.21711932
 21
148.63749654
 31
0.0
  0
LINE
  5
127
330
1F
100
AcDbEntity
  8
D-STR
  6
Continuous
 62
     1
370
    50
100
AcDbLine
 10
140.11711982
 20
234.63749604
 30
0.0
 11
134.21712032
 21
234.63749604
 31
0.0
  0
LINE
  5
128
330
1F
100
AcDbEntity
  8
D-STR
  6
Continuous
 62
     1
370
    50
100
AcDbLine
 10
134.21712032
 20
234.63749604
 30
0.0
 11
134.21712032
 21
230.63749704
 31
0.0
  0
LINE
  5
129
330
1F
100
AcDbEntity
  8
D-STR
  6
Continuous
 62
     1
370
    50
100
AcDbLine
 10
134.21712032
 20
230.63749704
 30
0.0
 11
140.11711982
 21
230.63749704
 31
0.0
  0
LINE
  5
12A
330
1F
100
AcDbEntity
  8
D-STR
  6
Continuous
 62
     1
370
    50
100
AcDbLine
 10
140.11711982
 20
230.63749704
 30
0.0
 11
140.11711982
 21
234.63749604
 31
0.0
  0
LINE
  5
12B
330
1F
100
AcDbEntity
  8
D-STR
  6
Continuous
 62
     1
370
    50
100
AcDbLine
 10
140.11711982
 20
236.63749554
 30
0.0
 11
138.31711982
 21
236.63749554
 31
0.0
  0
LINE
  5
12C
330
1F
100
AcDbEntity
  8
D-STR
  6
Continuous
 62
     1
370
    50
100
AcDbLine
 10
138.31711982
 20
236.63749554
 30
0.0
 11
138.31711982
 21
234.63749604
 31
0.0
  0
LINE
  5
12D
330
1F
100
AcDbEntity
  8
D-STR
  6
Continuous
 62
     1
370
    50
100
AcDbLine
 10
128.21712032
 20
243.23749554
 30
0.0
 11
134.21712032
 21
243.23749554
 31
0.0
  0
LINE
  5
12E
330
1F
100
AcDbEntity
  8
D-STR
  6
Continuous
 62
     1
370
    50
100
AcDbLine
 10
134.21712032
 20
243.23749554
 30
0.0
 11
134.21712032
 21
234.63749604
 31
0.0
  0
LINE
  5
12F
330
1F
100
AcDbEntity
  8
D-STR
  6
Continuous
 62
     1
370
    50
100
AcDbLine
 10
134.21712032
 20
230.63749704
 30
0.0
 11
134.21712032
 21
222.63749604
 31
0.0
  0
LINE
  5
130
330
1F
100
AcDbEntity
  8
D-STR
  6
Continuous
 62
     1
370
    50
100
AcDbLine
 10
134.21712032
 20
222.63749604
 30
0.0
 11
133.21711982
 21
222.63749604
 31
0.0
  0
LINE
  5
131
330
1F
100
AcDbEntity
  8
D-STR
  6
Continuous
 62
     1
370
    50
100
AcDbLine
 10
205.21711982
 20
148.63749654
 30
0.0
 11
193.21711982
 21
148.63749654
 31
0.0
  0
LINE
  5
132
330
1F
100
AcDbEntity
  8
D-STR
  6
Continuous
 62
     1
370
    50
100
AcDbLine
 10
193.21711982
 20
148.63749654
 30
0.0
 11
193.21711982
 21
146.63749704
 31
0.0
  0
LINE
  5
133
330
1F
100
AcDbEntity
  8
D-STR
  6
Continuous
 62
     1
370
    50
100
AcDbLine
 10
193.21711982
 20
146.63749704
 30
0.0
 11
205.21711982
 21
146.63749704
 31
0.0
  0
LINE
  5
134
330
1F
100
AcDbEntity
  8
D-STR
  6
Continuous
 62
     1
370
    50
100
AcDbLine
 10
205.21711982
 20
146.63749704
 30
0.0
 11
205.21711982
 21
148.63749654
 31
0.0
  0
LINE
  5
135
330
1F
100
AcDbEntity
  8
D-STR
  6
Continuous
 62
     1
370
    50
100
AcDbLine
 10
194.21712032
 20
148.63749654
 30
0.0
 11
194.21712032
 21
172.63749654
 31
0.0
  0
LINE
  5
136
330
1F
100
AcDbEntity
  8
D-STR
  6
Continuous
 62
     1
370
    50
100
AcDbLine
 10
194.21712032
 20
172.63749654
 30
0.0
 11
198.31711982
 21
173.03749704
 31
0.0
  0
LINE
  5
137
330
1F
100
AcDbEntity
  8
D-STR
  6
Continuous
 62
     1
370
    50
100
AcDbLine
 10
198.31711982
 20
173.03749704
 30
0.0
 11
200.11711982
 21
173.03749704
 31
0.0
  0
LINE
  5
138
330
1F
100
AcDbEntity
  8
D-STR
  6
Continuous
 62
     1
370
    50
100
AcDbLine
 10
200.11711982
 20
173.03749704
 30
0.0
 11
204.21711932
 21
172.63749654
 31
0.0
  0
LINE
  5
139
330
1F
100
AcDbEntity
  8
D-STR
  6
Continuous
 62
     1
370
    50
100
AcDbLine
 10
204.21711932
 20
172.63749654
 30
0.0
 11
204.21711932
 21
148.63749654
 31
0.0
  0
LINE
  5
13A
330
1F
100
AcDbEntity
  8
D-STR
  6
Continuous
 62
     1
370
    50
100
AcDbLine
 10
196.01712032
 20
234.63749604
 30
0.0
 11
190.11712082
 21
234.63749604
 31
0.0
  0
LINE
  5
13B
330
1F
100
AcDbEntity
  8
D-STR
  6
Continuous
 62
     1
370
    50
100
AcDbLine
 10
190.11712082
 20
234.63749604
 30
0.0
 11
190.11712082
 21
230.63749704
 31
0.0
  0
LINE
  5
13C
330
1F
100
AcDbEntity
  8
D-STR
  6
Continuous
 62
     1
370
    50
100
AcDbLine
 10
190.11712082
 20
230.63749704
 30
0.0
 11
196.01712032
 21
230.63749704
 31
0.0
  0
LINE
  5
13D
330
1F
100
AcDbEntity
  8
D-STR
  6
Continuous
 62
     1
370
    50
100
AcDbLine
 10
196.01712032
 20
230.63749704
 30
0.0
 11
196.01712032
 21
234.63749604
 31
0.0
  0
LINE
  5
13E
330
1F
100
AcDbEntity
  8
D-STR
  6
Continuous
 62
     1
370
    50
100
AcDbLine
 10
184.11712082
 20
243.23749554
 30
0.0
 11
190.11712082
 21
243.23749554
 31
0.0
  0
LINE
  5
13F
330
1F
100
AcDbEntity
  8
D-STR
  6
Continuous
 62
     1
370
    50
100
AcDbLine
 10
190.11712082
 20
243.23749554
 30
0.0
 11
190.11712082
 21
234.63749604
 31
0.0
  0
LINE
  5
140
330
1F
100
AcDbEntity
  8
D-STR
  6
Continuous
 62
     1
370
    50
100
AcDbLine
 10
190.11712082
 20
230.63749704
 30
0.0
 11
190.11712082
 21
222.63749604
 31
0.0
  0
LINE
  5
141
330
1F
100
AcDbEntity
  8
D-STR
  6
Continuous
 62
     1
370
    50
100
AcDbLine
 10
190.11712082
 20
222.63749604
 30
0.0
 11
189.11712032
 21
222.63749604
 31
0.0
  0
LINE
  5
142
330
1F
100
AcDbEntity
  8
D-STR
  6
Continuous
 62
     1
370
    50
100
AcDbLine
 10
200.11711982
 20
230.63749704
 30
0.0
 11
194.21712032
 21
230.63749704
 31
0.0
  0
LINE
  5
143
330
1F
100
AcDbEntity
  8
D-STR
  6
Continuous
 62
     1
370
    50
100
AcDbLine
 10
194.21712032
 20
230.63749704
 30
0.0
 11
194.21712032
 21
226.63749804
 31
0.0
  0
LINE
  5
144
330
1F
100
AcDbEntity
  8
D-STR
  6
Continuous
 62
     1
370
    50
100
AcDbLine
 10
194.21712032
 20
226.63749804
 30
0.0
 11
200.11711982
 21
226.63749804
 31
0.0
  0
LINE
  5
145
330
1F
100
AcDbEntity
  8
D-STR
  6
Continuous
 62
     1
370
    50
100
AcDbLine
 10
200.11711982
 20
226.63749804
 30
0.0
 11
200.11711982
 21
230.63749704
 31
0.0
  0
LINE
  5
146
330
1F
100
AcDbEntity
  8
D-STR
  6
Continuous
 62
     1
370
    50
100
AcDbLine
 10
198.31711982
 20
226.63749804
 30
0.0
 11
204.21711932
 21
226.63749804
 31
0.0
  0
LINE
  5
147
330
1F
100
AcDbEntity
  8
D-STR
  6
Continuous
 62
     1
370
    50
100
AcDbLine
 10
204.21711932
 20
226.63749804
 30
0.0
 11
204.21711932
 21
222.63749904
 31
0.0
  0
LINE
  5
148
330
1F
100
AcDbEntity
  8
D-STR
  6
Continuous
 62
     1
370
    50
100
AcDbLine
 10
204.21711932
 20
222.63749904
 30
0.0
 11
198.31711982
 21
222.63749904
 31
0.0
  0
LINE
  5
149
330
1F
100
AcDbEntity
  8
D-STR
  6
Continuous
 62
     1
370
    50
100
AcDbLine
 10
198.31711982
 20
222.63749904
 30
0.0
 11
198.31711982
 21
226.63749804
 31
0.0
  0
LINE
  5
14A
330
1F
100
AcDbEntity
  8
D-STR
  6
Continuous
 62
     1
370
    50
100
AcDbLine
 10
200.11711982
 20
236.63749554
 30
0.0
 11
198.31711982
 21
236.63749554
 31
0.0
  0
LINE
  5
14B
330
1F
100
AcDbEntity
  8
D-STR
  6
Continuous
 62
     1
370
    50
100
AcDbLine
 10
198.31711982
 20
236.63749554
 30
0.0
 11
198.31711982
 21
230.63749704
 31
0.0
  0
LINE
  5
14C
330
1F
100
AcDbEntity
  8
D-STR
  6
Continuous
 62
     1
370
    50
100
AcDbLine
 10
202.41711932
 20
234.63749604
 30
0.0
 11
208.31711882
 21
234.63749604
 31
0.0
  0
LINE
  5
14D
330
1F
100
AcDbEntity
  8
D-STR
  6
Continuous
 62
     1
370
    50
100
AcDbLine
 10
208.31711882
 20
234.63749604
 30
0.0
 11
208.31711882
 21
230.63749704
 31
0.0
  0
LINE
  5
14E
330
1F
100
AcDbEntity
  8
D-STR
  6
Continuous
 62
     1
370
    50
100
AcDbLine
 10
208.31711882
 20
230.63749704
 30
0.0
 11
202.41711932
 21
230.63749704
 31
0.0
  0
LINE
  5
14F
330
1F
100
AcDbEntity
  8
D-STR
  6
Continuous
 62
     1
370
    50
100
AcDbLine
 10
202.41711932
 20
230.63749704
 30
0.0
 11
202.41711932
 21
234.63749604
 31
0.0
  0
LINE
  5
150
330
1F
100
AcDbEntity
  8
D-STR
  6
Continuous
 62
     1
370
    50
100
AcDbLine
 10
214.31711882
 20
243.23749554
 30
0.0
 11
208.31711882
 21
243.23749554
 31
0.0
  0
LINE
  5
151
330
1F
100
AcDbEntity
  8
D-STR
  6
Continuous
 62
     1
370
    50
100
AcDbLine
 10
208.31711882
 20
243.23749554
 30
0.0
 11
208.31711882
 21
234.63749604
 31
0.0
  0
LINE
  5
152
330
1F
100
AcDbEntity
  8
D-STR
  6
Continuous
 62
     1
370
    50
100
AcDbLine
 10
208.31711882
 20
230.63749704
 30
0.0
 11
208.31711882
 21
222.63749604
 31
0.0
  0
LINE
  5
153
330
1F
100
AcDbEntity
  8
D-STR
  6
Continuous
 62
     1
370
    50
100
AcDbLine
 10
208.31711882
 20
222.63749604
 30
0.0
 11
209.31711932
 21
222.63749604
 31
0.0
  0
LINE
  5
154
330
1F
100
AcDbEntity
  8
D-STR
  6
Continuous
 62
     1
370
    50
100
AcDbLine
 10
196.01712032
 20
234.63749604
 30
0.0
 11
196.01712032
 21
236.63749554
 31
0.0
  0
LINE
  5
155
330
1F
100
AcDbEntity
  8
D-STR
  6
Continuous
 62
     1
370
    50
100
AcDbLine
 10
196.01712032
 20
236.63749554
 30
0.0
 11
194.21712032
 21
236.63749554
 31
0.0
  0
LINE
  5
156
330
1F
100
AcDbEntity
  8
D-STR
  6
Continuous
 62
     1
370
    50
100
AcDbLine
 10
194.21712032
 20
236.63749554
 30
0.0
 11
194.21712032
 21
234.63749604
 31
0.0
  0
LINE
  5
157
330
1F
100
AcDbEntity
  8
D-STR
  6
Continuous
 62
     1
370
    50
100
AcDbLine
 10
204.21711932
 20
234.63749604
 30
0.0
 11
204.21711932
 21
236.63749554
 31
0.0
  0
LINE
  5
158
330
1F
100
AcDbEntity
  8
D-STR
  6
Continuous
 62
     1
370
    50
100
AcDbLine
 10
204.21711932
 20
236.63749554
 30
0.0
 11
202.41711932
 21
236.63749554
 31
0.0
  0
LINE
  5
159
330
1F
100
AcDbEntity
  8
D-STR
  6
Continuous
 62
     1
370
    50
100
AcDbLine
 10
202.41711932
 20
236.63749554
 30
0.0
 11
202.41711932
 21
234.63749604
 31
0.0
  0
LINE
  5
15A
330
1F
100
AcDbEntity
  8
D-STR
  6
Continuous
 62
     1
370
    50
100
AcDbLine
 10
204.21711932
 20
222.63749904
 30
0.0
 11
204.21711932
 21
220.63749954
 31
0.0
  0
LINE
  5
15B
330
1F
100
AcDbEntity
  8
D-STR
  6
Continuous
 62
     1
370
    50
100
AcDbLine
 10
204.21711932
 20
220.63749954
 30
0.0
 11
202.41711932
 21
220.63749954
 31
0.0
  0
LINE
  5
15C
330
1F
100
AcDbEntity
  8
D-STR
  6
Continuous
 62
     1
370
    50
100
AcDbLine
 10
202.41711932
 20
220.63749954
 30
0.0
 11
202.41711932
 21
222.63749904
 31
0.0
  0
LINE
  5
15D
330
1F
100
AcDbEntity
  8
D-STR
  6
Continuous
 62
     1
370
    50
100
AcDbLine
 10
194.21712032
 20
226.63749804
 30
0.0
 11
194.21712032
 21
220.63749954
 31
0.0
  0
LINE
  5
15E
330
1F
100
AcDbEntity
  8
D-STR
  6
Continuous
 62
     1
370
    50
100
AcDbLine
 10
194.21712032
 20
220.63749954
 30
0.0
 11
196.01712032
 21
220.63749954
 31
0.0
  0
LINE
  5
15F
330
1F
100
AcDbEntity
  8
D-STR
  6
Continuous
 62
     1
370
    50
100
AcDbLine
 10
196.01712032
 20
220.63749954
 30
0.0
 11
196.01712032
 21
226.63749804
 31
0.0
  0
LINE
  5
160
330
1F
100
AcDbEntity
  8
D-STR-STR5
  6
Continuous
 62
    83
370
     9
100
AcDbLine
 10
61.77395882
 20
148.19562354
 30
0.0
 11
61.42295882000001
 21
148.03962354
 31
0.0
  0
LINE
  5
161
330
1F
100
AcDbEntity
  8
D-STR-STR5
  6
Continuous
 62
    83
370
     9
100
AcDbLine
 10
61.42295882000001
 20
148.03962354
 30
0.0
 11
61.26695882
 21
147.49362354
 31
0.0
  0
LINE
  5
162
330
1F
100
AcDbEntity
  8
D-STR-STR5
  6
Continuous
 62
    83
370
     9
100
AcDbLine
 10
61.26695882
 20
147.49362354
 30
0.0
 11
61.26695882
 21
147.10362354
 31
0.0
  0
LINE
  5
163
330
1F
100
AcDbEntity
  8
D-STR-STR5
  6
Continuous
 62
    83
370
     9
100
AcDbLine
 10
61.26695882
 20
147.10362354
 30
0.0
 11
61.73495882
 21
146.71362354
 31
0.0
  0
LINE
  5
164
330
1F
100
AcDbEntity
  8
D-STR-STR5
  6
Continuous
 62
    83
370
     9
100
AcDbLine
 10
61.73495882
 20
146.71362354
 30
0.0
 11
62.24195882
 21
146.67462354
 31
0.0
  0
LINE
  5
165
330
1F
100
AcDbEntity
  8
D-STR-STR5
  6
Continuous
 62
    83
370
     9
100
AcDbLine
 10
62.24195882
 20
146.67462354
 30
0.0
 11
62.51495882
 21
147.06462354
 31
0.0
  0
LINE
  5
166
330
1F
100
AcDbEntity
  8
D-STR-STR5
  6
Continuous
 62
    83
370
     9
100
AcDbLine
 10
62.51495882
 20
147.06462354
 30
0.0
 11
62.24195882
 21
147.72762354
 31
0.0
  0
LINE
  5
167
330
1F
100
AcDbEntity
  8
D-STR-STR5
  6
Continuous
 62
    83
370
     9
100
AcDbLine
 10
62.24195882
 20
147.72762354
 30
0.0
 11
61.77395882
 21
148.19562354
 31
0.0
  0
LINE
  5
168
330
1F
100
AcDbEntity
  8
D-STR-STR5
  6
Continuous
 62
    83
370
     9
100
AcDbLine
 10
63.77875682
 20
148.61295054
 30
0.0
 11
63.23275682000001
 21
148.53495054
 31
0.0
  0
LINE
  5
169
330
1F
100
AcDbEntity
  8
D-STR-STR5
  6
Continuous
 62
    83
370
     9
100
AcDbLine
 10
63.23275682000001
 20
148.53495054
 30
0.0
 11
62.72575684
 21
147.94995054
 31
0.0
  0
LINE
  5
16A
330
1F
100
AcDbEntity
  8
D-STR-STR5
  6
Continuous
 62
    83
370
     9
100
AcDbLine
 10
62.72575684
 20
147.94995054
 30
0.0
 11
62.49175683999999
 21
147.28695054
 31
0.0
  0
LINE
  5
16B
330
1F
100
AcDbEntity
  8
D-STR-STR5
  6
Continuous
 62
    83
370
     9
100
AcDbLine
 10
62.49175684
 20
147.28695054
 30
0.0
 11
62.60875684
 21
146.81895054
 31
0.0
  0
LINE
  5
16C
330
1F
100
AcDbEntity
  8
D-STR-STR5
  6
Continuous
 62
    83
370
     9
100
AcDbLine
 10
62.60875684
 20
146.81895054
 30
0.0
 11
62.99875682
 21
146.66295054
 31
0.0
  0
LINE
  5
16D
330
1F
100
AcDbEntity
  8
D-STR-STR5
  6
Continuous
 62
    83
370
     9
100
AcDbLine
 10
62.99875682
 20
146.66295054
 30
0.0
 11
63.58375682
 21
146.81895054
 31
0.0
  0
LINE
  5
16E
330
1F
100
AcDbEntity
  8
D-STR-STR5
  6
Continuous
 62
    83
370
     9
100
AcDbLine
 10
63.58375682
 20
146.81895054
 30
0.0
 11
64.01275682
 21
147.44295054
 31
0.0
  0
LINE
  5
16F
330
1F
100
AcDbEntity
  8
D-STR-STR5
  6
Continuous
 62
    83
370
     9
100
AcDbLine
 10
64.01275682
 20
147.44295054
 30
0.0
 11
64.12975682000001
 21
148.18395054
 31
0.0
  0
LINE
  5
170
330
1F
100
AcDbEntity
  8
D-STR-STR5
  6
Continuous
 62
    83
370
     9
100
AcDbLine
 10
64.12975682
 20
148.18395054
 30
0.0
 11
63.77875681999999
 21
148.61295054
 31
0.0
  0
LINE
  5
171
330
1F
100
AcDbEntity
  8
D-STR-STR5
  6
Continuous
 62
    83
370
     9
100
AcDbLine
 10
64.89726428
 20
147.9916336
 30
0.0
 11
64.94955174
 21
148.20840772
 31
0.0
  0
LINE
  5
172
330
1F
100
AcDbEntity
  8
D-STR-STR5
  6
Continuous
 62
    83
370
     9
100
AcDbLine
 10
64.94955174
 20
148.20840772
 30
0.0
 11
64.86396916000001
 21
148.49476522
 31
0.0
  0
LINE
  5
173
330
1F
100
AcDbEntity
  8
D-STR-STR5
  6
Continuous
 62
    83
370
     9
100
AcDbLine
 10
64.86396916
 20
148.49476522
 30
0.0
 11
64.60906408
 21
148.62994438
 31
0.0
  0
LINE
  5
174
330
1F
100
AcDbEntity
  8
D-STR-STR5
  6
Continuous
 62
    83
370
     9
100
AcDbLine
 10
64.60906408
 20
148.62994438
 30
0.0
 11
64.34887468
 21
148.39896498
 31
0.0
  0
LINE
  5
175
330
1F
100
AcDbEntity
  8
D-STR-STR5
  6
Continuous
 62
    83
370
     9
100
AcDbLine
 10
64.34887468
 20
148.39896498
 30
0.0
 11
64.13125234
 21
148.05184756
 31
0.0
  0
LINE
  5
176
330
1F
100
AcDbEntity
  8
D-STR-STR5
  6
Continuous
 62
    83
370
     9
100
AcDbLine
 10
64.13125234
 20
148.05184756
 30
0.0
 11
64.23014322
 21
147.66575094
 31
0.0
  0
LINE
  5
177
330
1F
100
AcDbEntity
  8
D-STR-STR5
  6
Continuous
 62
    83
370
     9
100
AcDbLine
 10
64.23014322
 20
147.66575094
 30
0.0
 11
64.50498638
 21
147.634747
 31
0.0
  0
LINE
  5
178
330
1F
100
AcDbEntity
  8
D-STR-STR5
  6
Continuous
 62
    83
370
     9
100
AcDbLine
 10
64.50498638
 20
147.634747
 30
0.0
 11
64.89726428
 21
147.9916336
 31
0.0
  0
LINE
  5
179
330
1F
100
AcDbEntity
  8
D-STR-STR5
  6
Continuous
 62
    83
370
     9
100
AcDbLine
 10
62.46559908
 20
148.52521332
 30
0.0
 11
62.26026056
 21
148.61216788
 31
0.0
  0
LINE
  5
17A
330
1F
100
AcDbEntity
  8
D-STR-STR5
  6
Continuous
 62
    83
370
     9
100
AcDbLine
 10
62.26026056
 20
148.61216788
 30
0.0
 11
61.96377690000001
 21
148.57445264
 31
0.0
  0
LINE
  5
17B
330
1F
100
AcDbEntity
  8
D-STR-STR5
  6
Continuous
 62
    83
370
     9
100
AcDbLine
 10
61.96377690000001
 20
148.57445264
 30
0.0
 11
61.78882012
 21
148.3450183
 31
0.0
  0
LINE
  5
17C
330
1F
100
AcDbEntity
  8
D-STR-STR5
  6
Continuous
 62
    83
370
     9
100
AcDbLine
 10
61.78882012
 20
148.3450183
 30
0.0
 11
61.97425336000001
 21
148.05062992
 31
0.0
  0
LINE
  5
17D
330
1F
100
AcDbEntity
  8
D-STR-STR5
  6
Continuous
 62
    83
370
     9
100
AcDbLine
 10
61.97425336000001
 20
148.05062992
 30
0.0
 11
62.28121348
 21
147.77928976
 31
0.0
  0
LINE
  5
17E
330
1F
100
AcDbEntity
  8
D-STR-STR5
  6
Continuous
 62
    83
370
     9
100
AcDbLine
 10
62.28121348
 20
147.77928976
 30
0.0
 11
62.6782711
 21
147.81386206
 31
0.0
  0
LINE
  5
17F
330
1F
100
AcDbEntity
  8
D-STR-STR5
  6
Continuous
 62
    83
370
     9
100
AcDbLine
 10
62.6782711
 20
147.81386206
 30
0.0
 11
62.75370158
 21
148.079964
 31
0.0
  0
LINE
  5
180
330
1F
100
AcDbEntity
  8
D-STR-STR5
  6
Continuous
 62
    83
370
     9
100
AcDbLine
 10
62.75370158
 20
148.079964
 30
0.0
 11
62.46559908
 21
148.52521332
 31
0.0
  0
LINE
  5
181
330
1F
100
AcDbEntity
  8
D-STR-STR5
  6
Continuous
 62
    83
370
     9
100
AcDbLine
 10
65.76090016
 20
147.79186412
 30
0.0
 11
65.5308527
 21
148.02893618
 31
0.0
  0
LINE
  5
182
330
1F
100
AcDbEntity
  8
D-STR-STR5
  6
Continuous
 62
    83
370
     9
100
AcDbLine
 10
65.5308527
 20
148.02893618
 30
0.0
 11
65.21151256
 21
148.06167564
 31
0.0
  0
LINE
  5
183
330
1F
100
AcDbEntity
  8
D-STR-STR5
  6
Continuous
 62
    83
370
     9
100
AcDbLine
 10
65.21151256
 20
148.06167564
 30
0.0
 11
64.66860226
 21
147.7692745
 31
0.0
  0
LINE
  5
184
330
1F
100
AcDbEntity
  8
D-STR-STR5
  6
Continuous
 62
    83
370
     9
100
AcDbLine
 10
64.66860226
 20
147.7692745
 30
0.0
 11
64.45724505999999
 21
147.39144766
 31
0.0
  0
LINE
  5
185
330
1F
100
AcDbEntity
  8
D-STR-STR5
  6
Continuous
 62
    83
370
     9
100
AcDbLine
 10
64.45724505999999
 20
147.39144766
 30
0.0
 11
64.41551514
 21
147.01877674
 31
0.0
  0
LINE
  5
186
330
1F
100
AcDbEntity
  8
D-STR-STR5
  6
Continuous
 62
    83
370
     9
100
AcDbLine
 10
64.41551514
 20
147.01877674
 30
0.0
 11
64.61665769999999
 21
146.68532258
 31
0.0
  0
LINE
  5
187
330
1F
100
AcDbEntity
  8
D-STR-STR5
  6
Continuous
 62
    83
370
     9
100
AcDbLine
 10
64.61665769999999
 20
146.68532258
 30
0.0
 11
65.06321831999999
 21
146.6564501
 31
0.0
  0
LINE
  5
188
330
1F
100
AcDbEntity
  8
D-STR-STR5
  6
Continuous
 62
    83
370
     9
100
AcDbLine
 10
65.06321832
 20
146.6564501
 30
0.0
 11
65.55215334000002
 21
146.9790451
 31
0.0
  0
LINE
  5
189
330
1F
100
AcDbEntity
  8
D-STR-STR5
  6
Continuous
 62
    83
370
     9
100
AcDbLine
 10
65.55215334
 20
146.9790451
 30
0.0
 11
65.78084700000001
 21
147.48473692
 31
0.0
  0
LINE
  5
18A
330
1F
100
AcDbEntity
  8
D-STR-STR5
  6
Continuous
 62
    83
370
     9
100
AcDbLine
 10
65.78084700000001
 20
147.48473692
 30
0.0
 11
65.76090016
 21
147.79186412
 31
0.0
  0
LINE
  5
18B
330
1F
100
AcDbEntity
  8
D-STR-STR5
  6
Continuous
 62
    83
370
     9
100
AcDbLine
 10
64.38185418
 20
146.98110538
 30
0.0
 11
64.40931982000001
 21
147.15737118
 31
0.0
  0
LINE
  5
18C
330
1F
100
AcDbEntity
  8
D-STR-STR5
  6
Continuous
 62
    83
370
     9
100
AcDbLine
 10
64.40931982000001
 20
147.15737118
 30
0.0
 11
64.32229540000002
 21
147.38006998
 31
0.0
  0
LINE
  5
18D
330
1F
100
AcDbEntity
  8
D-STR-STR5
  6
Continuous
 62
    83
370
     9
100
AcDbLine
 10
64.3222954
 20
147.38006998
 30
0.0
 11
64.11018876
 21
147.47112364
 31
0.0
  0
LINE
  5
18E
330
1F
100
AcDbEntity
  8
D-STR-STR5
  6
Continuous
 62
    83
370
     9
100
AcDbLine
 10
64.11018876
 20
147.47112364
 30
0.0
 11
63.91789398
 21
147.26989064
 31
0.0
  0
LINE
  5
18F
330
1F
100
AcDbEntity
  8
D-STR-STR5
  6
Continuous
 62
    83
370
     9
100
AcDbLine
 10
63.91789398
 20
147.26989064
 30
0.0
 11
63.76715838000001
 21
146.97885322
 31
0.0
  0
LINE
  5
190
330
1F
100
AcDbEntity
  8
D-STR-STR5
  6
Continuous
 62
    83
370
     9
100
AcDbLine
 10
63.76715838000001
 20
146.97885322
 30
0.0
 11
63.87133784
 21
146.67750518
 31
0.0
  0
LINE
  5
191
330
1F
100
AcDbEntity
  8
D-STR-STR5
  6
Continuous
 62
    83
370
     9
100
AcDbLine
 10
63.87133784
 20
146.67750518
 30
0.0
 11
64.09250586
 21
146.67081912
 31
0.0
  0
LINE
  5
192
330
1F
100
AcDbEntity
  8
D-STR-STR5
  6
Continuous
 62
    83
370
     9
100
AcDbLine
 10
64.09250586
 20
146.67081912
 30
0.0
 11
64.38185418
 21
146.98110538
 31
0.0
  0
LINE
  5
193
330
1F
100
AcDbEntity
  8
D-STR-STR5
  6
Continuous
 62
    83
370
     9
100
AcDbLine
 10
69.22264232
 20
148.20230304
 30
0.0
 11
68.87164232
 21
148.04630304
 31
0.0
  0
LINE
  5
194
330
1F
100
AcDbEntity
  8
D-STR-STR5
  6
Continuous
 62
    83
370
     9
100
AcDbLine
 10
68.87164232
 20
148.04630304
 30
0.0
 11
68.71564232
 21
147.50030304
 31
0.0
  0
LINE
  5
195
330
1F
100
AcDbEntity
  8
D-STR-STR5
  6
Continuous
 62
    83
370
     9
100
AcDbLine
 10
68.71564232
 20
147.50030304
 30
0.0
 11
68.71564232
 21
147.11030304
 31
0.0
  0
LINE
  5
196
330
1F
100
AcDbEntity
  8
D-STR-STR5
  6
Continuous
 62
    83
370
     9
100
AcDbLine
 10
68.71564232
 20
147.11030304
 30
0.0
 11
69.18364232
 21
146.72030304
 31
0.0
  0
LINE
  5
197
330
1F
100
AcDbEntity
  8
D-STR-STR5
  6
Continuous
 62
    83
370
     9
100
AcDbLine
 10
69.18364232
 20
146.72030304
 30
0.0
 11
69.69064232000001
 21
146.68130304
 31
0.0
  0
LINE
  5
198
330
1F
100
AcDbEntity
  8
D-STR-STR5
  6
Continuous
 62
    83
370
     9
100
AcDbLine
 10
69.69064232
 20
146.68130304
 30
0.0
 11
69.96364231999999
 21
147.07130304
 31
0.0
  0
LINE
  5
199
330
1F
100
AcDbEntity
  8
D-STR-STR5
  6
Continuous
 62
    83
370
     9
100
AcDbLine
 10
69.96364232
 20
147.07130304
 30
0.0
 11
69.69064232000001
 21
147.73430304
 31
0.0
  0
LINE
  5
19A
330
1F
100
AcDbEntity
  8
D-STR-STR5
  6
Continuous
 62
    83
370
     9
100
AcDbLine
 10
69.69064232
 20
147.73430304
 30
0.0
 11
69.22264232
 21
148.20230304
 31
0.0
  0
LINE
  5
19B
330
1F
100
AcDbEntity
  8
D-STR-STR5
  6
Continuous
 62
    83
370
     9
100
AcDbLine
 10
71.22744032
 20
148.61963004
 30
0.0
 11
70.68144032000001
 21
148.54163004
 31
0.0
  0
LINE
  5
19C
330
1F
100
AcDbEntity
  8
D-STR-STR5
  6
Continuous
 62
    83
370
     9
100
AcDbLine
 10
70.68144032000001
 20
148.54163004
 30
0.0
 11
70.17444034
 21
147.95663004
 31
0.0
  0
LINE
  5
19D
330
1F
100
AcDbEntity
  8
D-STR-STR5
  6
Continuous
 62
    83
370
     9
100
AcDbLine
 10
70.17444034
 20
147.95663004
 30
0.0
 11
69.94044034
 21
147.29363004
 31
0.0
  0
LINE
  5
19E
330
1F
100
AcDbEntity
  8
D-STR-STR5
  6
Continuous
 62
    83
370
     9
100
AcDbLine
 10
69.94044034
 20
147.29363004
 30
0.0
 11
70.05744034
 21
146.82563004
 31
0.0
  0
LINE
  5
19F
330
1F
100
AcDbEntity
  8
D-STR-STR5
  6
Continuous
 62
    83
370
     9
100
AcDbLine
 10
70.05744034
 20
146.82563004
 30
0.0
 11
70.44744032
 21
146.66963004
 31
0.0
  0
LINE
  5
1A0
330
1F
100
AcDbEntity
  8
D-STR-STR5
  6
Continuous
 62
    83
370
     9
100
AcDbLine
 10
70.44744032
 20
146.66963004
 30
0.0
 11
71.03244031999999
 21
146.82563004
 31
0.0
  0
LINE
  5
1A1
330
1F
100
AcDbEntity
  8
D-STR-STR5
  6
Continuous
 62
    83
370
     9
100
AcDbLine
 10
71.03244031999999
 20
146.82563004
 30
0.0
 11
71.46144032
 21
147.44963004
 31
0.0
  0
LINE
  5
1A2
330
1F
100
AcDbEntity
  8
D-STR-STR5
  6
Continuous
 62
    83
370
     9
100
AcDbLine
 10
71.46144032000001
 20
147.44963004
 30
0.0
 11
71.57844032000001
 21
148.19063004
 31
0.0
  0
LINE
  5
1A3
330
1F
100
AcDbEntity
  8
D-STR-STR5
  6
Continuous
 62
    83
370
     9
100
AcDbLine
 10
71.57844032
 20
148.19063004
 30
0.0
 11
71.22744032
 21
148.61963004
 31
0.0
  0
LINE
  5
1A4
330
1F
100
AcDbEntity
  8
D-STR-STR5
  6
Continuous
 62
    83
370
     9
100
AcDbLine
 10
72.34594778
 20
147.9983131
 30
0.0
 11
72.39823524
 21
148.21508722
 31
0.0
  0
LINE
  5
1A5
330
1F
100
AcDbEntity
  8
D-STR-STR5
  6
Continuous
 62
    83
370
     9
100
AcDbLine
 10
72.39823524
 20
148.21508722
 30
0.0
 11
72.31265266000001
 21
148.50144472
 31
0.0
  0
LINE
  5
1A6
330
1F
100
AcDbEntity
  8
D-STR-STR5
  6
Continuous
 62
    83
370
     9
100
AcDbLine
 10
72.31265266000001
 20
148.50144472
 30
0.0
 11
72.05774758
 21
148.63662388
 31
0.0
  0
LINE
  5
1A7
330
1F
100
AcDbEntity
  8
D-STR-STR5
  6
Continuous
 62
    83
370
     9
100
AcDbLine
 10
72.05774758
 20
148.63662388
 30
0.0
 11
71.79755818
 21
148.40564448
 31
0.0
  0
LINE
  5
1A8
330
1F
100
AcDbEntity
  8
D-STR-STR5
  6
Continuous
 62
    83
370
     9
100
AcDbLine
 10
71.79755818
 20
148.40564448
 30
0.0
 11
71.57993584
 21
148.05852706
 31
0.0
  0
LINE
  5
1A9
330
1F
100
AcDbEntity
  8
D-STR-STR5
  6
Continuous
 62
    83
370
     9
100
AcDbLine
 10
71.57993584
 20
148.05852706
 30
0.0
 11
71.67882672
 21
147.67243044
 31
0.0
  0
LINE
  5
1AA
330
1F
100
AcDbEntity
  8
D-STR-STR5
  6
Continuous
 62
    83
370
     9
100
AcDbLine
 10
71.67882672
 20
147.67243044
 30
0.0
 11
71.95366988
 21
147.6414265
 31
0.0
  0
LINE
  5
1AB
330
1F
100
AcDbEntity
  8
D-STR-STR5
  6
Continuous
 62
    83
370
     9
100
AcDbLine
 10
71.95366987999999
 20
147.6414265
 30
0.0
 11
72.34594777999999
 21
147.9983131
 31
0.0
  0
LINE
  5
1AC
330
1F
100
AcDbEntity
  8
D-STR-STR5
  6
Continuous
 62
    83
370
     9
100
AcDbLine
 10
69.91428258
 20
148.53189282
 30
0.0
 11
69.70894406000001
 21
148.61884738
 31
0.0
  0
LINE
  5
1AD
330
1F
100
AcDbEntity
  8
D-STR-STR5
  6
Continuous
 62
    83
370
     9
100
AcDbLine
 10
69.70894406000001
 20
148.61884738
 30
0.0
 11
69.4124604
 21
148.58113214
 31
0.0
  0
LINE
  5
1AE
330
1F
100
AcDbEntity
  8
D-STR-STR5
  6
Continuous
 62
    83
370
     9
100
AcDbLine
 10
69.4124604
 20
148.58113214
 30
0.0
 11
69.23750362
 21
148.3516978
 31
0.0
  0
LINE
  5
1AF
330
1F
100
AcDbEntity
  8
D-STR-STR5
  6
Continuous
 62
    83
370
     9
100
AcDbLine
 10
69.23750362
 20
148.3516978
 30
0.0
 11
69.42293686000001
 21
148.05730942
 31
0.0
  0
LINE
  5
1B0
330
1F
100
AcDbEntity
  8
D-STR-STR5
  6
Continuous
 62
    83
370
     9
100
AcDbLine
 10
69.42293686000001
 20
148.05730942
 30
0.0
 11
69.72989698
 21
147.78596926
 31
0.0
  0
LINE
  5
1B1
330
1F
100
AcDbEntity
  8
D-STR-STR5
  6
Continuous
 62
    83
370
     9
100
AcDbLine
 10
69.72989698
 20
147.78596926
 30
0.0
 11
70.1269546
 21
147.82054156
 31
0.0
  0
LINE
  5
1B2
330
1F
100
AcDbEntity
  8
D-STR-STR5
  6
Continuous
 62
    83
370
     9
100
AcDbLine
 10
70.1269546
 20
147.82054156
 30
0.0
 11
70.20238508000001
 21
148.0866435
 31
0.0
  0
LINE
  5
1B3
330
1F
100
AcDbEntity
  8
D-STR-STR5
  6
Continuous
 62
    83
370
     9
100
AcDbLine
 10
70.20238508
 20
148.0866435
 30
0.0
 11
69.91428257999999
 21
148.53189282
 31
0.0
  0
LINE
  5
1B4
330
1F
100
AcDbEntity
  8
D-STR-STR5
  6
Continuous
 62
    83
370
     9
100
AcDbLine
 10
73.20958366
 20
147.79854362
 30
0.0
 11
72.97953620000001
 21
148.03561568
 31
0.0
  0
LINE
  5
1B5
330
1F
100
AcDbEntity
  8
D-STR-STR5
  6
Continuous
 62
    83
370
     9
100
AcDbLine
 10
72.9795362
 20
148.03561568
 30
0.0
 11
72.66019605999999
 21
148.06835514
 31
0.0
  0
LINE
  5
1B6
330
1F
100
AcDbEntity
  8
D-STR-STR5
  6
Continuous
 62
    83
370
     9
100
AcDbLine
 10
72.66019606
 20
148.06835514
 30
0.0
 11
72.11728576000002
 21
147.775954
 31
0.0
  0
LINE
  5
1B7
330
1F
100
AcDbEntity
  8
D-STR-STR5
  6
Continuous
 62
    83
370
     9
100
AcDbLine
 10
72.11728576
 20
147.775954
 30
0.0
 11
71.90592855999999
 21
147.39812716
 31
0.0
  0
LINE
  5
1B8
330
1F
100
AcDbEntity
  8
D-STR-STR5
  6
Continuous
 62
    83
370
     9
100
AcDbLine
 10
71.90592856
 20
147.39812716
 30
0.0
 11
71.86419864000001
 21
147.02545624
 31
0.0
  0
LINE
  5
1B9
330
1F
100
AcDbEntity
  8
D-STR-STR5
  6
Continuous
 62
    83
370
     9
100
AcDbLine
 10
71.86419864000001
 20
147.02545624
 30
0.0
 11
72.0653412
 21
146.69200208
 31
0.0
  0
LINE
  5
1BA
330
1F
100
AcDbEntity
  8
D-STR-STR5
  6
Continuous
 62
    83
370
     9
100
AcDbLine
 10
72.0653412
 20
146.69200208
 30
0.0
 11
72.51190182
 21
146.6631296
 31
0.0
  0
LINE
  5
1BB
330
1F
100
AcDbEntity
  8
D-STR-STR5
  6
Continuous
 62
    83
370
     9
100
AcDbLine
 10
72.51190182
 20
146.6631296
 30
0.0
 11
73.00083684
 21
146.9857246
 31
0.0
  0
LINE
  5
1BC
330
1F
100
AcDbEntity
  8
D-STR-STR5
  6
Continuous
 62
    83
370
     9
100
AcDbLine
 10
73.00083684
 20
146.9857246
 30
0.0
 11
73.22953050000001
 21
147.49141642
 31
0.0
  0
LINE
  5
1BD
330
1F
100
AcDbEntity
  8
D-STR-STR5
  6
Continuous
 62
    83
370
     9
100
AcDbLine
 10
73.2295305
 20
147.49141642
 30
0.0
 11
73.20958365999999
 21
147.79854362
 31
0.0
  0
LINE
  5
1BE
330
1F
100
AcDbEntity
  8
D-STR-STR5
  6
Continuous
 62
    83
370
     9
100
AcDbLine
 10
71.83053768
 20
146.98778488
 30
0.0
 11
71.85800332000001
 21
147.16405068
 31
0.0
  0
LINE
  5
1BF
330
1F
100
AcDbEntity
  8
D-STR-STR5
  6
Continuous
 62
    83
370
     9
100
AcDbLine
 10
71.85800332
 20
147.16405068
 30
0.0
 11
71.7709789
 21
147.38674948
 31
0.0
  0
LINE
  5
1C0
330
1F
100
AcDbEntity
  8
D-STR-STR5
  6
Continuous
 62
    83
370
     9
100
AcDbLine
 10
71.7709789
 20
147.38674948
 30
0.0
 11
71.55887226
 21
147.47780314
 31
0.0
  0
LINE
  5
1C1
330
1F
100
AcDbEntity
  8
D-STR-STR5
  6
Continuous
 62
    83
370
     9
100
AcDbLine
 10
71.55887226
 20
147.47780314
 30
0.0
 11
71.36657748
 21
147.27657014
 31
0.0
  0
LINE
  5
1C2
330
1F
100
AcDbEntity
  8
D-STR-STR5
  6
Continuous
 62
    83
370
     9
100
AcDbLine
 10
71.36657748
 20
147.27657014
 30
0.0
 11
71.21584188
 21
146.98553272
 31
0.0
  0
LINE
  5
1C3
330
1F
100
AcDbEntity
  8
D-STR-STR5
  6
Continuous
 62
    83
370
     9
100
AcDbLine
 10
71.21584188
 20
146.98553272
 30
0.0
 11
71.32002134000001
 21
146.68418468
 31
0.0
  0
LINE
  5
1C4
330
1F
100
AcDbEntity
  8
D-STR-STR5
  6
Continuous
 62
    83
370
     9
100
AcDbLine
 10
71.32002134000001
 20
146.68418468
 30
0.0
 11
71.54118936
 21
146.67749862
 31
0.0
  0
LINE
  5
1C5
330
1F
100
AcDbEntity
  8
D-STR-STR5
  6
Continuous
 62
    83
370
     9
100
AcDbLine
 10
71.54118936
 20
146.67749862
 30
0.0
 11
71.83053768
 21
146.98778488
 31
0.0
  0
LINE
  5
1C6
330
1F
100
AcDbEntity
  8
D-STR-STR5
  6
Continuous
 62
    83
370
     9
100
AcDbLine
 10
63.47365782
 20
166.02711954
 30
0.0
 11
63.27067182
 21
165.82413354
 31
0.0
  0
LINE
  5
1C7
330
1F
100
AcDbEntity
  8
D-STR-STR5
  6
Continuous
 62
    83
370
     9
100
AcDbLine
 10
63.27067182
 20
165.82413354
 30
0.0
 11
62.98649381999999
 21
166.08801354
 31
0.0
  0
LINE
  5
1C8
330
1F
100
AcDbEntity
  8
D-STR-STR5
  6
Continuous
 62
    83
370
     9
100
AcDbLine
 10
62.98649382
 20
166.08801354
 30
0.0
 11
63.08121982
 21
166.61577354
 31
0.0
  0
LINE
  5
1C9
330
1F
100
AcDbEntity
  8
D-STR-STR5
  6
Continuous
 62
    83
370
     9
100
AcDbLine
 10
63.08121982
 20
166.61577354
 30
0.0
 11
63.41952782000001
 21
166.55487954
 31
0.0
  0
LINE
  5
1CA
330
1F
100
AcDbEntity
  8
D-STR-STR5
  6
Continuous
 62
    83
370
     9
100
AcDbLine
 10
63.41952782000001
 20
166.55487954
 30
0.0
 11
63.47365782
 21
166.02711954
 31
0.0
  0
LINE
  5
1CB
330
1F
100
AcDbEntity
  8
D-STR-STR5
  6
Continuous
 62
    83
370
     9
100
AcDbLine
 10
65.38419182
 20
166.84862154
 30
0.0
 11
65.25629982000001
 21
166.60673754
 31
0.0
  0
LINE
  5
1CC
330
1F
100
AcDbEntity
  8
D-STR-STR5
  6
Continuous
 62
    83
370
     9
100
AcDbLine
 10
65.25629982000001
 20
166.60673754
 30
0.0
 11
65.08392182
 21
166.67346354
 31
0.0
  0
LINE
  5
1CD
330
1F
100
AcDbEntity
  8
D-STR-STR5
  6
Continuous
 62
    83
370
     9
100
AcDbLine
 10
65.08392182
 20
166.67346354
 30
0.0
 11
65.08392182
 21
167.01543654
 31
0.0
  0
LINE
  5
1CE
330
1F
100
AcDbEntity
  8
D-STR-STR5
  6
Continuous
 62
    83
370
     9
100
AcDbLine
 10
65.08392182
 20
167.01543654
 30
0.0
 11
65.30634382000001
 21
167.09884554
 31
0.0
  0
LINE
  5
1CF
330
1F
100
AcDbEntity
  8
D-STR-STR5
  6
Continuous
 62
    83
370
     9
100
AcDbLine
 10
65.30634382000001
 20
167.09884554
 30
0.0
 11
65.38419182
 21
166.84862154
 31
0.0
  0
LINE
  5
1D0
330
1F
100
AcDbEntity
  8
D-STR-STR5
  6
Continuous
 62
    83
370
     9
100
AcDbLine
 10
65.16121982
 20
170.21965854
 30
0.0
 11
64.95823382
 21
170.01667254
 31
0.0
  0
LINE
  5
1D1
330
1F
100
AcDbEntity
  8
D-STR-STR5
  6
Continuous
 62
    83
370
     9
100
AcDbLine
 10
64.95823382
 20
170.01667254
 30
0.0
 11
64.67405582
 21
170.28055254
 31
0.0
  0
LINE
  5
1D2
330
1F
100
AcDbEntity
  8
D-STR-STR5
  6
Continuous
 62
    83
370
     9
100
AcDbLine
 10
64.67405582
 20
170.28055254
 30
0.0
 11
64.76878182
 21
170.80831254
 31
0.0
  0
LINE
  5
1D3
330
1F
100
AcDbEntity
  8
D-STR-STR5
  6
Continuous
 62
    83
370
     9
100
AcDbLine
 10
64.76878182
 20
170.80831254
 30
0.0
 11
65.10708982
 21
170.74741854
 31
0.0
  0
LINE
  5
1D4
330
1F
100
AcDbEntity
  8
D-STR-STR5
  6
Continuous
 62
    83
370
     9
100
AcDbLine
 10
65.10708982
 20
170.74741854
 30
0.0
 11
65.16121982
 21
170.21965854
 31
0.0
  0
LINE
  5
1D5
330
1F
100
AcDbEntity
  8
D-STR-STR5
  6
Continuous
 62
    83
370
     9
100
AcDbLine
 10
63.19563382
 20
170.40832254
 30
0.0
 11
63.06774182
 21
170.16643854
 31
0.0
  0
LINE
  5
1D6
330
1F
100
AcDbEntity
  8
D-STR-STR5
  6
Continuous
 62
    83
370
     9
100
AcDbLine
 10
63.06774182
 20
170.16643854
 30
0.0
 11
62.89536382
 21
170.23316454
 31
0.0
  0
LINE
  5
1D7
330
1F
100
AcDbEntity
  8
D-STR-STR5
  6
Continuous
 62
    83
370
     9
100
AcDbLine
 10
62.89536382000001
 20
170.23316454
 30
0.0
 11
62.89536382000001
 21
170.57513754
 31
0.0
  0
LINE
  5
1D8
330
1F
100
AcDbEntity
  8
D-STR-STR5
  6
Continuous
 62
    83
370
     9
100
AcDbLine
 10
62.89536382000001
 20
170.57513754
 30
0.0
 11
63.11778582
 21
170.65854654
 31
0.0
  0
LINE
  5
1D9
330
1F
100
AcDbEntity
  8
D-STR-STR5
  6
Continuous
 62
    83
370
     9
100
AcDbLine
 10
63.11778582
 20
170.65854654
 30
0.0
 11
63.19563382
 21
170.40832254
 31
0.0
  0
LINE
  5
1DA
330
1F
100
AcDbEntity
  8
D-STR-STR5
  6
Continuous
 62
    83
370
     9
100
AcDbLine
 10
64.19206582
 20
165.17114754
 30
0.0
 11
64.27206582
 21
165.29114754
 31
0.0
  0
LINE
  5
1DB
330
1F
100
AcDbEntity
  8
D-STR-STR5
  6
Continuous
 62
    83
370
     9
100
AcDbLine
 10
62.74181582000001
 20
164.81517654
 30
0.0
 11
62.82181582
 21
164.93517654
 31
0.0
  0
LINE
  5
1DC
330
1F
100
AcDbEntity
  8
D-STR-STR5
  6
Continuous
 62
    83
370
     9
100
AcDbLine
 10
65.77415582
 20
170.90622354
 30
0.0
 11
65.85415582
 21
171.02622354
 31
0.0
  0
LINE
  5
1DD
330
1F
100
AcDbEntity
  8
D-STR-STR5
  6
Continuous
 62
    83
370
     9
100
AcDbLine
 10
65.66868382
 20
165.32935854
 30
0.0
 11
65.74868382
 21
165.44935854
 31
0.0
  0
LINE
  5
1DE
330
1F
100
AcDbEntity
  8
D-STR-STR5
  6
Continuous
 62
    83
370
     9
100
AcDbLine
 10
64.13932982
 20
167.62338654
 30
0.0
 11
64.21932982
 21
167.74338654
 31
0.0
  0
LINE
  5
1DF
330
1F
100
AcDbEntity
  8
D-STR-STR5
  6
Continuous
 62
    83
370
     9
100
AcDbLine
 10
63.00549982
 20
168.49353654
 30
0.0
 11
63.08549982
 21
168.61353654
 31
0.0
  0
LINE
  5
1E0
330
1F
100
AcDbEntity
  8
D-STR-STR5
  6
Continuous
 62
    83
370
     9
100
AcDbLine
 10
65.66868382
 20
168.65174454
 30
0.0
 11
65.74868382
 21
168.77174454
 31
0.0
  0
LINE
  5
1E1
330
1F
100
AcDbEntity
  8
D-STR-STR5
  6
Continuous
 62
    83
370
     9
100
AcDbLine
 10
63.87564782
 20
169.64055054
 30
0.0
 11
63.95564782
 21
169.76055054
 31
0.0
  0
LINE
  5
1E2
330
1F
100
AcDbEntity
  8
D-STR-STR5
  6
Continuous
 62
    83
370
     9
100
AcDbLine
 10
64.93037582
 20
172.05323754
 30
0.0
 11
65.01037582
 21
172.17323754
 31
0.0
  0
LINE
  5
1E3
330
1F
100
AcDbEntity
  8
D-STR-STR5
  6
Continuous
 62
    83
370
     9
100
AcDbLine
 10
63.45375782
 20
172.05323754
 30
0.0
 11
63.53375782
 21
172.17323754
 31
0.0
  0
LINE
  5
1E4
330
1F
100
AcDbEntity
  8
D-STR-STR5
  6
Continuous
 62
    83
370
     9
100
AcDbLine
 10
71.09750632000001
 20
155.62813104
 30
0.0
 11
71.30049232
 21
155.83111704
 31
0.0
  0
LINE
  5
1E5
330
1F
100
AcDbEntity
  8
D-STR-STR5
  6
Continuous
 62
    83
370
     9
100
AcDbLine
 10
71.30049232
 20
155.83111704
 30
0.0
 11
71.58467032
 21
155.56723704
 31
0.0
  0
LINE
  5
1E6
330
1F
100
AcDbEntity
  8
D-STR-STR5
  6
Continuous
 62
    83
370
     9
100
AcDbLine
 10
71.58467032
 20
155.56723704
 30
0.0
 11
71.48994432
 21
155.03947704
 31
0.0
  0
LINE
  5
1E7
330
1F
100
AcDbEntity
  8
D-STR-STR5
  6
Continuous
 62
    83
370
     9
100
AcDbLine
 10
71.48994432
 20
155.03947704
 30
0.0
 11
71.15163632
 21
155.10037104
 31
0.0
  0
LINE
  5
1E8
330
1F
100
AcDbEntity
  8
D-STR-STR5
  6
Continuous
 62
    83
370
     9
100
AcDbLine
 10
71.15163632
 20
155.10037104
 30
0.0
 11
71.09750632
 21
155.62813104
 31
0.0
  0
LINE
  5
1E9
330
1F
100
AcDbEntity
  8
D-STR-STR5
  6
Continuous
 62
    83
370
     9
100
AcDbLine
 10
69.18697232000001
 20
154.80662904
 30
0.0
 11
69.31486432
 21
155.04851304
 31
0.0
  0
LINE
  5
1EA
330
1F
100
AcDbEntity
  8
D-STR-STR5
  6
Continuous
 62
    83
370
     9
100
AcDbLine
 10
69.31486432
 20
155.04851304
 30
0.0
 11
69.48724232
 21
154.98178704
 31
0.0
  0
LINE
  5
1EB
330
1F
100
AcDbEntity
  8
D-STR-STR5
  6
Continuous
 62
    83
370
     9
100
AcDbLine
 10
69.48724232
 20
154.98178704
 30
0.0
 11
69.48724232
 21
154.63981404
 31
0.0
  0
LINE
  5
1EC
330
1F
100
AcDbEntity
  8
D-STR-STR5
  6
Continuous
 62
    83
370
     9
100
AcDbLine
 10
69.48724232
 20
154.63981404
 30
0.0
 11
69.26482032
 21
154.55640504
 31
0.0
  0
LINE
  5
1ED
330
1F
100
AcDbEntity
  8
D-STR-STR5
  6
Continuous
 62
    83
370
     9
100
AcDbLine
 10
69.26482032
 20
154.55640504
 30
0.0
 11
69.18697232000001
 21
154.80662904
 31
0.0
  0
LINE
  5
1EE
330
1F
100
AcDbEntity
  8
D-STR-STR5
  6
Continuous
 62
    83
370
     9
100
AcDbLine
 10
69.40994432000001
 20
151.43559204
 30
0.0
 11
69.61293032
 21
151.63857804
 31
0.0
  0
LINE
  5
1EF
330
1F
100
AcDbEntity
  8
D-STR-STR5
  6
Continuous
 62
    83
370
     9
100
AcDbLine
 10
69.61293032
 20
151.63857804
 30
0.0
 11
69.89710832
 21
151.37469804
 31
0.0
  0
LINE
  5
1F0
330
1F
100
AcDbEntity
  8
D-STR-STR5
  6
Continuous
 62
    83
370
     9
100
AcDbLine
 10
69.89710832
 20
151.37469804
 30
0.0
 11
69.80238232
 21
150.84693804
 31
0.0
  0
LINE
  5
1F1
330
1F
100
AcDbEntity
  8
D-STR-STR5
  6
Continuous
 62
    83
370
     9
100
AcDbLine
 10
69.80238231999999
 20
150.84693804
 30
0.0
 11
69.46407432
 21
150.90783204
 31
0.0
  0
LINE
  5
1F2
330
1F
100
AcDbEntity
  8
D-STR-STR5
  6
Continuous
 62
    83
370
     9
100
AcDbLine
 10
69.46407432
 20
150.90783204
 30
0.0
 11
69.40994432
 21
151.43559204
 31
0.0
  0
LINE
  5
1F3
330
1F
100
AcDbEntity
  8
D-STR-STR5
  6
Continuous
 62
    83
370
     9
100
AcDbLine
 10
71.37553032
 20
151.24692804
 30
0.0
 11
71.50342232
 21
151.48881204
 31
0.0
  0
LINE
  5
1F4
330
1F
100
AcDbEntity
  8
D-STR-STR5
  6
Continuous
 62
    83
370
     9
100
AcDbLine
 10
71.50342232
 20
151.48881204
 30
0.0
 11
71.67580032
 21
151.42208604
 31
0.0
  0
LINE
  5
1F5
330
1F
100
AcDbEntity
  8
D-STR-STR5
  6
Continuous
 62
    83
370
     9
100
AcDbLine
 10
71.67580032
 20
151.42208604
 30
0.0
 11
71.67580032
 21
151.08011304
 31
0.0
  0
LINE
  5
1F6
330
1F
100
AcDbEntity
  8
D-STR-STR5
  6
Continuous
 62
    83
370
     9
100
AcDbLine
 10
71.67580032
 20
151.08011304
 30
0.0
 11
71.45337832
 21
150.99670404
 31
0.0
  0
LINE
  5
1F7
330
1F
100
AcDbEntity
  8
D-STR-STR5
  6
Continuous
 62
    83
370
     9
100
AcDbLine
 10
71.45337832
 20
150.99670404
 30
0.0
 11
71.37553032
 21
151.24692804
 31
0.0
  0
LINE
  5
1F8
330
1F
100
AcDbEntity
  8
D-STR-STR5
  6
Continuous
 62
    83
370
     9
100
AcDbLine
 10
70.37909832000001
 20
156.48410304
 30
0.0
 11
70.29909832000001
 21
156.36410304
 31
0.0
  0
LINE
  5
1F9
330
1F
100
AcDbEntity
  8
D-STR-STR5
  6
Continuous
 62
    83
370
     9
100
AcDbLine
 10
71.82934832
 20
156.84007404
 30
0.0
 11
71.74934832
 21
156.72007404
 31
0.0
  0
LINE
  5
1FA
330
1F
100
AcDbEntity
  8
D-STR-STR5
  6
Continuous
 62
    83
370
     9
100
AcDbLine
 10
68.79700832
 20
150.74902704
 30
0.0
 11
68.71700832
 21
150.62902704
 31
0.0
  0
LINE
  5
1FB
330
1F
100
AcDbEntity
  8
D-STR-STR5
  6
Continuous
 62
    83
370
     9
100
AcDbLine
 10
68.90248032000001
 20
156.32589204
 30
0.0
 11
68.82248032000001
 21
156.20589204
 31
0.0
  0
LINE
  5
1FC
330
1F
100
AcDbEntity
  8
D-STR-STR5
  6
Continuous
 62
    83
370
     9
100
AcDbLine
 10
70.43183432
 20
154.03186404
 30
0.0
 11
70.35183432
 21
153.91186404
 31
0.0
  0
LINE
  5
1FD
330
1F
100
AcDbEntity
  8
D-STR-STR5
  6
Continuous
 62
    83
370
     9
100
AcDbLine
 10
71.56566432
 20
153.16171404
 30
0.0
 11
71.48566432
 21
153.04171404
 31
0.0
  0
LINE
  5
1FE
330
1F
100
AcDbEntity
  8
D-STR-STR5
  6
Continuous
 62
    83
370
     9
100
AcDbLine
 10
68.90248032000001
 20
153.00350604
 30
0.0
 11
68.82248032000001
 21
152.88350604
 31
0.0
  0
LINE
  5
1FF
330
1F
100
AcDbEntity
  8
D-STR-STR5
  6
Continuous
 62
    83
370
     9
100
AcDbLine
 10
70.69551632
 20
152.01470004
 30
0.0
 11
70.61551632
 21
151.89470004
 31
0.0
  0
LINE
  5
200
330
1F
100
AcDbEntity
  8
D-STR-STR5
  6
Continuous
 62
    83
370
     9
100
AcDbLine
 10
69.64078832
 20
149.60201304
 30
0.0
 11
69.56078832
 21
149.48201304
 31
0.0
  0
LINE
  5
201
330
1F
100
AcDbEntity
  8
D-STR-STR5
  6
Continuous
 62
    83
370
     9
100
AcDbLine
 10
71.11740632
 20
149.60201304
 30
0.0
 11
71.03740632
 21
149.48201304
 31
0.0
  0
LINE
  5
202
330
1F
100
AcDbEntity
  8
D-STR-STR5
  6
Continuous
 62
    83
370
     9
100
AcDbLine
 10
63.44204382
 20
150.75718554
 30
0.0
 11
63.23905782
 21
150.55419954
 31
0.0
  0
LINE
  5
203
330
1F
100
AcDbEntity
  8
D-STR-STR5
  6
Continuous
 62
    83
370
     9
100
AcDbLine
 10
63.23905782
 20
150.55419954
 30
0.0
 11
62.95487982
 21
150.81807954
 31
0.0
  0
LINE
  5
204
330
1F
100
AcDbEntity
  8
D-STR-STR5
  6
Continuous
 62
    83
370
     9
100
AcDbLine
 10
62.95487982
 20
150.81807954
 30
0.0
 11
63.04960582
 21
151.34583954
 31
0.0
  0
LINE
  5
205
330
1F
100
AcDbEntity
  8
D-STR-STR5
  6
Continuous
 62
    83
370
     9
100
AcDbLine
 10
63.04960582
 20
151.34583954
 30
0.0
 11
63.38791382
 21
151.28494554
 31
0.0
  0
LINE
  5
206
330
1F
100
AcDbEntity
  8
D-STR-STR5
  6
Continuous
 62
    83
370
     9
100
AcDbLine
 10
63.38791382
 20
151.28494554
 30
0.0
 11
63.44204381999999
 21
150.75718554
 31
0.0
  0
LINE
  5
207
330
1F
100
AcDbEntity
  8
D-STR-STR5
  6
Continuous
 62
    83
370
     9
100
AcDbLine
 10
65.35257782
 20
151.57868754
 30
0.0
 11
65.22468582
 21
151.33680354
 31
0.0
  0
LINE
  5
208
330
1F
100
AcDbEntity
  8
D-STR-STR5
  6
Continuous
 62
    83
370
     9
100
AcDbLine
 10
65.22468582
 20
151.33680354
 30
0.0
 11
65.05230782
 21
151.40352954
 31
0.0
  0
LINE
  5
209
330
1F
100
AcDbEntity
  8
D-STR-STR5
  6
Continuous
 62
    83
370
     9
100
AcDbLine
 10
65.05230782
 20
151.40352954
 30
0.0
 11
65.05230782
 21
151.74550254
 31
0.0
  0
LINE
  5
20A
330
1F
100
AcDbEntity
  8
D-STR-STR5
  6
Continuous
 62
    83
370
     9
100
AcDbLine
 10
65.05230782
 20
151.74550254
 30
0.0
 11
65.27472982
 21
151.82891154
 31
0.0
  0
LINE
  5
20B
330
1F
100
AcDbEntity
  8
D-STR-STR5
  6
Continuous
 62
    83
370
     9
100
AcDbLine
 10
65.27472982
 20
151.82891154
 30
0.0
 11
65.35257782
 21
151.57868754
 31
0.0
  0
LINE
  5
20C
330
1F
100
AcDbEntity
  8
D-STR-STR5
  6
Continuous
 62
    83
370
     9
100
AcDbLine
 10
65.12960582
 20
154.94972454
 30
0.0
 11
64.92661982
 21
154.74673854
 31
0.0
  0
LINE
  5
20D
330
1F
100
AcDbEntity
  8
D-STR-STR5
  6
Continuous
 62
    83
370
     9
100
AcDbLine
 10
64.92661982
 20
154.74673854
 30
0.0
 11
64.64244182
 21
155.01061854
 31
0.0
  0
LINE
  5
20E
330
1F
100
AcDbEntity
  8
D-STR-STR5
  6
Continuous
 62
    83
370
     9
100
AcDbLine
 10
64.64244182
 20
155.01061854
 30
0.0
 11
64.73716782
 21
155.53837854
 31
0.0
  0
LINE
  5
20F
330
1F
100
AcDbEntity
  8
D-STR-STR5
  6
Continuous
 62
    83
370
     9
100
AcDbLine
 10
64.73716782000001
 20
155.53837854
 30
0.0
 11
65.07547582000001
 21
155.47748454
 31
0.0
  0
LINE
  5
210
330
1F
100
AcDbEntity
  8
D-STR-STR5
  6
Continuous
 62
    83
370
     9
100
AcDbLine
 10
65.07547582000001
 20
155.47748454
 30
0.0
 11
65.12960582000001
 21
154.94972454
 31
0.0
  0
LINE
  5
211
330
1F
100
AcDbEntity
  8
D-STR-STR5
  6
Continuous
 62
    83
370
     9
100
AcDbLine
 10
63.16401982000001
 20
155.13838854
 30
0.0
 11
63.03612782
 21
154.89650454
 31
0.0
  0
LINE
  5
212
330
1F
100
AcDbEntity
  8
D-STR-STR5
  6
Continuous
 62
    83
370
     9
100
AcDbLine
 10
63.03612782
 20
154.89650454
 30
0.0
 11
62.86374982
 21
154.96323054
 31
0.0
  0
LINE
  5
213
330
1F
100
AcDbEntity
  8
D-STR-STR5
  6
Continuous
 62
    83
370
     9
100
AcDbLine
 10
62.86374982
 20
154.96323054
 30
0.0
 11
62.86374982
 21
155.30520354
 31
0.0
  0
LINE
  5
214
330
1F
100
AcDbEntity
  8
D-STR-STR5
  6
Continuous
 62
    83
370
     9
100
AcDbLine
 10
62.86374982
 20
155.30520354
 30
0.0
 11
63.08617182
 21
155.38861254
 31
0.0
  0
LINE
  5
215
330
1F
100
AcDbEntity
  8
D-STR-STR5
  6
Continuous
 62
    83
370
     9
100
AcDbLine
 10
63.08617182
 20
155.38861254
 30
0.0
 11
63.16401982000001
 21
155.13838854
 31
0.0
  0
LINE
  5
216
330
1F
100
AcDbEntity
  8
D-STR-STR5
  6
Continuous
 62
    83
370
     9
100
AcDbLine
 10
64.16045182
 20
149.90121354
 30
0.0
 11
64.24045182
 21
150.02121354
 31
0.0
  0
LINE
  5
217
330
1F
100
AcDbEntity
  8
D-STR-STR5
  6
Continuous
 62
    83
370
     9
100
AcDbLine
 10
62.71020182
 20
149.54524254
 30
0.0
 11
62.79020182
 21
149.66524254
 31
0.0
  0
LINE
  5
218
330
1F
100
AcDbEntity
  8
D-STR-STR5
  6
Continuous
 62
    83
370
     9
100
AcDbLine
 10
65.74254182
 20
155.63628954
 30
0.0
 11
65.82254182
 21
155.75628954
 31
0.0
  0
LINE
  5
219
330
1F
100
AcDbEntity
  8
D-STR-STR5
  6
Continuous
 62
    83
370
     9
100
AcDbLine
 10
65.63706982
 20
150.05942454
 30
0.0
 11
65.71706981999999
 21
150.17942454
 31
0.0
  0
LINE
  5
21A
330
1F
100
AcDbEntity
  8
D-STR-STR5
  6
Continuous
 62
    83
370
     9
100
AcDbLine
 10
64.10771582000001
 20
152.35345254
 30
0.0
 11
64.18771582000001
 21
152.47345254
 31
0.0
  0
LINE
  5
21B
330
1F
100
AcDbEntity
  8
D-STR-STR5
  6
Continuous
 62
    83
370
     9
100
AcDbLine
 10
62.97388582
 20
153.22360254
 30
0.0
 11
63.05388582
 21
153.34360254
 31
0.0
  0
LINE
  5
21C
330
1F
100
AcDbEntity
  8
D-STR-STR5
  6
Continuous
 62
    83
370
     9
100
AcDbLine
 10
65.63706982
 20
153.38181054
 30
0.0
 11
65.71706981999999
 21
153.50181054
 31
0.0
  0
LINE
  5
21D
330
1F
100
AcDbEntity
  8
D-STR-STR5
  6
Continuous
 62
    83
370
     9
100
AcDbLine
 10
63.84403382000001
 20
154.37061654
 30
0.0
 11
63.92403382000001
 21
154.49061654
 31
0.0
  0
LINE
  5
21E
330
1F
100
AcDbEntity
  8
D-STR-STR5
  6
Continuous
 62
    83
370
     9
100
AcDbLine
 10
64.89876182
 20
156.78330354
 30
0.0
 11
64.97876182
 21
156.90330354
 31
0.0
  0
LINE
  5
21F
330
1F
100
AcDbEntity
  8
D-STR-STR5
  6
Continuous
 62
    83
370
     9
100
AcDbLine
 10
63.42214382
 20
156.78330354
 30
0.0
 11
63.50214382
 21
156.90330354
 31
0.0
  0
LINE
  5
220
330
1F
100
AcDbEntity
  8
D-STR-STR5
  6
Continuous
 62
    83
370
     9
100
AcDbLine
 10
133.77395882
 20
148.19562354
 30
0.0
 11
133.42295882
 21
148.03962354
 31
0.0
  0
LINE
  5
221
330
1F
100
AcDbEntity
  8
D-STR-STR5
  6
Continuous
 62
    83
370
     9
100
AcDbLine
 10
133.42295882
 20
148.03962354
 30
0.0
 11
133.26695882
 21
147.49362354
 31
0.0
  0
LINE
  5
222
330
1F
100
AcDbEntity
  8
D-STR-STR5
  6
Continuous
 62
    83
370
     9
100
AcDbLine
 10
133.26695882
 20
147.49362354
 30
0.0
 11
133.26695882
 21
147.10362354
 31
0.0
  0
LINE
  5
223
330
1F
100
AcDbEntity
  8
D-STR-STR5
  6
Continuous
 62
    83
370
     9
100
AcDbLine
 10
133.26695882
 20
147.10362354
 30
0.0
 11
133.73495882
 21
146.71362354
 31
0.0
  0
LINE
  5
224
330
1F
100
AcDbEntity
  8
D-STR-STR5
  6
Continuous
 62
    83
370
     9
100
AcDbLine
 10
133.73495882
 20
146.71362354
 30
0.0
 11
134.24195882
 21
146.67462354
 31
0.0
  0
LINE
  5
225
330
1F
100
AcDbEntity
  8
D-STR-STR5
  6
Continuous
 62
    83
370
     9
100
AcDbLine
 10
134.24195882
 20
146.67462354
 30
0.0
 11
134.51495882
 21
147.06462354
 31
0.0
  0
LINE
  5
226
330
1F
100
AcDbEntity
  8
D-STR-STR5
  6
Continuous
 62
    83
370
     9
100
AcDbLine
 10
134.51495882
 20
147.06462354
 30
0.0
 11
134.24195882
 21
147.72762354
 31
0.0
  0
LINE
  5
227
330
1F
100
AcDbEntity
  8
D-STR-STR5
  6
Continuous
 62
    83
370
     9
100
AcDbLine
 10
134.24195882
 20
147.72762354
 30
0.0
 11
133.77395882
 21
148.19562354
 31
0.0
  0
LINE
  5
228
330
1F
100
AcDbEntity
  8
D-STR-STR5
  6
Continuous
 62
    83
370
     9
100
AcDbLine
 10
135.77875682
 20
148.61295054
 30
0.0
 11
135.23275682
 21
148.53495054
 31
0.0
  0
LINE
  5
229
330
1F
100
AcDbEntity
  8
D-STR-STR5
  6
Continuous
 62
    83
370
     9
100
AcDbLine
 10
135.23275682
 20
148.53495054
 30
0.0
 11
134.72575684
 21
147.94995054
 31
0.0
  0
LINE
  5
22A
330
1F
100
AcDbEntity
  8
D-STR-STR5
  6
Continuous
 62
    83
370
     9
100
AcDbLine
 10
134.72575684
 20
147.94995054
 30
0.0
 11
134.49175684
 21
147.28695054
 31
0.0
  0
LINE
  5
22B
330
1F
100
AcDbEntity
  8
D-STR-STR5
  6
Continuous
 62
    83
370
     9
100
AcDbLine
 10
134.49175684
 20
147.28695054
 30
0.0
 11
134.60875684
 21
146.81895054
 31
0.0
  0
LINE
  5
22C
330
1F
100
AcDbEntity
  8
D-STR-STR5
  6
Continuous
 62
    83
370
     9
100
AcDbLine
 10
134.60875684
 20
146.81895054
 30
0.0
 11
134.99875682
 21
146.66295054
 31
0.0
  0
LINE
  5
22D
330
1F
100
AcDbEntity
  8
D-STR-STR5
  6
Continuous
 62
    83
370
     9
100
AcDbLine
 10
134.99875682
 20
146.66295054
 30
0.0
 11
135.58375682
 21
146.81895054
 31
0.0
  0
LINE
  5
22E
330
1F
100
AcDbEntity
  8
D-STR-STR5
  6
Continuous
 62
    83
370
     9
100
AcDbLine
 10
135.58375682
 20
146.81895054
 30
0.0
 11
136.01275682
 21
147.44295054
 31
0.0
  0
LINE
  5
22F
330
1F
100
AcDbEntity
  8
D-STR-STR5
  6
Continuous
 62
    83
370
     9
100
AcDbLine
 10
136.01275682
 20
147.44295054
 30
0.0
 11
136.12975682
 21
148.18395054
 31
0.0
  0
LINE
  5
230
330
1F
100
AcDbEntity
  8
D-STR-STR5
  6
Continuous
 62
    83
370
     9
100
AcDbLine
 10
136.12975682
 20
148.18395054
 30
0.0
 11
135.77875682
 21
148.61295054
 31
0.0
  0
LINE
  5
231
330
1F
100
AcDbEntity
  8
D-STR-STR5
  6
Continuous
 62
    83
370
     9
100
AcDbLine
 10
136.89726428
 20
147.9916336
 30
0.0
 11
136.94955174
 21
148.20840772
 31
0.0
  0
LINE
  5
232
330
1F
100
AcDbEntity
  8
D-STR-STR5
  6
Continuous
 62
    83
370
     9
100
AcDbLine
 10
136.94955174
 20
148.20840772
 30
0.0
 11
136.86396916
 21
148.49476522
 31
0.0
  0
LINE
  5
233
330
1F
100
AcDbEntity
  8
D-STR-STR5
  6
Continuous
 62
    83
370
     9
100
AcDbLine
 10
136.86396916
 20
148.49476522
 30
0.0
 11
136.60906408
 21
148.62994438
 31
0.0
  0
LINE
  5
234
330
1F
100
AcDbEntity
  8
D-STR-STR5
  6
Continuous
 62
    83
370
     9
100
AcDbLine
 10
136.60906408
 20
148.62994438
 30
0.0
 11
136.34887468
 21
148.39896498
 31
0.0
  0
LINE
  5
235
330
1F
100
AcDbEntity
  8
D-STR-STR5
  6
Continuous
 62
    83
370
     9
100
AcDbLine
 10
136.34887468
 20
148.39896498
 30
0.0
 11
136.13125234
 21
148.05184756
 31
0.0
  0
LINE
  5
236
330
1F
100
AcDbEntity
  8
D-STR-STR5
  6
Continuous
 62
    83
370
     9
100
AcDbLine
 10
136.13125234
 20
148.05184756
 30
0.0
 11
136.23014322
 21
147.66575094
 31
0.0
  0
LINE
  5
237
330
1F
100
AcDbEntity
  8
D-STR-STR5
  6
Continuous
 62
    83
370
     9
100
AcDbLine
 10
136.23014322
 20
147.66575094
 30
0.0
 11
136.50498638
 21
147.634747
 31
0.0
  0
LINE
  5
238
330
1F
100
AcDbEntity
  8
D-STR-STR5
  6
Continuous
 62
    83
370
     9
100
AcDbLine
 10
136.50498638
 20
147.634747
 30
0.0
 11
136.89726428
 21
147.9916336
 31
0.0
  0
LINE
  5
239
330
1F
100
AcDbEntity
  8
D-STR-STR5
  6
Continuous
 62
    83
370
     9
100
AcDbLine
 10
134.46559908
 20
148.52521332
 30
0.0
 11
134.26026056
 21
148.61216788
 31
0.0
  0
LINE
  5
23A
330
1F
100
AcDbEntity
  8
D-STR-STR5
  6
Continuous
 62
    83
370
     9
100
AcDbLine
 10
134.26026056
 20
148.61216788
 30
0.0
 11
133.9637769
 21
148.57445264
 31
0.0
  0
LINE
  5
23B
330
1F
100
AcDbEntity
  8
D-STR-STR5
  6
Continuous
 62
    83
370
     9
100
AcDbLine
 10
133.9637769
 20
148.57445264
 30
0.0
 11
133.78882012
 21
148.3450183
 31
0.0
  0
LINE
  5
23C
330
1F
100
AcDbEntity
  8
D-STR-STR5
  6
Continuous
 62
    83
370
     9
100
AcDbLine
 10
133.78882012
 20
148.3450183
 30
0.0
 11
133.97425336
 21
148.05062992
 31
0.0
  0
LINE
  5
23D
330
1F
100
AcDbEntity
  8
D-STR-STR5
  6
Continuous
 62
    83
370
     9
100
AcDbLine
 10
133.97425336
 20
148.05062992
 30
0.0
 11
134.28121348
 21
147.77928976
 31
0.0
  0
LINE
  5
23E
330
1F
100
AcDbEntity
  8
D-STR-STR5
  6
Continuous
 62
    83
370
     9
100
AcDbLine
 10
134.28121348
 20
147.77928976
 30
0.0
 11
134.6782711
 21
147.81386206
 31
0.0
  0
LINE
  5
23F
330
1F
100
AcDbEntity
  8
D-STR-STR5
  6
Continuous
 62
    83
370
     9
100
AcDbLine
 10
134.6782711
 20
147.81386206
 30
0.0
 11
134.75370158
 21
148.079964
 31
0.0
  0
LINE
  5
240
330
1F
100
AcDbEntity
  8
D-STR-STR5
  6
Continuous
 62
    83
370
     9
100
AcDbLine
 10
134.75370158
 20
148.079964
 30
0.0
 11
134.46559908
 21
148.52521332
 31
0.0
  0
LINE
  5
241
330
1F
100
AcDbEntity
  8
D-STR-STR5
  6
Continuous
 62
    83
370
     9
100
AcDbLine
 10
137.76090016
 20
147.79186412
 30
0.0
 11
137.5308527
 21
148.02893618
 31
0.0
  0
LINE
  5
242
330
1F
100
AcDbEntity
  8
D-STR-STR5
  6
Continuous
 62
    83
370
     9
100
AcDbLine
 10
137.5308527
 20
148.02893618
 30
0.0
 11
137.21151256
 21
148.06167564
 31
0.0
  0
LINE
  5
243
330
1F
100
AcDbEntity
  8
D-STR-STR5
  6
Continuous
 62
    83
370
     9
100
AcDbLine
 10
137.21151256
 20
148.06167564
 30
0.0
 11
136.66860226
 21
147.7692745
 31
0.0
  0
LINE
  5
244
330
1F
100
AcDbEntity
  8
D-STR-STR5
  6
Continuous
 62
    83
370
     9
100
AcDbLine
 10
136.66860226
 20
147.7692745
 30
0.0
 11
136.45724506
 21
147.39144766
 31
0.0
  0
LINE
  5
245
330
1F
100
AcDbEntity
  8
D-STR-STR5
  6
Continuous
 62
    83
370
     9
100
AcDbLine
 10
136.45724506
 20
147.39144766
 30
0.0
 11
136.41551514
 21
147.01877674
 31
0.0
  0
LINE
  5
246
330
1F
100
AcDbEntity
  8
D-STR-STR5
  6
Continuous
 62
    83
370
     9
100
AcDbLine
 10
136.41551514
 20
147.01877674
 30
0.0
 11
136.6166577
 21
146.68532258
 31
0.0
  0
LINE
  5
247
330
1F
100
AcDbEntity
  8
D-STR-STR5
  6
Continuous
 62
    83
370
     9
100
AcDbLine
 10
136.6166577
 20
146.68532258
 30
0.0
 11
137.06321832
 21
146.6564501
 31
0.0
  0
LINE
  5
248
330
1F
100
AcDbEntity
  8
D-STR-STR5
  6
Continuous
 62
    83
370
     9
100
AcDbLine
 10
137.06321832
 20
146.6564501
 30
0.0
 11
137.55215334
 21
146.9790451
 31
0.0
  0
LINE
  5
249
330
1F
100
AcDbEntity
  8
D-STR-STR5
  6
Continuous
 62
    83
370
     9
100
AcDbLine
 10
137.55215334
 20
146.9790451
 30
0.0
 11
137.780847
 21
147.48473692
 31
0.0
  0
LINE
  5
24A
330
1F
100
AcDbEntity
  8
D-STR-STR5
  6
Continuous
 62
    83
370
     9
100
AcDbLine
 10
137.780847
 20
147.48473692
 30
0.0
 11
137.76090016
 21
147.79186412
 31
0.0
  0
LINE
  5
24B
330
1F
100
AcDbEntity
  8
D-STR-STR5
  6
Continuous
 62
    83
370
     9
100
AcDbLine
 10
136.38185418
 20
146.98110538
 30
0.0
 11
136.40931982
 21
147.15737118
 31
0.0
  0
LINE
  5
24C
330
1F
100
AcDbEntity
  8
D-STR-STR5
  6
Continuous
 62
    83
370
     9
100
AcDbLine
 10
136.40931982
 20
147.15737118
 30
0.0
 11
136.3222954
 21
147.38006998
 31
0.0
  0
LINE
  5
24D
330
1F
100
AcDbEntity
  8
D-STR-STR5
  6
Continuous
 62
    83
370
     9
100
AcDbLine
 10
136.3222954
 20
147.38006998
 30
0.0
 11
136.11018876
 21
147.47112364
 31
0.0
  0
LINE
  5
24E
330
1F
100
AcDbEntity
  8
D-STR-STR5
  6
Continuous
 62
    83
370
     9
100
AcDbLine
 10
136.11018876
 20
147.47112364
 30
0.0
 11
135.91789398
 21
147.26989064
 31
0.0
  0
LINE
  5
24F
330
1F
100
AcDbEntity
  8
D-STR-STR5
  6
Continuous
 62
    83
370
     9
100
AcDbLine
 10
135.91789398
 20
147.26989064
 30
0.0
 11
135.76715838
 21
146.97885322
 31
0.0
  0
LINE
  5
250
330
1F
100
AcDbEntity
  8
D-STR-STR5
  6
Continuous
 62
    83
370
     9
100
AcDbLine
 10
135.76715838
 20
146.97885322
 30
0.0
 11
135.87133784
 21
146.67750518
 31
0.0
  0
LINE
  5
251
330
1F
100
AcDbEntity
  8
D-STR-STR5
  6
Continuous
 62
    83
370
     9
100
AcDbLine
 10
135.87133784
 20
146.67750518
 30
0.0
 11
136.09250586
 21
146.67081912
 31
0.0
  0
LINE
  5
252
330
1F
100
AcDbEntity
  8
D-STR-STR5
  6
Continuous
 62
    83
370
     9
100
AcDbLine
 10
136.09250586
 20
146.67081912
 30
0.0
 11
136.38185418
 21
146.98110538
 31
0.0
  0
LINE
  5
253
330
1F
100
AcDbEntity
  8
D-STR-STR5
  6
Continuous
 62
    83
370
     9
100
AcDbLine
 10
141.22264232
 20
148.20230304
 30
0.0
 11
140.87164232
 21
148.04630304
 31
0.0
  0
LINE
  5
254
330
1F
100
AcDbEntity
  8
D-STR-STR5
  6
Continuous
 62
    83
370
     9
100
AcDbLine
 10
140.87164232
 20
148.04630304
 30
0.0
 11
140.71564232
 21
147.50030304
 31
0.0
  0
LINE
  5
255
330
1F
100
AcDbEntity
  8
D-STR-STR5
  6
Continuous
 62
    83
370
     9
100
AcDbLine
 10
140.71564232
 20
147.50030304
 30
0.0
 11
140.71564232
 21
147.11030304
 31
0.0
  0
LINE
  5
256
330
1F
100
AcDbEntity
  8
D-STR-STR5
  6
Continuous
 62
    83
370
     9
100
AcDbLine
 10
140.71564232
 20
147.11030304
 30
0.0
 11
141.18364232
 21
146.72030304
 31
0.0
  0
LINE
  5
257
330
1F
100
AcDbEntity
  8
D-STR-STR5
  6
Continuous
 62
    83
370
     9
100
AcDbLine
 10
141.18364232
 20
146.72030304
 30
0.0
 11
141.69064232
 21
146.68130304
 31
0.0
  0
LINE
  5
258
330
1F
100
AcDbEntity
  8
D-STR-STR5
  6
Continuous
 62
    83
370
     9
100
AcDbLine
 10
141.69064232
 20
146.68130304
 30
0.0
 11
141.96364232
 21
147.07130304
 31
0.0
  0
LINE
  5
259
330
1F
100
AcDbEntity
  8
D-STR-STR5
  6
Continuous
 62
    83
370
     9
100
AcDbLine
 10
141.96364232
 20
147.07130304
 30
0.0
 11
141.69064232
 21
147.73430304
 31
0.0
  0
LINE
  5
25A
330
1F
100
AcDbEntity
  8
D-STR-STR5
  6
Continuous
 62
    83
370
     9
100
AcDbLine
 10
141.69064232
 20
147.73430304
 30
0.0
 11
141.22264232
 21
148.20230304
 31
0.0
  0
LINE
  5
25B
330
1F
100
AcDbEntity
  8
D-STR-STR5
  6
Continuous
 62
    83
370
     9
100
AcDbLine
 10
143.22744032
 20
148.61963004
 30
0.0
 11
142.68144032
 21
148.54163004
 31
0.0
  0
LINE
  5
25C
330
1F
100
AcDbEntity
  8
D-STR-STR5
  6
Continuous
 62
    83
370
     9
100
AcDbLine
 10
142.68144032
 20
148.54163004
 30
0.0
 11
142.17444034
 21
147.95663004
 31
0.0
  0
LINE
  5
25D
330
1F
100
AcDbEntity
  8
D-STR-STR5
  6
Continuous
 62
    83
370
     9
100
AcDbLine
 10
142.17444034
 20
147.95663004
 30
0.0
 11
141.94044034
 21
147.29363004
 31
0.0
  0
LINE
  5
25E
330
1F
100
AcDbEntity
  8
D-STR-STR5
  6
Continuous
 62
    83
370
     9
100
AcDbLine
 10
141.94044034
 20
147.29363004
 30
0.0
 11
142.05744034
 21
146.82563004
 31
0.0
  0
LINE
  5
25F
330
1F
100
AcDbEntity
  8
D-STR-STR5
  6
Continuous
 62
    83
370
     9
100
AcDbLine
 10
142.05744034
 20
146.82563004
 30
0.0
 11
142.44744032
 21
146.66963004
 31
0.0
  0
LINE
  5
260
330
1F
100
AcDbEntity
  8
D-STR-STR5
  6
Continuous
 62
    83
370
     9
100
AcDbLine
 10
142.44744032
 20
146.66963004
 30
0.0
 11
143.03244032
 21
146.82563004
 31
0.0
  0
LINE
  5
261
330
1F
100
AcDbEntity
  8
D-STR-STR5
  6
Continuous
 62
    83
370
     9
100
AcDbLine
 10
143.03244032
 20
146.82563004
 30
0.0
 11
143.46144032
 21
147.44963004
 31
0.0
  0
LINE
  5
262
330
1F
100
AcDbEntity
  8
D-STR-STR5
  6
Continuous
 62
    83
370
     9
100
AcDbLine
 10
143.46144032
 20
147.44963004
 30
0.0
 11
143.57844032
 21
148.19063004
 31
0.0
  0
LINE
  5
263
330
1F
100
AcDbEntity
  8
D-STR-STR5
  6
Continuous
 62
    83
370
     9
100
AcDbLine
 10
143.57844032
 20
148.19063004
 30
0.0
 11
143.22744032
 21
148.61963004
 31
0.0
  0
LINE
  5
264
330
1F
100
AcDbEntity
  8
D-STR-STR5
  6
Continuous
 62
    83
370
     9
100
AcDbLine
 10
144.34594778
 20
147.9983131
 30
0.0
 11
144.39823524
 21
148.21508722
 31
0.0
  0
LINE
  5
265
330
1F
100
AcDbEntity
  8
D-STR-STR5
  6
Continuous
 62
    83
370
     9
100
AcDbLine
 10
144.39823524
 20
148.21508722
 30
0.0
 11
144.31265266
 21
148.50144472
 31
0.0
  0
LINE
  5
266
330
1F
100
AcDbEntity
  8
D-STR-STR5
  6
Continuous
 62
    83
370
     9
100
AcDbLine
 10
144.31265266
 20
148.50144472
 30
0.0
 11
144.05774758
 21
148.63662388
 31
0.0
  0
LINE
  5
267
330
1F
100
AcDbEntity
  8
D-STR-STR5
  6
Continuous
 62
    83
370
     9
100
AcDbLine
 10
144.05774758
 20
148.63662388
 30
0.0
 11
143.79755818
 21
148.40564448
 31
0.0
  0
LINE
  5
268
330
1F
100
AcDbEntity
  8
D-STR-STR5
  6
Continuous
 62
    83
370
     9
100
AcDbLine
 10
143.79755818
 20
148.40564448
 30
0.0
 11
143.57993584
 21
148.05852706
 31
0.0
  0
LINE
  5
269
330
1F
100
AcDbEntity
  8
D-STR-STR5
  6
Continuous
 62
    83
370
     9
100
AcDbLine
 10
143.57993584
 20
148.05852706
 30
0.0
 11
143.67882672
 21
147.67243044
 31
0.0
  0
LINE
  5
26A
330
1F
100
AcDbEntity
  8
D-STR-STR5
  6
Continuous
 62
    83
370
     9
100
AcDbLine
 10
143.67882672
 20
147.67243044
 30
0.0
 11
143.95366988
 21
147.6414265
 31
0.0
  0
LINE
  5
26B
330
1F
100
AcDbEntity
  8
D-STR-STR5
  6
Continuous
 62
    83
370
     9
100
AcDbLine
 10
143.95366988
 20
147.6414265
 30
0.0
 11
144.34594778
 21
147.9983131
 31
0.0
  0
LINE
  5
26C
330
1F
100
AcDbEntity
  8
D-STR-STR5
  6
Continuous
 62
    83
370
     9
100
AcDbLine
 10
141.91428258
 20
148.53189282
 30
0.0
 11
141.70894406
 21
148.61884738
 31
0.0
  0
LINE
  5
26D
330
1F
100
AcDbEntity
  8
D-STR-STR5
  6
Continuous
 62
    83
370
     9
100
AcDbLine
 10
141.70894406
 20
148.61884738
 30
0.0
 11
141.4124604
 21
148.58113214
 31
0.0
  0
LINE
  5
26E
330
1F
100
AcDbEntity
  8
D-STR-STR5
  6
Continuous
 62
    83
370
     9
100
AcDbLine
 10
141.4124604
 20
148.58113214
 30
0.0
 11
141.23750362
 21
148.3516978
 31
0.0
  0
LINE
  5
26F
330
1F
100
AcDbEntity
  8
D-STR-STR5
  6
Continuous
 62
    83
370
     9
100
AcDbLine
 10
141.23750362
 20
148.3516978
 30
0.0
 11
141.42293686
 21
148.05730942
 31
0.0
  0
LINE
  5
270
330
1F
100
AcDbEntity
  8
D-STR-STR5
  6
Continuous
 62
    83
370
     9
100
AcDbLine
 10
141.42293686
 20
148.05730942
 30
0.0
 11
141.72989698
 21
147.78596926
 31
0.0
  0
LINE
  5
271
330
1F
100
AcDbEntity
  8
D-STR-STR5
  6
Continuous
 62
    83
370
     9
100
AcDbLine
 10
141.72989698
 20
147.78596926
 30
0.0
 11
142.1269546
 21
147.82054156
 31
0.0
  0
LINE
  5
272
330
1F
100
AcDbEntity
  8
D-STR-STR5
  6
Continuous
 62
    83
370
     9
100
AcDbLine
 10
142.1269546
 20
147.82054156
 30
0.0
 11
142.20238508
 21
148.0866435
 31
0.0
  0
LINE
  5
273
330
1F
100
AcDbEntity
  8
D-STR-STR5
  6
Continuous
 62
    83
370
     9
100
AcDbLine
 10
142.20238508
 20
148.0866435
 30
0.0
 11
141.91428258
 21
148.53189282
 31
0.0
  0
LINE
  5
274
330
1F
100
AcDbEntity
  8
D-STR-STR5
  6
Continuous
 62
    83
370
     9
100
AcDbLine
 10
145.20958366
 20
147.79854362
 30
0.0
 11
144.9795362
 21
148.03561568
 31
0.0
  0
LINE
  5
275
330
1F
100
AcDbEntity
  8
D-STR-STR5
  6
Continuous
 62
    83
370
     9
100
AcDbLine
 10
144.9795362
 20
148.03561568
 30
0.0
 11
144.66019606
 21
148.06835514
 31
0.0
  0
LINE
  5
276
330
1F
100
AcDbEntity
  8
D-STR-STR5
  6
Continuous
 62
    83
370
     9
100
AcDbLine
 10
144.66019606
 20
148.06835514
 30
0.0
 11
144.11728576
 21
147.775954
 31
0.0
  0
LINE
  5
277
330
1F
100
AcDbEntity
  8
D-STR-STR5
  6
Continuous
 62
    83
370
     9
100
AcDbLine
 10
144.11728576
 20
147.775954
 30
0.0
 11
143.90592856
 21
147.39812716
 31
0.0
  0
LINE
  5
278
330
1F
100
AcDbEntity
  8
D-STR-STR5
  6
Continuous
 62
    83
370
     9
100
AcDbLine
 10
143.90592856
 20
147.39812716
 30
0.0
 11
143.86419864
 21
147.02545624
 31
0.0
  0
LINE
  5
279
330
1F
100
AcDbEntity
  8
D-STR-STR5
  6
Continuous
 62
    83
370
     9
100
AcDbLine
 10
143.86419864
 20
147.02545624
 30
0.0
 11
144.0653412
 21
146.69200208
 31
0.0
  0
LINE
  5
27A
330
1F
100
AcDbEntity
  8
D-STR-STR5
  6
Continuous
 62
    83
370
     9
100
AcDbLine
 10
144.0653412
 20
146.69200208
 30
0.0
 11
144.51190182
 21
146.6631296
 31
0.0
  0
LINE
  5
27B
330
1F
100
AcDbEntity
  8
D-STR-STR5
  6
Continuous
 62
    83
370
     9
100
AcDbLine
 10
144.51190182
 20
146.6631296
 30
0.0
 11
145.00083684
 21
146.9857246
 31
0.0
  0
LINE
  5
27C
330
1F
100
AcDbEntity
  8
D-STR-STR5
  6
Continuous
 62
    83
370
     9
100
AcDbLine
 10
145.00083684
 20
146.9857246
 30
0.0
 11
145.2295305
 21
147.49141642
 31
0.0
  0
LINE
  5
27D
330
1F
100
AcDbEntity
  8
D-STR-STR5
  6
Continuous
 62
    83
370
     9
100
AcDbLine
 10
145.2295305
 20
147.49141642
 30
0.0
 11
145.20958366
 21
147.79854362
 31
0.0
  0
LINE
  5
27E
330
1F
100
AcDbEntity
  8
D-STR-STR5
  6
Continuous
 62
    83
370
     9
100
AcDbLine
 10
143.83053768
 20
146.98778488
 30
0.0
 11
143.85800332
 21
147.16405068
 31
0.0
  0
LINE
  5
27F
330
1F
100
AcDbEntity
  8
D-STR-STR5
  6
Continuous
 62
    83
370
     9
100
AcDbLine
 10
143.85800332
 20
147.16405068
 30
0.0
 11
143.7709789
 21
147.38674948
 31
0.0
  0
LINE
  5
280
330
1F
100
AcDbEntity
  8
D-STR-STR5
  6
Continuous
 62
    83
370
     9
100
AcDbLine
 10
143.7709789
 20
147.38674948
 30
0.0
 11
143.55887226
 21
147.47780314
 31
0.0
  0
LINE
  5
281
330
1F
100
AcDbEntity
  8
D-STR-STR5
  6
Continuous
 62
    83
370
     9
100
AcDbLine
 10
143.55887226
 20
147.47780314
 30
0.0
 11
143.36657748
 21
147.27657014
 31
0.0
  0
LINE
  5
282
330
1F
100
AcDbEntity
  8
D-STR-STR5
  6
Continuous
 62
    83
370
     9
100
AcDbLine
 10
143.36657748
 20
147.27657014
 30
0.0
 11
143.21584188
 21
146.98553272
 31
0.0
  0
LINE
  5
283
330
1F
100
AcDbEntity
  8
D-STR-STR5
  6
Continuous
 62
    83
370
     9
100
AcDbLine
 10
143.21584188
 20
146.98553272
 30
0.0
 11
143.32002134
 21
146.68418468
 31
0.0
  0
LINE
  5
284
330
1F
100
AcDbEntity
  8
D-STR-STR5
  6
Continuous
 62
    83
370
     9
100
AcDbLine
 10
143.32002134
 20
146.68418468
 30
0.0
 11
143.54118936
 21
146.67749862
 31
0.0
  0
LINE
  5
285
330
1F
100
AcDbEntity
  8
D-STR-STR5
  6
Continuous
 62
    83
370
     9
100
AcDbLine
 10
143.54118936
 20
146.67749862
 30
0.0
 11
143.83053768
 21
146.98778488
 31
0.0
  0
LINE
  5
286
330
1F
100
AcDbEntity
  8
D-STR-STR5
  6
Continuous
 62
    83
370
     9
100
AcDbLine
 10
143.04438382
 20
170.69127504
 30
0.0
 11
143.24736982
 21
170.89426104
 31
0.0
  0
LINE
  5
287
330
1F
100
AcDbEntity
  8
D-STR-STR5
  6
Continuous
 62
    83
370
     9
100
AcDbLine
 10
143.24736982
 20
170.89426104
 30
0.0
 11
143.53154782
 21
170.63038104
 31
0.0
  0
LINE
  5
288
330
1F
100
AcDbEntity
  8
D-STR-STR5
  6
Continuous
 62
    83
370
     9
100
AcDbLine
 10
143.53154782
 20
170.63038104
 30
0.0
 11
143.43682182
 21
170.10262104
 31
0.0
  0
LINE
  5
289
330
1F
100
AcDbEntity
  8
D-STR-STR5
  6
Continuous
 62
    83
370
     9
100
AcDbLine
 10
143.43682182
 20
170.10262104
 30
0.0
 11
143.09851382
 21
170.16351504
 31
0.0
  0
LINE
  5
28A
330
1F
100
AcDbEntity
  8
D-STR-STR5
  6
Continuous
 62
    83
370
     9
100
AcDbLine
 10
143.09851382
 20
170.16351504
 30
0.0
 11
143.04438382
 21
170.69127504
 31
0.0
  0
LINE
  5
28B
330
1F
100
AcDbEntity
  8
D-STR-STR5
  6
Continuous
 62
    83
370
     9
100
AcDbLine
 10
141.13384982
 20
169.86977304
 30
0.0
 11
141.26174182
 21
170.11165704
 31
0.0
  0
LINE
  5
28C
330
1F
100
AcDbEntity
  8
D-STR-STR5
  6
Continuous
 62
    83
370
     9
100
AcDbLine
 10
141.26174182
 20
170.11165704
 30
0.0
 11
141.43411982
 21
170.04493104
 31
0.0
  0
LINE
  5
28D
330
1F
100
AcDbEntity
  8
D-STR-STR5
  6
Continuous
 62
    83
370
     9
100
AcDbLine
 10
141.43411982
 20
170.04493104
 30
0.0
 11
141.43411982
 21
169.70295804
 31
0.0
  0
LINE
  5
28E
330
1F
100
AcDbEntity
  8
D-STR-STR5
  6
Continuous
 62
    83
370
     9
100
AcDbLine
 10
141.43411982
 20
169.70295804
 30
0.0
 11
141.21169782
 21
169.61954904
 31
0.0
  0
LINE
  5
28F
330
1F
100
AcDbEntity
  8
D-STR-STR5
  6
Continuous
 62
    83
370
     9
100
AcDbLine
 10
141.21169782
 20
169.61954904
 30
0.0
 11
141.13384982
 21
169.86977304
 31
0.0
  0
LINE
  5
290
330
1F
100
AcDbEntity
  8
D-STR-STR5
  6
Continuous
 62
    83
370
     9
100
AcDbLine
 10
141.35682182
 20
166.49873604
 30
0.0
 11
141.55980782
 21
166.70172204
 31
0.0
  0
LINE
  5
291
330
1F
100
AcDbEntity
  8
D-STR-STR5
  6
Continuous
 62
    83
370
     9
100
AcDbLine
 10
141.55980782
 20
166.70172204
 30
0.0
 11
141.84398582
 21
166.43784204
 31
0.0
  0
LINE
  5
292
330
1F
100
AcDbEntity
  8
D-STR-STR5
  6
Continuous
 62
    83
370
     9
100
AcDbLine
 10
141.84398582
 20
166.43784204
 30
0.0
 11
141.74925982
 21
165.91008204
 31
0.0
  0
LINE
  5
293
330
1F
100
AcDbEntity
  8
D-STR-STR5
  6
Continuous
 62
    83
370
     9
100
AcDbLine
 10
141.74925982
 20
165.91008204
 30
0.0
 11
141.41095182
 21
165.97097604
 31
0.0
  0
LINE
  5
294
330
1F
100
AcDbEntity
  8
D-STR-STR5
  6
Continuous
 62
    83
370
     9
100
AcDbLine
 10
141.41095182
 20
165.97097604
 30
0.0
 11
141.35682182
 21
166.49873604
 31
0.0
  0
LINE
  5
295
330
1F
100
AcDbEntity
  8
D-STR-STR5
  6
Continuous
 62
    83
370
     9
100
AcDbLine
 10
143.32240782
 20
166.31007204
 30
0.0
 11
143.45029982
 21
166.55195604
 31
0.0
  0
LINE
  5
296
330
1F
100
AcDbEntity
  8
D-STR-STR5
  6
Continuous
 62
    83
370
     9
100
AcDbLine
 10
143.45029982
 20
166.55195604
 30
0.0
 11
143.62267782
 21
166.48523004
 31
0.0
  0
LINE
  5
297
330
1F
100
AcDbEntity
  8
D-STR-STR5
  6
Continuous
 62
    83
370
     9
100
AcDbLine
 10
143.62267782
 20
166.48523004
 30
0.0
 11
143.62267782
 21
166.14325704
 31
0.0
  0
LINE
  5
298
330
1F
100
AcDbEntity
  8
D-STR-STR5
  6
Continuous
 62
    83
370
     9
100
AcDbLine
 10
143.62267782
 20
166.14325704
 30
0.0
 11
143.40025582
 21
166.05984804
 31
0.0
  0
LINE
  5
299
330
1F
100
AcDbEntity
  8
D-STR-STR5
  6
Continuous
 62
    83
370
     9
100
AcDbLine
 10
143.40025582
 20
166.05984804
 30
0.0
 11
143.32240782
 21
166.31007204
 31
0.0
  0
LINE
  5
29A
330
1F
100
AcDbEntity
  8
D-STR-STR5
  6
Continuous
 62
    83
370
     9
100
AcDbLine
 10
142.32597582
 20
171.54724704
 30
0.0
 11
142.24597582
 21
171.42724704
 31
0.0
  0
LINE
  5
29B
330
1F
100
AcDbEntity
  8
D-STR-STR5
  6
Continuous
 62
    83
370
     9
100
AcDbLine
 10
143.77622582
 20
171.90321804
 30
0.0
 11
143.69622582
 21
171.78321804
 31
0.0
  0
LINE
  5
29C
330
1F
100
AcDbEntity
  8
D-STR-STR5
  6
Continuous
 62
    83
370
     9
100
AcDbLine
 10
140.74388582
 20
165.81217104
 30
0.0
 11
140.66388582
 21
165.69217104
 31
0.0
  0
LINE
  5
29D
330
1F
100
AcDbEntity
  8
D-STR-STR5
  6
Continuous
 62
    83
370
     9
100
AcDbLine
 10
140.84935782
 20
171.38903604
 30
0.0
 11
140.76935782
 21
171.26903604
 31
0.0
  0
LINE
  5
29E
330
1F
100
AcDbEntity
  8
D-STR-STR5
  6
Continuous
 62
    83
370
     9
100
AcDbLine
 10
142.37871182
 20
169.09500804
 30
0.0
 11
142.29871182
 21
168.97500804
 31
0.0
  0
LINE
  5
29F
330
1F
100
AcDbEntity
  8
D-STR-STR5
  6
Continuous
 62
    83
370
     9
100
AcDbLine
 10
143.51254182
 20
168.22485804
 30
0.0
 11
143.43254182
 21
168.10485804
 31
0.0
  0
LINE
  5
2A0
330
1F
100
AcDbEntity
  8
D-STR-STR5
  6
Continuous
 62
    83
370
     9
100
AcDbLine
 10
140.84935782
 20
168.06665004
 30
0.0
 11
140.76935782
 21
167.94665004
 31
0.0
  0
LINE
  5
2A1
330
1F
100
AcDbEntity
  8
D-STR-STR5
  6
Continuous
 62
    83
370
     9
100
AcDbLine
 10
142.64239382
 20
167.07784404
 30
0.0
 11
142.56239382
 21
166.95784404
 31
0.0
  0
LINE
  5
2A2
330
1F
100
AcDbEntity
  8
D-STR-STR5
  6
Continuous
 62
    83
370
     9
100
AcDbLine
 10
141.58766582
 20
164.66515704
 30
0.0
 11
141.50766582
 21
164.54515704
 31
0.0
  0
LINE
  5
2A3
330
1F
100
AcDbEntity
  8
D-STR-STR5
  6
Continuous
 62
    83
370
     9
100
AcDbLine
 10
143.06428382
 20
164.66515704
 30
0.0
 11
142.98428382
 21
164.54515704
 31
0.0
  0
LINE
  5
2A4
330
1F
100
AcDbEntity
  8
D-STR-STR5
  6
Continuous
 62
    83
370
     9
100
AcDbLine
 10
135.38892132
 20
165.82032954
 30
0.0
 11
135.18593532
 21
165.61734354
 31
0.0
  0
LINE
  5
2A5
330
1F
100
AcDbEntity
  8
D-STR-STR5
  6
Continuous
 62
    83
370
     9
100
AcDbLine
 10
135.18593532
 20
165.61734354
 30
0.0
 11
134.90175732
 21
165.88122354
 31
0.0
  0
LINE
  5
2A6
330
1F
100
AcDbEntity
  8
D-STR-STR5
  6
Continuous
 62
    83
370
     9
100
AcDbLine
 10
134.90175732
 20
165.88122354
 30
0.0
 11
134.99648332
 21
166.40898354
 31
0.0
  0
LINE
  5
2A7
330
1F
100
AcDbEntity
  8
D-STR-STR5
  6
Continuous
 62
    83
370
     9
100
AcDbLine
 10
134.99648332
 20
166.40898354
 30
0.0
 11
135.33479132
 21
166.34808954
 31
0.0
  0
LINE
  5
2A8
330
1F
100
AcDbEntity
  8
D-STR-STR5
  6
Continuous
 62
    83
370
     9
100
AcDbLine
 10
135.33479132
 20
166.34808954
 30
0.0
 11
135.38892132
 21
165.82032954
 31
0.0
  0
LINE
  5
2A9
330
1F
100
AcDbEntity
  8
D-STR-STR5
  6
Continuous
 62
    83
370
     9
100
AcDbLine
 10
137.29945532
 20
166.64183154
 30
0.0
 11
137.17156332
 21
166.39994754
 31
0.0
  0
LINE
  5
2AA
330
1F
100
AcDbEntity
  8
D-STR-STR5
  6
Continuous
 62
    83
370
     9
100
AcDbLine
 10
137.17156332
 20
166.39994754
 30
0.0
 11
136.99918532
 21
166.46667354
 31
0.0
  0
LINE
  5
2AB
330
1F
100
AcDbEntity
  8
D-STR-STR5
  6
Continuous
 62
    83
370
     9
100
AcDbLine
 10
136.99918532
 20
166.46667354
 30
0.0
 11
136.99918532
 21
166.80864654
 31
0.0
  0
LINE
  5
2AC
330
1F
100
AcDbEntity
  8
D-STR-STR5
  6
Continuous
 62
    83
370
     9
100
AcDbLine
 10
136.99918532
 20
166.80864654
 30
0.0
 11
137.22160732
 21
166.89205554
 31
0.0
  0
LINE
  5
2AD
330
1F
100
AcDbEntity
  8
D-STR-STR5
  6
Continuous
 62
    83
370
     9
100
AcDbLine
 10
137.22160732
 20
166.89205554
 30
0.0
 11
137.29945532
 21
166.64183154
 31
0.0
  0
LINE
  5
2AE
330
1F
100
AcDbEntity
  8
D-STR-STR5
  6
Continuous
 62
    83
370
     9
100
AcDbLine
 10
137.07648332
 20
170.01286854
 30
0.0
 11
136.87349732
 21
169.80988254
 31
0.0
  0
LINE
  5
2AF
330
1F
100
AcDbEntity
  8
D-STR-STR5
  6
Continuous
 62
    83
370
     9
100
AcDbLine
 10
136.87349732
 20
169.80988254
 30
0.0
 11
136.58931932
 21
170.07376254
 31
0.0
  0
LINE
  5
2B0
330
1F
100
AcDbEntity
  8
D-STR-STR5
  6
Continuous
 62
    83
370
     9
100
AcDbLine
 10
136.58931932
 20
170.07376254
 30
0.0
 11
136.68404532
 21
170.60152254
 31
0.0
  0
LINE
  5
2B1
330
1F
100
AcDbEntity
  8
D-STR-STR5
  6
Continuous
 62
    83
370
     9
100
AcDbLine
 10
136.68404532
 20
170.60152254
 30
0.0
 11
137.02235332
 21
170.54062854
 31
0.0
  0
LINE
  5
2B2
330
1F
100
AcDbEntity
  8
D-STR-STR5
  6
Continuous
 62
    83
370
     9
100
AcDbLine
 10
137.02235332
 20
170.54062854
 30
0.0
 11
137.07648332
 21
170.01286854
 31
0.0
  0
LINE
  5
2B3
330
1F
100
AcDbEntity
  8
D-STR-STR5
  6
Continuous
 62
    83
370
     9
100
AcDbLine
 10
135.11089732
 20
170.20153254
 30
0.0
 11
134.98300532
 21
169.95964854
 31
0.0
  0
LINE
  5
2B4
330
1F
100
AcDbEntity
  8
D-STR-STR5
  6
Continuous
 62
    83
370
     9
100
AcDbLine
 10
134.98300532
 20
169.95964854
 30
0.0
 11
134.81062732
 21
170.02637454
 31
0.0
  0
LINE
  5
2B5
330
1F
100
AcDbEntity
  8
D-STR-STR5
  6
Continuous
 62
    83
370
     9
100
AcDbLine
 10
134.81062732
 20
170.02637454
 30
0.0
 11
134.81062732
 21
170.36834754
 31
0.0
  0
LINE
  5
2B6
330
1F
100
AcDbEntity
  8
D-STR-STR5
  6
Continuous
 62
    83
370
     9
100
AcDbLine
 10
134.81062732
 20
170.36834754
 30
0.0
 11
135.03304932
 21
170.45175654
 31
0.0
  0
LINE
  5
2B7
330
1F
100
AcDbEntity
  8
D-STR-STR5
  6
Continuous
 62
    83
370
     9
100
AcDbLine
 10
135.03304932
 20
170.45175654
 30
0.0
 11
135.11089732
 21
170.20153254
 31
0.0
  0
LINE
  5
2B8
330
1F
100
AcDbEntity
  8
D-STR-STR5
  6
Continuous
 62
    83
370
     9
100
AcDbLine
 10
136.10732932
 20
164.96435754
 30
0.0
 11
136.18732932
 21
165.08435754
 31
0.0
  0
LINE
  5
2B9
330
1F
100
AcDbEntity
  8
D-STR-STR5
  6
Continuous
 62
    83
370
     9
100
AcDbLine
 10
134.65707932
 20
164.60838654
 30
0.0
 11
134.73707932
 21
164.72838654
 31
0.0
  0
LINE
  5
2BA
330
1F
100
AcDbEntity
  8
D-STR-STR5
  6
Continuous
 62
    83
370
     9
100
AcDbLine
 10
137.68941932
 20
170.69943354
 30
0.0
 11
137.76941932
 21
170.81943354
 31
0.0
  0
LINE
  5
2BB
330
1F
100
AcDbEntity
  8
D-STR-STR5
  6
Continuous
 62
    83
370
     9
100
AcDbLine
 10
137.58394732
 20
165.12256854
 30
0.0
 11
137.66394732
 21
165.24256854
 31
0.0
  0
LINE
  5
2BC
330
1F
100
AcDbEntity
  8
D-STR-STR5
  6
Continuous
 62
    83
370
     9
100
AcDbLine
 10
136.05459332
 20
167.41659654
 30
0.0
 11
136.13459332
 21
167.53659654
 31
0.0
  0
LINE
  5
2BD
330
1F
100
AcDbEntity
  8
D-STR-STR5
  6
Continuous
 62
    83
370
     9
100
AcDbLine
 10
134.92076332
 20
168.28674654
 30
0.0
 11
135.00076332
 21
168.40674654
 31
0.0
  0
LINE
  5
2BE
330
1F
100
AcDbEntity
  8
D-STR-STR5
  6
Continuous
 62
    83
370
     9
100
AcDbLine
 10
137.58394732
 20
168.44495454
 30
0.0
 11
137.66394732
 21
168.56495454
 31
0.0
  0
LINE
  5
2BF
330
1F
100
AcDbEntity
  8
D-STR-STR5
  6
Continuous
 62
    83
370
     9
100
AcDbLine
 10
135.79091132
 20
169.43376054
 30
0.0
 11
135.87091132
 21
169.55376054
 31
0.0
  0
LINE
  5
2C0
330
1F
100
AcDbEntity
  8
D-STR-STR5
  6
Continuous
 62
    83
370
     9
100
AcDbLine
 10
136.84563932
 20
171.84644754
 30
0.0
 11
136.92563932
 21
171.96644754
 31
0.0
  0
LINE
  5
2C1
330
1F
100
AcDbEntity
  8
D-STR-STR5
  6
Continuous
 62
    83
370
     9
100
AcDbLine
 10
135.36902132
 20
171.84644754
 30
0.0
 11
135.44902132
 21
171.96644754
 31
0.0
  0
LINE
  5
2C2
330
1F
100
AcDbEntity
  8
D-STR-STR5
  6
Continuous
 62
    83
370
     9
100
AcDbLine
 10
143.01276982
 20
155.42134104
 30
0.0
 11
143.21575582
 21
155.62432704
 31
0.0
  0
LINE
  5
2C3
330
1F
100
AcDbEntity
  8
D-STR-STR5
  6
Continuous
 62
    83
370
     9
100
AcDbLine
 10
143.21575582
 20
155.62432704
 30
0.0
 11
143.49993382
 21
155.36044704
 31
0.0
  0
LINE
  5
2C4
330
1F
100
AcDbEntity
  8
D-STR-STR5
  6
Continuous
 62
    83
370
     9
100
AcDbLine
 10
143.49993382
 20
155.36044704
 30
0.0
 11
143.40520782
 21
154.83268704
 31
0.0
  0
LINE
  5
2C5
330
1F
100
AcDbEntity
  8
D-STR-STR5
  6
Continuous
 62
    83
370
     9
100
AcDbLine
 10
143.40520782
 20
154.83268704
 30
0.0
 11
143.06689982
 21
154.89358104
 31
0.0
  0
LINE
  5
2C6
330
1F
100
AcDbEntity
  8
D-STR-STR5
  6
Continuous
 62
    83
370
     9
100
AcDbLine
 10
143.06689982
 20
154.89358104
 30
0.0
 11
143.01276982
 21
155.42134104
 31
0.0
  0
LINE
  5
2C7
330
1F
100
AcDbEntity
  8
D-STR-STR5
  6
Continuous
 62
    83
370
     9
100
AcDbLine
 10
141.10223582
 20
154.59983904
 30
0.0
 11
141.23012782
 21
154.84172304
 31
0.0
  0
LINE
  5
2C8
330
1F
100
AcDbEntity
  8
D-STR-STR5
  6
Continuous
 62
    83
370
     9
100
AcDbLine
 10
141.23012782
 20
154.84172304
 30
0.0
 11
141.40250582
 21
154.77499704
 31
0.0
  0
LINE
  5
2C9
330
1F
100
AcDbEntity
  8
D-STR-STR5
  6
Continuous
 62
    83
370
     9
100
AcDbLine
 10
141.40250582
 20
154.77499704
 30
0.0
 11
141.40250582
 21
154.43302404
 31
0.0
  0
LINE
  5
2CA
330
1F
100
AcDbEntity
  8
D-STR-STR5
  6
Continuous
 62
    83
370
     9
100
AcDbLine
 10
141.40250582
 20
154.43302404
 30
0.0
 11
141.18008382
 21
154.34961504
 31
0.0
  0
LINE
  5
2CB
330
1F
100
AcDbEntity
  8
D-STR-STR5
  6
Continuous
 62
    83
370
     9
100
AcDbLine
 10
141.18008382
 20
154.34961504
 30
0.0
 11
141.10223582
 21
154.59983904
 31
0.0
  0
LINE
  5
2CC
330
1F
100
AcDbEntity
  8
D-STR-STR5
  6
Continuous
 62
    83
370
     9
100
AcDbLine
 10
141.32520782
 20
151.22880204
 30
0.0
 11
141.52819382
 21
151.43178804
 31
0.0
  0
LINE
  5
2CD
330
1F
100
AcDbEntity
  8
D-STR-STR5
  6
Continuous
 62
    83
370
     9
100
AcDbLine
 10
141.52819382
 20
151.43178804
 30
0.0
 11
141.81237182
 21
151.16790804
 31
0.0
  0
LINE
  5
2CE
330
1F
100
AcDbEntity
  8
D-STR-STR5
  6
Continuous
 62
    83
370
     9
100
AcDbLine
 10
141.81237182
 20
151.16790804
 30
0.0
 11
141.71764582
 21
150.64014804
 31
0.0
  0
LINE
  5
2CF
330
1F
100
AcDbEntity
  8
D-STR-STR5
  6
Continuous
 62
    83
370
     9
100
AcDbLine
 10
141.71764582
 20
150.64014804
 30
0.0
 11
141.37933782
 21
150.70104204
 31
0.0
  0
LINE
  5
2D0
330
1F
100
AcDbEntity
  8
D-STR-STR5
  6
Continuous
 62
    83
370
     9
100
AcDbLine
 10
141.37933782
 20
150.70104204
 30
0.0
 11
141.32520782
 21
151.22880204
 31
0.0
  0
LINE
  5
2D1
330
1F
100
AcDbEntity
  8
D-STR-STR5
  6
Continuous
 62
    83
370
     9
100
AcDbLine
 10
143.29079382
 20
151.04013804
 30
0.0
 11
143.41868582
 21
151.28202204
 31
0.0
  0
LINE
  5
2D2
330
1F
100
AcDbEntity
  8
D-STR-STR5
  6
Continuous
 62
    83
370
     9
100
AcDbLine
 10
143.41868582
 20
151.28202204
 30
0.0
 11
143.59106382
 21
151.21529604
 31
0.0
  0
LINE
  5
2D3
330
1F
100
AcDbEntity
  8
D-STR-STR5
  6
Continuous
 62
    83
370
     9
100
AcDbLine
 10
143.59106382
 20
151.21529604
 30
0.0
 11
143.59106382
 21
150.87332304
 31
0.0
  0
LINE
  5
2D4
330
1F
100
AcDbEntity
  8
D-STR-STR5
  6
Continuous
 62
    83
370
     9
100
AcDbLine
 10
143.59106382
 20
150.87332304
 30
0.0
 11
143.36864182
 21
150.78991404
 31
0.0
  0
LINE
  5
2D5
330
1F
100
AcDbEntity
  8
D-STR-STR5
  6
Continuous
 62
    83
370
     9
100
AcDbLine
 10
143.36864182
 20
150.78991404
 30
0.0
 11
143.29079382
 21
151.04013804
 31
0.0
  0
LINE
  5
2D6
330
1F
100
AcDbEntity
  8
D-STR-STR5
  6
Continuous
 62
    83
370
     9
100
AcDbLine
 10
142.29436182
 20
156.27731304
 30
0.0
 11
142.21436182
 21
156.15731304
 31
0.0
  0
LINE
  5
2D7
330
1F
100
AcDbEntity
  8
D-STR-STR5
  6
Continuous
 62
    83
370
     9
100
AcDbLine
 10
143.74461182
 20
156.63328404
 30
0.0
 11
143.66461182
 21
156.51328404
 31
0.0
  0
LINE
  5
2D8
330
1F
100
AcDbEntity
  8
D-STR-STR5
  6
Continuous
 62
    83
370
     9
100
AcDbLine
 10
140.71227182
 20
150.54223704
 30
0.0
 11
140.63227182
 21
150.42223704
 31
0.0
  0
LINE
  5
2D9
330
1F
100
AcDbEntity
  8
D-STR-STR5
  6
Continuous
 62
    83
370
     9
100
AcDbLine
 10
140.81774382
 20
156.11910204
 30
0.0
 11
140.73774382
 21
155.99910204
 31
0.0
  0
LINE
  5
2DA
330
1F
100
AcDbEntity
  8
D-STR-STR5
  6
Continuous
 62
    83
370
     9
100
AcDbLine
 10
142.34709782
 20
153.82507404
 30
0.0
 11
142.26709782
 21
153.70507404
 31
0.0
  0
LINE
  5
2DB
330
1F
100
AcDbEntity
  8
D-STR-STR5
  6
Continuous
 62
    83
370
     9
100
AcDbLine
 10
143.48092782
 20
152.95492404
 30
0.0
 11
143.40092782
 21
152.83492404
 31
0.0
  0
LINE
  5
2DC
330
1F
100
AcDbEntity
  8
D-STR-STR5
  6
Continuous
 62
    83
370
     9
100
AcDbLine
 10
140.81774382
 20
152.79671604
 30
0.0
 11
140.73774382
 21
152.67671604
 31
0.0
  0
LINE
  5
2DD
330
1F
100
AcDbEntity
  8
D-STR-STR5
  6
Continuous
 62
    83
370
     9
100
AcDbLine
 10
142.61077982
 20
151.80791004
 30
0.0
 11
142.53077982
 21
151.68791004
 31
0.0
  0
LINE
  5
2DE
330
1F
100
AcDbEntity
  8
D-STR-STR5
  6
Continuous
 62
    83
370
     9
100
AcDbLine
 10
141.55605182
 20
149.39522304
 30
0.0
 11
141.47605182
 21
149.27522304
 31
0.0
  0
LINE
  5
2DF
330
1F
100
AcDbEntity
  8
D-STR-STR5
  6
Continuous
 62
    83
370
     9
100
AcDbLine
 10
143.03266982
 20
149.39522304
 30
0.0
 11
142.95266982
 21
149.27522304
 31
0.0
  0
LINE
  5
2E0
330
1F
100
AcDbEntity
  8
D-STR-STR5
  6
Continuous
 62
    83
370
     9
100
AcDbLine
 10
135.35730732
 20
150.55039554
 30
0.0
 11
135.15432132
 21
150.34740954
 31
0.0
  0
LINE
  5
2E1
330
1F
100
AcDbEntity
  8
D-STR-STR5
  6
Continuous
 62
    83
370
     9
100
AcDbLine
 10
135.15432132
 20
150.34740954
 30
0.0
 11
134.87014332
 21
150.61128954
 31
0.0
  0
LINE
  5
2E2
330
1F
100
AcDbEntity
  8
D-STR-STR5
  6
Continuous
 62
    83
370
     9
100
AcDbLine
 10
134.87014332
 20
150.61128954
 30
0.0
 11
134.96486932
 21
151.13904954
 31
0.0
  0
LINE
  5
2E3
330
1F
100
AcDbEntity
  8
D-STR-STR5
  6
Continuous
 62
    83
370
     9
100
AcDbLine
 10
134.96486932
 20
151.13904954
 30
0.0
 11
135.30317732
 21
151.07815554
 31
0.0
  0
LINE
  5
2E4
330
1F
100
AcDbEntity
  8
D-STR-STR5
  6
Continuous
 62
    83
370
     9
100
AcDbLine
 10
135.30317732
 20
151.07815554
 30
0.0
 11
135.35730732
 21
150.55039554
 31
0.0
  0
LINE
  5
2E5
330
1F
100
AcDbEntity
  8
D-STR-STR5
  6
Continuous
 62
    83
370
     9
100
AcDbLine
 10
137.26784132
 20
151.37189754
 30
0.0
 11
137.13994932
 21
151.13001354
 31
0.0
  0
LINE
  5
2E6
330
1F
100
AcDbEntity
  8
D-STR-STR5
  6
Continuous
 62
    83
370
     9
100
AcDbLine
 10
137.13994932
 20
151.13001354
 30
0.0
 11
136.96757132
 21
151.19673954
 31
0.0
  0
LINE
  5
2E7
330
1F
100
AcDbEntity
  8
D-STR-STR5
  6
Continuous
 62
    83
370
     9
100
AcDbLine
 10
136.96757132
 20
151.19673954
 30
0.0
 11
136.96757132
 21
151.53871254
 31
0.0
  0
LINE
  5
2E8
330
1F
100
AcDbEntity
  8
D-STR-STR5
  6
Continuous
 62
    83
370
     9
100
AcDbLine
 10
136.96757132
 20
151.53871254
 30
0.0
 11
137.18999332
 21
151.62212154
 31
0.0
  0
LINE
  5
2E9
330
1F
100
AcDbEntity
  8
D-STR-STR5
  6
Continuous
 62
    83
370
     9
100
AcDbLine
 10
137.18999332
 20
151.62212154
 30
0.0
 11
137.26784132
 21
151.37189754
 31
0.0
  0
LINE
  5
2EA
330
1F
100
AcDbEntity
  8
D-STR-STR5
  6
Continuous
 62
    83
370
     9
100
AcDbLine
 10
137.04486932
 20
154.74293454
 30
0.0
 11
136.84188332
 21
154.53994854
 31
0.0
  0
LINE
  5
2EB
330
1F
100
AcDbEntity
  8
D-STR-STR5
  6
Continuous
 62
    83
370
     9
100
AcDbLine
 10
136.84188332
 20
154.53994854
 30
0.0
 11
136.55770532
 21
154.80382854
 31
0.0
  0
LINE
  5
2EC
330
1F
100
AcDbEntity
  8
D-STR-STR5
  6
Continuous
 62
    83
370
     9
100
AcDbLine
 10
136.55770532
 20
154.80382854
 30
0.0
 11
136.65243132
 21
155.33158854
 31
0.0
  0
LINE
  5
2ED
330
1F
100
AcDbEntity
  8
D-STR-STR5
  6
Continuous
 62
    83
370
     9
100
AcDbLine
 10
136.65243132
 20
155.33158854
 30
0.0
 11
136.99073932
 21
155.27069454
 31
0.0
  0
LINE
  5
2EE
330
1F
100
AcDbEntity
  8
D-STR-STR5
  6
Continuous
 62
    83
370
     9
100
AcDbLine
 10
136.99073932
 20
155.27069454
 30
0.0
 11
137.04486932
 21
154.74293454
 31
0.0
  0
LINE
  5
2EF
330
1F
100
AcDbEntity
  8
D-STR-STR5
  6
Continuous
 62
    83
370
     9
100
AcDbLine
 10
135.07928332
 20
154.93159854
 30
0.0
 11
134.95139132
 21
154.68971454
 31
0.0
  0
LINE
  5
2F0
330
1F
100
AcDbEntity
  8
D-STR-STR5
  6
Continuous
 62
    83
370
     9
100
AcDbLine
 10
134.95139132
 20
154.68971454
 30
0.0
 11
134.77901332
 21
154.75644054
 31
0.0
  0
LINE
  5
2F1
330
1F
100
AcDbEntity
  8
D-STR-STR5
  6
Continuous
 62
    83
370
     9
100
AcDbLine
 10
134.77901332
 20
154.75644054
 30
0.0
 11
134.77901332
 21
155.09841354
 31
0.0
  0
LINE
  5
2F2
330
1F
100
AcDbEntity
  8
D-STR-STR5
  6
Continuous
 62
    83
370
     9
100
AcDbLine
 10
134.77901332
 20
155.09841354
 30
0.0
 11
135.00143532
 21
155.18182254
 31
0.0
  0
LINE
  5
2F3
330
1F
100
AcDbEntity
  8
D-STR-STR5
  6
Continuous
 62
    83
370
     9
100
AcDbLine
 10
135.00143532
 20
155.18182254
 30
0.0
 11
135.07928332
 21
154.93159854
 31
0.0
  0
LINE
  5
2F4
330
1F
100
AcDbEntity
  8
D-STR-STR5
  6
Continuous
 62
    83
370
     9
100
AcDbLine
 10
136.07571532
 20
149.69442354
 30
0.0
 11
136.15571532
 21
149.81442354
 31
0.0
  0
LINE
  5
2F5
330
1F
100
AcDbEntity
  8
D-STR-STR5
  6
Continuous
 62
    83
370
     9
100
AcDbLine
 10
134.62546532
 20
149.33845254
 30
0.0
 11
134.70546532
 21
149.45845254
 31
0.0
  0
LINE
  5
2F6
330
1F
100
AcDbEntity
  8
D-STR-STR5
  6
Continuous
 62
    83
370
     9
100
AcDbLine
 10
137.65780532
 20
155.42949954
 30
0.0
 11
137.73780532
 21
155.54949954
 31
0.0
  0
LINE
  5
2F7
330
1F
100
AcDbEntity
  8
D-STR-STR5
  6
Continuous
 62
    83
370
     9
100
AcDbLine
 10
137.55233332
 20
149.85263454
 30
0.0
 11
137.63233332
 21
149.97263454
 31
0.0
  0
LINE
  5
2F8
330
1F
100
AcDbEntity
  8
D-STR-STR5
  6
Continuous
 62
    83
370
     9
100
AcDbLine
 10
136.02297932
 20
152.14666254
 30
0.0
 11
136.10297932
 21
152.26666254
 31
0.0
  0
LINE
  5
2F9
330
1F
100
AcDbEntity
  8
D-STR-STR5
  6
Continuous
 62
    83
370
     9
100
AcDbLine
 10
134.88914932
 20
153.01681254
 30
0.0
 11
134.96914932
 21
153.13681254
 31
0.0
  0
LINE
  5
2FA
330
1F
100
AcDbEntity
  8
D-STR-STR5
  6
Continuous
 62
    83
370
     9
100
AcDbLine
 10
137.55233332
 20
153.17502054
 30
0.0
 11
137.63233332
 21
153.29502054
 31
0.0
  0
LINE
  5
2FB
330
1F
100
AcDbEntity
  8
D-STR-STR5
  6
Continuous
 62
    83
370
     9
100
AcDbLine
 10
135.75929732
 20
154.16382654
 30
0.0
 11
135.83929732
 21
154.28382654
 31
0.0
  0
LINE
  5
2FC
330
1F
100
AcDbEntity
  8
D-STR-STR5
  6
Continuous
 62
    83
370
     9
100
AcDbLine
 10
136.81402532
 20
156.57651354
 30
0.0
 11
136.89402532
 21
156.69651354
 31
0.0
  0
LINE
  5
2FD
330
1F
100
AcDbEntity
  8
D-STR-STR5
  6
Continuous
 62
    83
370
     9
100
AcDbLine
 10
135.33740732
 20
156.57651354
 30
0.0
 11
135.41740732
 21
156.69651354
 31
0.0
  0
LINE
  5
2FE
330
1F
100
AcDbEntity
  8
D-STR-STR5
  6
Continuous
 62
    83
370
     9
100
AcDbLine
 10
193.77395882
 20
148.19562354
 30
0.0
 11
193.42295882
 21
148.03962354
 31
0.0
  0
LINE
  5
2FF
330
1F
100
AcDbEntity
  8
D-STR-STR5
  6
Continuous
 62
    83
370
     9
100
AcDbLine
 10
193.42295882
 20
148.03962354
 30
0.0
 11
193.26695882
 21
147.49362354
 31
0.0
  0
LINE
  5
300
330
1F
100
AcDbEntity
  8
D-STR-STR5
  6
Continuous
 62
    83
370
     9
100
AcDbLine
 10
193.26695882
 20
147.49362354
 30
0.0
 11
193.26695882
 21
147.10362354
 31
0.0
  0
LINE
  5
301
330
1F
100
AcDbEntity
  8
D-STR-STR5
  6
Continuous
 62
    83
370
     9
100
AcDbLine
 10
193.26695882
 20
147.10362354
 30
0.0
 11
193.73495882
 21
146.71362354
 31
0.0
  0
LINE
  5
302
330
1F
100
AcDbEntity
  8
D-STR-STR5
  6
Continuous
 62
    83
370
     9
100
AcDbLine
 10
193.73495882
 20
146.71362354
 30
0.0
 11
194.24195882
 21
146.67462354
 31
0.0
  0
LINE
  5
303
330
1F
100
AcDbEntity
  8
D-STR-STR5
  6
Continuous
 62
    83
370
     9
100
AcDbLine
 10
194.24195882
 20
146.67462354
 30
0.0
 11
194.51495882
 21
147.06462354
 31
0.0
  0
LINE
  5
304
330
1F
100
AcDbEntity
  8
D-STR-STR5
  6
Continuous
 62
    83
370
     9
100
AcDbLine
 10
194.51495882
 20
147.06462354
 30
0.0
 11
194.24195882
 21
147.72762354
 31
0.0
  0
LINE
  5
305
330
1F
100
AcDbEntity
  8
D-STR-STR5
  6
Continuous
 62
    83
370
     9
100
AcDbLine
 10
194.24195882
 20
147.72762354
 30
0.0
 11
193.77395882
 21
148.19562354
 31
0.0
  0
LINE
  5
306
330
1F
100
AcDbEntity
  8
D-STR-STR5
  6
Continuous
 62
    83
370
     9
100
AcDbLine
 10
195.77875682
 20
148.61295054
 30
0.0
 11
195.23275682
 21
148.53495054
 31
0.0
  0
LINE
  5
307
330
1F
100
AcDbEntity
  8
D-STR-STR5
  6
Continuous
 62
    83
370
     9
100
AcDbLine
 10
195.23275682
 20
148.53495054
 30
0.0
 11
194.72575684
 21
147.94995054
 31
0.0
  0
LINE
  5
308
330
1F
100
AcDbEntity
  8
D-STR-STR5
  6
Continuous
 62
    83
370
     9
100
AcDbLine
 10
194.72575684
 20
147.94995054
 30
0.0
 11
194.49175684
 21
147.28695054
 31
0.0
  0
LINE
  5
309
330
1F
100
AcDbEntity
  8
D-STR-STR5
  6
Continuous
 62
    83
370
     9
100
AcDbLine
 10
194.49175684
 20
147.28695054
 30
0.0
 11
194.60875684
 21
146.81895054
 31
0.0
  0
LINE
  5
30A
330
1F
100
AcDbEntity
  8
D-STR-STR5
  6
Continuous
 62
    83
370
     9
100
AcDbLine
 10
194.60875684
 20
146.81895054
 30
0.0
 11
194.99875682
 21
146.66295054
 31
0.0
  0
LINE
  5
30B
330
1F
100
AcDbEntity
  8
D-STR-STR5
  6
Continuous
 62
    83
370
     9
100
AcDbLine
 10
194.99875682
 20
146.66295054
 30
0.0
 11
195.58375682
 21
146.81895054
 31
0.0
  0
LINE
  5
30C
330
1F
100
AcDbEntity
  8
D-STR-STR5
  6
Continuous
 62
    83
370
     9
100
AcDbLine
 10
195.58375682
 20
146.81895054
 30
0.0
 11
196.01275682
 21
147.44295054
 31
0.0
  0
LINE
  5
30D
330
1F
100
AcDbEntity
  8
D-STR-STR5
  6
Continuous
 62
    83
370
     9
100
AcDbLine
 10
196.01275682
 20
147.44295054
 30
0.0
 11
196.12975682
 21
148.18395054
 31
0.0
  0
LINE
  5
30E
330
1F
100
AcDbEntity
  8
D-STR-STR5
  6
Continuous
 62
    83
370
     9
100
AcDbLine
 10
196.12975682
 20
148.18395054
 30
0.0
 11
195.77875682
 21
148.61295054
 31
0.0
  0
LINE
  5
30F
330
1F
100
AcDbEntity
  8
D-STR-STR5
  6
Continuous
 62
    83
370
     9
100
AcDbLine
 10
196.89726428
 20
147.9916336
 30
0.0
 11
196.94955174
 21
148.20840772
 31
0.0
  0
LINE
  5
310
330
1F
100
AcDbEntity
  8
D-STR-STR5
  6
Continuous
 62
    83
370
     9
100
AcDbLine
 10
196.94955174
 20
148.20840772
 30
0.0
 11
196.86396916
 21
148.49476522
 31
0.0
  0
LINE
  5
311
330
1F
100
AcDbEntity
  8
D-STR-STR5
  6
Continuous
 62
    83
370
     9
100
AcDbLine
 10
196.86396916
 20
148.49476522
 30
0.0
 11
196.60906408
 21
148.62994438
 31
0.0
  0
LINE
  5
312
330
1F
100
AcDbEntity
  8
D-STR-STR5
  6
Continuous
 62
    83
370
     9
100
AcDbLine
 10
196.60906408
 20
148.62994438
 30
0.0
 11
196.34887468
 21
148.39896498
 31
0.0
  0
LINE
  5
313
330
1F
100
AcDbEntity
  8
D-STR-STR5
  6
Continuous
 62
    83
370
     9
100
AcDbLine
 10
196.34887468
 20
148.39896498
 30
0.0
 11
196.13125234
 21
148.05184756
 31
0.0
  0
LINE
  5
314
330
1F
100
AcDbEntity
  8
D-STR-STR5
  6
Continuous
 62
    83
370
     9
100
AcDbLine
 10
196.13125234
 20
148.05184756
 30
0.0
 11
196.23014322
 21
147.66575094
 31
0.0
  0
LINE
  5
315
330
1F
100
AcDbEntity
  8
D-STR-STR5
  6
Continuous
 62
    83
370
     9
100
AcDbLine
 10
196.23014322
 20
147.66575094
 30
0.0
 11
196.50498638
 21
147.634747
 31
0.0
  0
LINE
  5
316
330
1F
100
AcDbEntity
  8
D-STR-STR5
  6
Continuous
 62
    83
370
     9
100
AcDbLine
 10
196.50498638
 20
147.634747
 30
0.0
 11
196.89726428
 21
147.9916336
 31
0.0
  0
LINE
  5
317
330
1F
100
AcDbEntity
  8
D-STR-STR5
  6
Continuous
 62
    83
370
     9
100
AcDbLine
 10
194.46559908
 20
148.52521332
 30
0.0
 11
194.26026056
 21
148.61216788
 31
0.0
  0
LINE
  5
318
330
1F
100
AcDbEntity
  8
D-STR-STR5
  6
Continuous
 62
    83
370
     9
100
AcDbLine
 10
194.26026056
 20
148.61216788
 30
0.0
 11
193.9637769
 21
148.57445264
 31
0.0
  0
LINE
  5
319
330
1F
100
AcDbEntity
  8
D-STR-STR5
  6
Continuous
 62
    83
370
     9
100
AcDbLine
 10
193.9637769
 20
148.57445264
 30
0.0
 11
193.78882012
 21
148.3450183
 31
0.0
  0
LINE
  5
31A
330
1F
100
AcDbEntity
  8
D-STR-STR5
  6
Continuous
 62
    83
370
     9
100
AcDbLine
 10
193.78882012
 20
148.3450183
 30
0.0
 11
193.97425336
 21
148.05062992
 31
0.0
  0
LINE
  5
31B
330
1F
100
AcDbEntity
  8
D-STR-STR5
  6
Continuous
 62
    83
370
     9
100
AcDbLine
 10
193.97425336
 20
148.05062992
 30
0.0
 11
194.28121348
 21
147.77928976
 31
0.0
  0
LINE
  5
31C
330
1F
100
AcDbEntity
  8
D-STR-STR5
  6
Continuous
 62
    83
370
     9
100
AcDbLine
 10
194.28121348
 20
147.77928976
 30
0.0
 11
194.6782711
 21
147.81386206
 31
0.0
  0
LINE
  5
31D
330
1F
100
AcDbEntity
  8
D-STR-STR5
  6
Continuous
 62
    83
370
     9
100
AcDbLine
 10
194.6782711
 20
147.81386206
 30
0.0
 11
194.75370158
 21
148.079964
 31
0.0
  0
LINE
  5
31E
330
1F
100
AcDbEntity
  8
D-STR-STR5
  6
Continuous
 62
    83
370
     9
100
AcDbLine
 10
194.75370158
 20
148.079964
 30
0.0
 11
194.46559908
 21
148.52521332
 31
0.0
  0
LINE
  5
31F
330
1F
100
AcDbEntity
  8
D-STR-STR5
  6
Continuous
 62
    83
370
     9
100
AcDbLine
 10
197.76090016
 20
147.79186412
 30
0.0
 11
197.5308527
 21
148.02893618
 31
0.0
  0
LINE
  5
320
330
1F
100
AcDbEntity
  8
D-STR-STR5
  6
Continuous
 62
    83
370
     9
100
AcDbLine
 10
197.5308527
 20
148.02893618
 30
0.0
 11
197.21151256
 21
148.06167564
 31
0.0
  0
LINE
  5
321
330
1F
100
AcDbEntity
  8
D-STR-STR5
  6
Continuous
 62
    83
370
     9
100
AcDbLine
 10
197.21151256
 20
148.06167564
 30
0.0
 11
196.66860226
 21
147.7692745
 31
0.0
  0
LINE
  5
322
330
1F
100
AcDbEntity
  8
D-STR-STR5
  6
Continuous
 62
    83
370
     9
100
AcDbLine
 10
196.66860226
 20
147.7692745
 30
0.0
 11
196.45724506
 21
147.39144766
 31
0.0
  0
LINE
  5
323
330
1F
100
AcDbEntity
  8
D-STR-STR5
  6
Continuous
 62
    83
370
     9
100
AcDbLine
 10
196.45724506
 20
147.39144766
 30
0.0
 11
196.41551514
 21
147.01877674
 31
0.0
  0
LINE
  5
324
330
1F
100
AcDbEntity
  8
D-STR-STR5
  6
Continuous
 62
    83
370
     9
100
AcDbLine
 10
196.41551514
 20
147.01877674
 30
0.0
 11
196.6166577
 21
146.68532258
 31
0.0
  0
LINE
  5
325
330
1F
100
AcDbEntity
  8
D-STR-STR5
  6
Continuous
 62
    83
370
     9
100
AcDbLine
 10
196.6166577
 20
146.68532258
 30
0.0
 11
197.06321832
 21
146.6564501
 31
0.0
  0
LINE
  5
326
330
1F
100
AcDbEntity
  8
D-STR-STR5
  6
Continuous
 62
    83
370
     9
100
AcDbLine
 10
197.06321832
 20
146.6564501
 30
0.0
 11
197.55215334
 21
146.9790451
 31
0.0
  0
LINE
  5
327
330
1F
100
AcDbEntity
  8
D-STR-STR5
  6
Continuous
 62
    83
370
     9
100
AcDbLine
 10
197.55215334
 20
146.9790451
 30
0.0
 11
197.780847
 21
147.48473692
 31
0.0
  0
LINE
  5
328
330
1F
100
AcDbEntity
  8
D-STR-STR5
  6
Continuous
 62
    83
370
     9
100
AcDbLine
 10
197.780847
 20
147.48473692
 30
0.0
 11
197.76090016
 21
147.79186412
 31
0.0
  0
LINE
  5
329
330
1F
100
AcDbEntity
  8
D-STR-STR5
  6
Continuous
 62
    83
370
     9
100
AcDbLine
 10
196.38185418
 20
146.98110538
 30
0.0
 11
196.40931982
 21
147.15737118
 31
0.0
  0
LINE
  5
32A
330
1F
100
AcDbEntity
  8
D-STR-STR5
  6
Continuous
 62
    83
370
     9
100
AcDbLine
 10
196.40931982
 20
147.15737118
 30
0.0
 11
196.3222954
 21
147.38006998
 31
0.0
  0
LINE
  5
32B
330
1F
100
AcDbEntity
  8
D-STR-STR5
  6
Continuous
 62
    83
370
     9
100
AcDbLine
 10
196.3222954
 20
147.38006998
 30
0.0
 11
196.11018876
 21
147.47112364
 31
0.0
  0
LINE
  5
32C
330
1F
100
AcDbEntity
  8
D-STR-STR5
  6
Continuous
 62
    83
370
     9
100
AcDbLine
 10
196.11018876
 20
147.47112364
 30
0.0
 11
195.91789398
 21
147.26989064
 31
0.0
  0
LINE
  5
32D
330
1F
100
AcDbEntity
  8
D-STR-STR5
  6
Continuous
 62
    83
370
     9
100
AcDbLine
 10
195.91789398
 20
147.26989064
 30
0.0
 11
195.76715838
 21
146.97885322
 31
0.0
  0
LINE
  5
32E
330
1F
100
AcDbEntity
  8
D-STR-STR5
  6
Continuous
 62
    83
370
     9
100
AcDbLine
 10
195.76715838
 20
146.97885322
 30
0.0
 11
195.87133784
 21
146.67750518
 31
0.0
  0
LINE
  5
32F
330
1F
100
AcDbEntity
  8
D-STR-STR5
  6
Continuous
 62
    83
370
     9
100
AcDbLine
 10
195.87133784
 20
146.67750518
 30
0.0
 11
196.09250586
 21
146.67081912
 31
0.0
  0
LINE
  5
330
330
1F
100
AcDbEntity
  8
D-STR-STR5
  6
Continuous
 62
    83
370
     9
100
AcDbLine
 10
196.09250586
 20
146.67081912
 30
0.0
 11
196.38185418
 21
146.98110538
 31
0.0
  0
LINE
  5
331
330
1F
100
AcDbEntity
  8
D-STR-STR5
  6
Continuous
 62
    83
370
     9
100
AcDbLine
 10
201.22264232
 20
148.20230304
 30
0.0
 11
200.87164232
 21
148.04630304
 31
0.0
  0
LINE
  5
332
330
1F
100
AcDbEntity
  8
D-STR-STR5
  6
Continuous
 62
    83
370
     9
100
AcDbLine
 10
200.87164232
 20
148.04630304
 30
0.0
 11
200.71564232
 21
147.50030304
 31
0.0
  0
LINE
  5
333
330
1F
100
AcDbEntity
  8
D-STR-STR5
  6
Continuous
 62
    83
370
     9
100
AcDbLine
 10
200.71564232
 20
147.50030304
 30
0.0
 11
200.71564232
 21
147.11030304
 31
0.0
  0
LINE
  5
334
330
1F
100
AcDbEntity
  8
D-STR-STR5
  6
Continuous
 62
    83
370
     9
100
AcDbLine
 10
200.71564232
 20
147.11030304
 30
0.0
 11
201.18364232
 21
146.72030304
 31
0.0
  0
LINE
  5
335
330
1F
100
AcDbEntity
  8
D-STR-STR5
  6
Continuous
 62
    83
370
     9
100
AcDbLine
 10
201.18364232
 20
146.72030304
 30
0.0
 11
201.69064232
 21
146.68130304
 31
0.0
  0
LINE
  5
336
330
1F
100
AcDbEntity
  8
D-STR-STR5
  6
Continuous
 62
    83
370
     9
100
AcDbLine
 10
201.69064232
 20
146.68130304
 30
0.0
 11
201.96364232
 21
147.07130304
 31
0.0
  0
LINE
  5
337
330
1F
100
AcDbEntity
  8
D-STR-STR5
  6
Continuous
 62
    83
370
     9
100
AcDbLine
 10
201.96364232
 20
147.07130304
 30
0.0
 11
201.69064232
 21
147.73430304
 31
0.0
  0
LINE
  5
338
330
1F
100
AcDbEntity
  8
D-STR-STR5
  6
Continuous
 62
    83
370
     9
100
AcDbLine
 10
201.69064232
 20
147.73430304
 30
0.0
 11
201.22264232
 21
148.20230304
 31
0.0
  0
LINE
  5
339
330
1F
100
AcDbEntity
  8
D-STR-STR5
  6
Continuous
 62
    83
370
     9
100
AcDbLine
 10
203.22744032
 20
148.61963004
 30
0.0
 11
202.68144032
 21
148.54163004
 31
0.0
  0
LINE
  5
33A
330
1F
100
AcDbEntity
  8
D-STR-STR5
  6
Continuous
 62
    83
370
     9
100
AcDbLine
 10
202.68144032
 20
148.54163004
 30
0.0
 11
202.17444034
 21
147.95663004
 31
0.0
  0
LINE
  5
33B
330
1F
100
AcDbEntity
  8
D-STR-STR5
  6
Continuous
 62
    83
370
     9
100
AcDbLine
 10
202.17444034
 20
147.95663004
 30
0.0
 11
201.94044034
 21
147.29363004
 31
0.0
  0
LINE
  5
33C
330
1F
100
AcDbEntity
  8
D-STR-STR5
  6
Continuous
 62
    83
370
     9
100
AcDbLine
 10
201.94044034
 20
147.29363004
 30
0.0
 11
202.05744034
 21
146.82563004
 31
0.0
  0
LINE
  5
33D
330
1F
100
AcDbEntity
  8
D-STR-STR5
  6
Continuous
 62
    83
370
     9
100
AcDbLine
 10
202.05744034
 20
146.82563004
 30
0.0
 11
202.44744032
 21
146.66963004
 31
0.0
  0
LINE
  5
33E
330
1F
100
AcDbEntity
  8
D-STR-STR5
  6
Continuous
 62
    83
370
     9
100
AcDbLine
 10
202.44744032
 20
146.66963004
 30
0.0
 11
203.03244032
 21
146.82563004
 31
0.0
  0
LINE
  5
33F
330
1F
100
AcDbEntity
  8
D-STR-STR5
  6
Continuous
 62
    83
370
     9
100
AcDbLine
 10
203.03244032
 20
146.82563004
 30
0.0
 11
203.46144032
 21
147.44963004
 31
0.0
  0
LINE
  5
340
330
1F
100
AcDbEntity
  8
D-STR-STR5
  6
Continuous
 62
    83
370
     9
100
AcDbLine
 10
203.46144032
 20
147.44963004
 30
0.0
 11
203.57844032
 21
148.19063004
 31
0.0
  0
LINE
  5
341
330
1F
100
AcDbEntity
  8
D-STR-STR5
  6
Continuous
 62
    83
370
     9
100
AcDbLine
 10
203.57844032
 20
148.19063004
 30
0.0
 11
203.22744032
 21
148.61963004
 31
0.0
  0
LINE
  5
342
330
1F
100
AcDbEntity
  8
D-STR-STR5
  6
Continuous
 62
    83
370
     9
100
AcDbLine
 10
204.34594778
 20
147.9983131
 30
0.0
 11
204.39823524
 21
148.21508722
 31
0.0
  0
LINE
  5
343
330
1F
100
AcDbEntity
  8
D-STR-STR5
  6
Continuous
 62
    83
370
     9
100
AcDbLine
 10
204.39823524
 20
148.21508722
 30
0.0
 11
204.31265266
 21
148.50144472
 31
0.0
  0
LINE
  5
344
330
1F
100
AcDbEntity
  8
D-STR-STR5
  6
Continuous
 62
    83
370
     9
100
AcDbLine
 10
204.31265266
 20
148.50144472
 30
0.0
 11
204.05774758
 21
148.63662388
 31
0.0
  0
LINE
  5
345
330
1F
100
AcDbEntity
  8
D-STR-STR5
  6
Continuous
 62
    83
370
     9
100
AcDbLine
 10
204.05774758
 20
148.63662388
 30
0.0
 11
203.79755818
 21
148.40564448
 31
0.0
  0
LINE
  5
346
330
1F
100
AcDbEntity
  8
D-STR-STR5
  6
Continuous
 62
    83
370
     9
100
AcDbLine
 10
203.79755818
 20
148.40564448
 30
0.0
 11
203.57993584
 21
148.05852706
 31
0.0
  0
LINE
  5
347
330
1F
100
AcDbEntity
  8
D-STR-STR5
  6
Continuous
 62
    83
370
     9
100
AcDbLine
 10
203.57993584
 20
148.05852706
 30
0.0
 11
203.67882672
 21
147.67243044
 31
0.0
  0
LINE
  5
348
330
1F
100
AcDbEntity
  8
D-STR-STR5
  6
Continuous
 62
    83
370
     9
100
AcDbLine
 10
203.67882672
 20
147.67243044
 30
0.0
 11
203.95366988
 21
147.6414265
 31
0.0
  0
LINE
  5
349
330
1F
100
AcDbEntity
  8
D-STR-STR5
  6
Continuous
 62
    83
370
     9
100
AcDbLine
 10
203.95366988
 20
147.6414265
 30
0.0
 11
204.34594778
 21
147.9983131
 31
0.0
  0
LINE
  5
34A
330
1F
100
AcDbEntity
  8
D-STR-STR5
  6
Continuous
 62
    83
370
     9
100
AcDbLine
 10
201.91428258
 20
148.53189282
 30
0.0
 11
201.70894406
 21
148.61884738
 31
0.0
  0
LINE
  5
34B
330
1F
100
AcDbEntity
  8
D-STR-STR5
  6
Continuous
 62
    83
370
     9
100
AcDbLine
 10
201.70894406
 20
148.61884738
 30
0.0
 11
201.4124604
 21
148.58113214
 31
0.0
  0
LINE
  5
34C
330
1F
100
AcDbEntity
  8
D-STR-STR5
  6
Continuous
 62
    83
370
     9
100
AcDbLine
 10
201.4124604
 20
148.58113214
 30
0.0
 11
201.23750362
 21
148.3516978
 31
0.0
  0
LINE
  5
34D
330
1F
100
AcDbEntity
  8
D-STR-STR5
  6
Continuous
 62
    83
370
     9
100
AcDbLine
 10
201.23750362
 20
148.3516978
 30
0.0
 11
201.42293686
 21
148.05730942
 31
0.0
  0
LINE
  5
34E
330
1F
100
AcDbEntity
  8
D-STR-STR5
  6
Continuous
 62
    83
370
     9
100
AcDbLine
 10
201.42293686
 20
148.05730942
 30
0.0
 11
201.72989698
 21
147.78596926
 31
0.0
  0
LINE
  5
34F
330
1F
100
AcDbEntity
  8
D-STR-STR5
  6
Continuous
 62
    83
370
     9
100
AcDbLine
 10
201.72989698
 20
147.78596926
 30
0.0
 11
202.1269546
 21
147.82054156
 31
0.0
  0
LINE
  5
350
330
1F
100
AcDbEntity
  8
D-STR-STR5
  6
Continuous
 62
    83
370
     9
100
AcDbLine
 10
202.1269546
 20
147.82054156
 30
0.0
 11
202.20238508
 21
148.0866435
 31
0.0
  0
LINE
  5
351
330
1F
100
AcDbEntity
  8
D-STR-STR5
  6
Continuous
 62
    83
370
     9
100
AcDbLine
 10
202.20238508
 20
148.0866435
 30
0.0
 11
201.91428258
 21
148.53189282
 31
0.0
  0
LINE
  5
352
330
1F
100
AcDbEntity
  8
D-STR-STR5
  6
Continuous
 62
    83
370
     9
100
AcDbLine
 10
205.20958366
 20
147.79854362
 30
0.0
 11
204.9795362
 21
148.03561568
 31
0.0
  0
LINE
  5
353
330
1F
100
AcDbEntity
  8
D-STR-STR5
  6
Continuous
 62
    83
370
     9
100
AcDbLine
 10
204.9795362
 20
148.03561568
 30
0.0
 11
204.66019606
 21
148.06835514
 31
0.0
  0
LINE
  5
354
330
1F
100
AcDbEntity
  8
D-STR-STR5
  6
Continuous
 62
    83
370
     9
100
AcDbLine
 10
204.66019606
 20
148.06835514
 30
0.0
 11
204.11728576
 21
147.775954
 31
0.0
  0
LINE
  5
355
330
1F
100
AcDbEntity
  8
D-STR-STR5
  6
Continuous
 62
    83
370
     9
100
AcDbLine
 10
204.11728576
 20
147.775954
 30
0.0
 11
203.90592856
 21
147.39812716
 31
0.0
  0
LINE
  5
356
330
1F
100
AcDbEntity
  8
D-STR-STR5
  6
Continuous
 62
    83
370
     9
100
AcDbLine
 10
203.90592856
 20
147.39812716
 30
0.0
 11
203.86419864
 21
147.02545624
 31
0.0
  0
LINE
  5
357
330
1F
100
AcDbEntity
  8
D-STR-STR5
  6
Continuous
 62
    83
370
     9
100
AcDbLine
 10
203.86419864
 20
147.02545624
 30
0.0
 11
204.0653412
 21
146.69200208
 31
0.0
  0
LINE
  5
358
330
1F
100
AcDbEntity
  8
D-STR-STR5
  6
Continuous
 62
    83
370
     9
100
AcDbLine
 10
204.0653412
 20
146.69200208
 30
0.0
 11
204.51190182
 21
146.6631296
 31
0.0
  0
LINE
  5
359
330
1F
100
AcDbEntity
  8
D-STR-STR5
  6
Continuous
 62
    83
370
     9
100
AcDbLine
 10
204.51190182
 20
146.6631296
 30
0.0
 11
205.00083684
 21
146.9857246
 31
0.0
  0
LINE
  5
35A
330
1F
100
AcDbEntity
  8
D-STR-STR5
  6
Continuous
 62
    83
370
     9
100
AcDbLine
 10
205.00083684
 20
146.9857246
 30
0.0
 11
205.2295305
 21
147.49141642
 31
0.0
  0
LINE
  5
35B
330
1F
100
AcDbEntity
  8
D-STR-STR5
  6
Continuous
 62
    83
370
     9
100
AcDbLine
 10
205.2295305
 20
147.49141642
 30
0.0
 11
205.20958366
 21
147.79854362
 31
0.0
  0
LINE
  5
35C
330
1F
100
AcDbEntity
  8
D-STR-STR5
  6
Continuous
 62
    83
370
     9
100
AcDbLine
 10
203.83053768
 20
146.98778488
 30
0.0
 11
203.85800332
 21
147.16405068
 31
0.0
  0
LINE
  5
35D
330
1F
100
AcDbEntity
  8
D-STR-STR5
  6
Continuous
 62
    83
370
     9
100
AcDbLine
 10
203.85800332
 20
147.16405068
 30
0.0
 11
203.7709789
 21
147.38674948
 31
0.0
  0
LINE
  5
35E
330
1F
100
AcDbEntity
  8
D-STR-STR5
  6
Continuous
 62
    83
370
     9
100
AcDbLine
 10
203.7709789
 20
147.38674948
 30
0.0
 11
203.55887226
 21
147.47780314
 31
0.0
  0
LINE
  5
35F
330
1F
100
AcDbEntity
  8
D-STR-STR5
  6
Continuous
 62
    83
370
     9
100
AcDbLine
 10
203.55887226
 20
147.47780314
 30
0.0
 11
203.36657748
 21
147.27657014
 31
0.0
  0
LINE
  5
360
330
1F
100
AcDbEntity
  8
D-STR-STR5
  6
Continuous
 62
    83
370
     9
100
AcDbLine
 10
203.36657748
 20
147.27657014
 30
0.0
 11
203.21584188
 21
146.98553272
 31
0.0
  0
LINE
  5
361
330
1F
100
AcDbEntity
  8
D-STR-STR5
  6
Continuous
 62
    83
370
     9
100
AcDbLine
 10
203.21584188
 20
146.98553272
 30
0.0
 11
203.32002134
 21
146.68418468
 31
0.0
  0
LINE
  5
362
330
1F
100
AcDbEntity
  8
D-STR-STR5
  6
Continuous
 62
    83
370
     9
100
AcDbLine
 10
203.32002134
 20
146.68418468
 30
0.0
 11
203.54118936
 21
146.67749862
 31
0.0
  0
LINE
  5
363
330
1F
100
AcDbEntity
  8
D-STR-STR5
  6
Continuous
 62
    83
370
     9
100
AcDbLine
 10
203.54118936
 20
146.67749862
 30
0.0
 11
203.83053768
 21
146.98778488
 31
0.0
  0
LINE
  5
364
330
1F
100
AcDbEntity
  8
D-STR-STR5
  6
Continuous
 62
    83
370
     9
100
AcDbLine
 10
203.04438382
 20
170.69127504
 30
0.0
 11
203.24736982
 21
170.89426104
 31
0.0
  0
LINE
  5
365
330
1F
100
AcDbEntity
  8
D-STR-STR5
  6
Continuous
 62
    83
370
     9
100
AcDbLine
 10
203.24736982
 20
170.89426104
 30
0.0
 11
203.53154782
 21
170.63038104
 31
0.0
  0
LINE
  5
366
330
1F
100
AcDbEntity
  8
D-STR-STR5
  6
Continuous
 62
    83
370
     9
100
AcDbLine
 10
203.53154782
 20
170.63038104
 30
0.0
 11
203.43682182
 21
170.10262104
 31
0.0
  0
LINE
  5
367
330
1F
100
AcDbEntity
  8
D-STR-STR5
  6
Continuous
 62
    83
370
     9
100
AcDbLine
 10
203.43682182
 20
170.10262104
 30
0.0
 11
203.09851382
 21
170.16351504
 31
0.0
  0
LINE
  5
368
330
1F
100
AcDbEntity
  8
D-STR-STR5
  6
Continuous
 62
    83
370
     9
100
AcDbLine
 10
203.09851382
 20
170.16351504
 30
0.0
 11
203.04438382
 21
170.69127504
 31
0.0
  0
LINE
  5
369
330
1F
100
AcDbEntity
  8
D-STR-STR5
  6
Continuous
 62
    83
370
     9
100
AcDbLine
 10
201.13384982
 20
169.86977304
 30
0.0
 11
201.26174182
 21
170.11165704
 31
0.0
  0
LINE
  5
36A
330
1F
100
AcDbEntity
  8
D-STR-STR5
  6
Continuous
 62
    83
370
     9
100
AcDbLine
 10
201.26174182
 20
170.11165704
 30
0.0
 11
201.43411982
 21
170.04493104
 31
0.0
  0
LINE
  5
36B
330
1F
100
AcDbEntity
  8
D-STR-STR5
  6
Continuous
 62
    83
370
     9
100
AcDbLine
 10
201.43411982
 20
170.04493104
 30
0.0
 11
201.43411982
 21
169.70295804
 31
0.0
  0
LINE
  5
36C
330
1F
100
AcDbEntity
  8
D-STR-STR5
  6
Continuous
 62
    83
370
     9
100
AcDbLine
 10
201.43411982
 20
169.70295804
 30
0.0
 11
201.21169782
 21
169.61954904
 31
0.0
  0
LINE
  5
36D
330
1F
100
AcDbEntity
  8
D-STR-STR5
  6
Continuous
 62
    83
370
     9
100
AcDbLine
 10
201.21169782
 20
169.61954904
 30
0.0
 11
201.13384982
 21
169.86977304
 31
0.0
  0
LINE
  5
36E
330
1F
100
AcDbEntity
  8
D-STR-STR5
  6
Continuous
 62
    83
370
     9
100
AcDbLine
 10
201.35682182
 20
166.49873604
 30
0.0
 11
201.55980782
 21
166.70172204
 31
0.0
  0
LINE
  5
36F
330
1F
100
AcDbEntity
  8
D-STR-STR5
  6
Continuous
 62
    83
370
     9
100
AcDbLine
 10
201.55980782
 20
166.70172204
 30
0.0
 11
201.84398582
 21
166.43784204
 31
0.0
  0
LINE
  5
370
330
1F
100
AcDbEntity
  8
D-STR-STR5
  6
Continuous
 62
    83
370
     9
100
AcDbLine
 10
201.84398582
 20
166.43784204
 30
0.0
 11
201.74925982
 21
165.91008204
 31
0.0
  0
LINE
  5
371
330
1F
100
AcDbEntity
  8
D-STR-STR5
  6
Continuous
 62
    83
370
     9
100
AcDbLine
 10
201.74925982
 20
165.91008204
 30
0.0
 11
201.41095182
 21
165.97097604
 31
0.0
  0
LINE
  5
372
330
1F
100
AcDbEntity
  8
D-STR-STR5
  6
Continuous
 62
    83
370
     9
100
AcDbLine
 10
201.41095182
 20
165.97097604
 30
0.0
 11
201.35682182
 21
166.49873604
 31
0.0
  0
LINE
  5
373
330
1F
100
AcDbEntity
  8
D-STR-STR5
  6
Continuous
 62
    83
370
     9
100
AcDbLine
 10
203.32240782
 20
166.31007204
 30
0.0
 11
203.45029982
 21
166.55195604
 31
0.0
  0
LINE
  5
374
330
1F
100
AcDbEntity
  8
D-STR-STR5
  6
Continuous
 62
    83
370
     9
100
AcDbLine
 10
203.45029982
 20
166.55195604
 30
0.0
 11
203.62267782
 21
166.48523004
 31
0.0
  0
LINE
  5
375
330
1F
100
AcDbEntity
  8
D-STR-STR5
  6
Continuous
 62
    83
370
     9
100
AcDbLine
 10
203.62267782
 20
166.48523004
 30
0.0
 11
203.62267782
 21
166.14325704
 31
0.0
  0
LINE
  5
376
330
1F
100
AcDbEntity
  8
D-STR-STR5
  6
Continuous
 62
    83
370
     9
100
AcDbLine
 10
203.62267782
 20
166.14325704
 30
0.0
 11
203.40025582
 21
166.05984804
 31
0.0
  0
LINE
  5
377
330
1F
100
AcDbEntity
  8
D-STR-STR5
  6
Continuous
 62
    83
370
     9
100
AcDbLine
 10
203.40025582
 20
166.05984804
 30
0.0
 11
203.32240782
 21
166.31007204
 31
0.0
  0
LINE
  5
378
330
1F
100
AcDbEntity
  8
D-STR-STR5
  6
Continuous
 62
    83
370
     9
100
AcDbLine
 10
202.32597582
 20
171.54724704
 30
0.0
 11
202.24597582
 21
171.42724704
 31
0.0
  0
LINE
  5
379
330
1F
100
AcDbEntity
  8
D-STR-STR5
  6
Continuous
 62
    83
370
     9
100
AcDbLine
 10
203.77622582
 20
171.90321804
 30
0.0
 11
203.69622582
 21
171.78321804
 31
0.0
  0
LINE
  5
37A
330
1F
100
AcDbEntity
  8
D-STR-STR5
  6
Continuous
 62
    83
370
     9
100
AcDbLine
 10
200.74388582
 20
165.81217104
 30
0.0
 11
200.66388582
 21
165.69217104
 31
0.0
  0
LINE
  5
37B
330
1F
100
AcDbEntity
  8
D-STR-STR5
  6
Continuous
 62
    83
370
     9
100
AcDbLine
 10
200.84935782
 20
171.38903604
 30
0.0
 11
200.76935782
 21
171.26903604
 31
0.0
  0
LINE
  5
37C
330
1F
100
AcDbEntity
  8
D-STR-STR5
  6
Continuous
 62
    83
370
     9
100
AcDbLine
 10
202.37871182
 20
169.09500804
 30
0.0
 11
202.29871182
 21
168.97500804
 31
0.0
  0
LINE
  5
37D
330
1F
100
AcDbEntity
  8
D-STR-STR5
  6
Continuous
 62
    83
370
     9
100
AcDbLine
 10
203.51254182
 20
168.22485804
 30
0.0
 11
203.43254182
 21
168.10485804
 31
0.0
  0
LINE
  5
37E
330
1F
100
AcDbEntity
  8
D-STR-STR5
  6
Continuous
 62
    83
370
     9
100
AcDbLine
 10
200.84935782
 20
168.06665004
 30
0.0
 11
200.76935782
 21
167.94665004
 31
0.0
  0
LINE
  5
37F
330
1F
100
AcDbEntity
  8
D-STR-STR5
  6
Continuous
 62
    83
370
     9
100
AcDbLine
 10
202.64239382
 20
167.07784404
 30
0.0
 11
202.56239382
 21
166.95784404
 31
0.0
  0
LINE
  5
380
330
1F
100
AcDbEntity
  8
D-STR-STR5
  6
Continuous
 62
    83
370
     9
100
AcDbLine
 10
201.58766582
 20
164.66515704
 30
0.0
 11
201.50766582
 21
164.54515704
 31
0.0
  0
LINE
  5
381
330
1F
100
AcDbEntity
  8
D-STR-STR5
  6
Continuous
 62
    83
370
     9
100
AcDbLine
 10
203.06428382
 20
164.66515704
 30
0.0
 11
202.98428382
 21
164.54515704
 31
0.0
  0
LINE
  5
382
330
1F
100
AcDbEntity
  8
D-STR-STR5
  6
Continuous
 62
    83
370
     9
100
AcDbLine
 10
195.38892132
 20
165.82032954
 30
0.0
 11
195.18593532
 21
165.61734354
 31
0.0
  0
LINE
  5
383
330
1F
100
AcDbEntity
  8
D-STR-STR5
  6
Continuous
 62
    83
370
     9
100
AcDbLine
 10
195.18593532
 20
165.61734354
 30
0.0
 11
194.90175732
 21
165.88122354
 31
0.0
  0
LINE
  5
384
330
1F
100
AcDbEntity
  8
D-STR-STR5
  6
Continuous
 62
    83
370
     9
100
AcDbLine
 10
194.90175732
 20
165.88122354
 30
0.0
 11
194.99648332
 21
166.40898354
 31
0.0
  0
LINE
  5
385
330
1F
100
AcDbEntity
  8
D-STR-STR5
  6
Continuous
 62
    83
370
     9
100
AcDbLine
 10
194.99648332
 20
166.40898354
 30
0.0
 11
195.33479132
 21
166.34808954
 31
0.0
  0
LINE
  5
386
330
1F
100
AcDbEntity
  8
D-STR-STR5
  6
Continuous
 62
    83
370
     9
100
AcDbLine
 10
195.33479132
 20
166.34808954
 30
0.0
 11
195.38892132
 21
165.82032954
 31
0.0
  0
LINE
  5
387
330
1F
100
AcDbEntity
  8
D-STR-STR5
  6
Continuous
 62
    83
370
     9
100
AcDbLine
 10
197.29945532
 20
166.64183154
 30
0.0
 11
197.17156332
 21
166.39994754
 31
0.0
  0
LINE
  5
388
330
1F
100
AcDbEntity
  8
D-STR-STR5
  6
Continuous
 62
    83
370
     9
100
AcDbLine
 10
197.17156332
 20
166.39994754
 30
0.0
 11
196.99918532
 21
166.46667354
 31
0.0
  0
LINE
  5
389
330
1F
100
AcDbEntity
  8
D-STR-STR5
  6
Continuous
 62
    83
370
     9
100
AcDbLine
 10
196.99918532
 20
166.46667354
 30
0.0
 11
196.99918532
 21
166.80864654
 31
0.0
  0
LINE
  5
38A
330
1F
100
AcDbEntity
  8
D-STR-STR5
  6
Continuous
 62
    83
370
     9
100
AcDbLine
 10
196.99918532
 20
166.80864654
 30
0.0
 11
197.22160732
 21
166.89205554
 31
0.0
  0
LINE
  5
38B
330
1F
100
AcDbEntity
  8
D-STR-STR5
  6
Continuous
 62
    83
370
     9
100
AcDbLine
 10
197.22160732
 20
166.89205554
 30
0.0
 11
197.29945532
 21
166.64183154
 31
0.0
  0
LINE
  5
38C
330
1F
100
AcDbEntity
  8
D-STR-STR5
  6
Continuous
 62
    83
370
     9
100
AcDbLine
 10
197.07648332
 20
170.01286854
 30
0.0
 11
196.87349732
 21
169.80988254
 31
0.0
  0
LINE
  5
38D
330
1F
100
AcDbEntity
  8
D-STR-STR5
  6
Continuous
 62
    83
370
     9
100
AcDbLine
 10
196.87349732
 20
169.80988254
 30
0.0
 11
196.58931932
 21
170.07376254
 31
0.0
  0
LINE
  5
38E
330
1F
100
AcDbEntity
  8
D-STR-STR5
  6
Continuous
 62
    83
370
     9
100
AcDbLine
 10
196.58931932
 20
170.07376254
 30
0.0
 11
196.68404532
 21
170.60152254
 31
0.0
  0
LINE
  5
38F
330
1F
100
AcDbEntity
  8
D-STR-STR5
  6
Continuous
 62
    83
370
     9
100
AcDbLine
 10
196.68404532
 20
170.60152254
 30
0.0
 11
197.02235332
 21
170.54062854
 31
0.0
  0
LINE
  5
390
330
1F
100
AcDbEntity
  8
D-STR-STR5
  6
Continuous
 62
    83
370
     9
100
AcDbLine
 10
197.02235332
 20
170.54062854
 30
0.0
 11
197.07648332
 21
170.01286854
 31
0.0
  0
LINE
  5
391
330
1F
100
AcDbEntity
  8
D-STR-STR5
  6
Continuous
 62
    83
370
     9
100
AcDbLine
 10
195.11089732
 20
170.20153254
 30
0.0
 11
194.98300532
 21
169.95964854
 31
0.0
  0
LINE
  5
392
330
1F
100
AcDbEntity
  8
D-STR-STR5
  6
Continuous
 62
    83
370
     9
100
AcDbLine
 10
194.98300532
 20
169.95964854
 30
0.0
 11
194.81062732
 21
170.02637454
 31
0.0
  0
LINE
  5
393
330
1F
100
AcDbEntity
  8
D-STR-STR5
  6
Continuous
 62
    83
370
     9
100
AcDbLine
 10
194.81062732
 20
170.02637454
 30
0.0
 11
194.81062732
 21
170.36834754
 31
0.0
  0
LINE
  5
394
330
1F
100
AcDbEntity
  8
D-STR-STR5
  6
Continuous
 62
    83
370
     9
100
AcDbLine
 10
194.81062732
 20
170.36834754
 30
0.0
 11
195.03304932
 21
170.45175654
 31
0.0
  0
LINE
  5
395
330
1F
100
AcDbEntity
  8
D-STR-STR5
  6
Continuous
 62
    83
370
     9
100
AcDbLine
 10
195.03304932
 20
170.45175654
 30
0.0
 11
195.11089732
 21
170.20153254
 31
0.0
  0
LINE
  5
396
330
1F
100
AcDbEntity
  8
D-STR-STR5
  6
Continuous
 62
    83
370
     9
100
AcDbLine
 10
196.10732932
 20
164.96435754
 30
0.0
 11
196.18732932
 21
165.08435754
 31
0.0
  0
LINE
  5
397
330
1F
100
AcDbEntity
  8
D-STR-STR5
  6
Continuous
 62
    83
370
     9
100
AcDbLine
 10
194.65707932
 20
164.60838654
 30
0.0
 11
194.73707932
 21
164.72838654
 31
0.0
  0
LINE
  5
398
330
1F
100
AcDbEntity
  8
D-STR-STR5
  6
Continuous
 62
    83
370
     9
100
AcDbLine
 10
197.68941932
 20
170.69943354
 30
0.0
 11
197.76941932
 21
170.81943354
 31
0.0
  0
LINE
  5
399
330
1F
100
AcDbEntity
  8
D-STR-STR5
  6
Continuous
 62
    83
370
     9
100
AcDbLine
 10
197.58394732
 20
165.12256854
 30
0.0
 11
197.66394732
 21
165.24256854
 31
0.0
  0
LINE
  5
39A
330
1F
100
AcDbEntity
  8
D-STR-STR5
  6
Continuous
 62
    83
370
     9
100
AcDbLine
 10
196.05459332
 20
167.41659654
 30
0.0
 11
196.13459332
 21
167.53659654
 31
0.0
  0
LINE
  5
39B
330
1F
100
AcDbEntity
  8
D-STR-STR5
  6
Continuous
 62
    83
370
     9
100
AcDbLine
 10
194.92076332
 20
168.28674654
 30
0.0
 11
195.00076332
 21
168.40674654
 31
0.0
  0
LINE
  5
39C
330
1F
100
AcDbEntity
  8
D-STR-STR5
  6
Continuous
 62
    83
370
     9
100
AcDbLine
 10
197.58394732
 20
168.44495454
 30
0.0
 11
197.66394732
 21
168.56495454
 31
0.0
  0
LINE
  5
39D
330
1F
100
AcDbEntity
  8
D-STR-STR5
  6
Continuous
 62
    83
370
     9
100
AcDbLine
 10
195.79091132
 20
169.43376054
 30
0.0
 11
195.87091132
 21
169.55376054
 31
0.0
  0
LINE
  5
39E
330
1F
100
AcDbEntity
  8
D-STR-STR5
  6
Continuous
 62
    83
370
     9
100
AcDbLine
 10
196.84563932
 20
171.84644754
 30
0.0
 11
196.92563932
 21
171.96644754
 31
0.0
  0
LINE
  5
39F
330
1F
100
AcDbEntity
  8
D-STR-STR5
  6
Continuous
 62
    83
370
     9
100
AcDbLine
 10
195.36902132
 20
171.84644754
 30
0.0
 11
195.44902132
 21
171.96644754
 31
0.0
  0
LINE
  5
3A0
330
1F
100
AcDbEntity
  8
D-STR-STR5
  6
Continuous
 62
    83
370
     9
100
AcDbLine
 10
203.01276982
 20
155.42134104
 30
0.0
 11
203.21575582
 21
155.62432704
 31
0.0
  0
LINE
  5
3A1
330
1F
100
AcDbEntity
  8
D-STR-STR5
  6
Continuous
 62
    83
370
     9
100
AcDbLine
 10
203.21575582
 20
155.62432704
 30
0.0
 11
203.49993382
 21
155.36044704
 31
0.0
  0
LINE
  5
3A2
330
1F
100
AcDbEntity
  8
D-STR-STR5
  6
Continuous
 62
    83
370
     9
100
AcDbLine
 10
203.49993382
 20
155.36044704
 30
0.0
 11
203.40520782
 21
154.83268704
 31
0.0
  0
LINE
  5
3A3
330
1F
100
AcDbEntity
  8
D-STR-STR5
  6
Continuous
 62
    83
370
     9
100
AcDbLine
 10
203.40520782
 20
154.83268704
 30
0.0
 11
203.06689982
 21
154.89358104
 31
0.0
  0
LINE
  5
3A4
330
1F
100
AcDbEntity
  8
D-STR-STR5
  6
Continuous
 62
    83
370
     9
100
AcDbLine
 10
203.06689982
 20
154.89358104
 30
0.0
 11
203.01276982
 21
155.42134104
 31
0.0
  0
LINE
  5
3A5
330
1F
100
AcDbEntity
  8
D-STR-STR5
  6
Continuous
 62
    83
370
     9
100
AcDbLine
 10
201.10223582
 20
154.59983904
 30
0.0
 11
201.23012782
 21
154.84172304
 31
0.0
  0
LINE
  5
3A6
330
1F
100
AcDbEntity
  8
D-STR-STR5
  6
Continuous
 62
    83
370
     9
100
AcDbLine
 10
201.23012782
 20
154.84172304
 30
0.0
 11
201.40250582
 21
154.77499704
 31
0.0
  0
LINE
  5
3A7
330
1F
100
AcDbEntity
  8
D-STR-STR5
  6
Continuous
 62
    83
370
     9
100
AcDbLine
 10
201.40250582
 20
154.77499704
 30
0.0
 11
201.40250582
 21
154.43302404
 31
0.0
  0
LINE
  5
3A8
330
1F
100
AcDbEntity
  8
D-STR-STR5
  6
Continuous
 62
    83
370
     9
100
AcDbLine
 10
201.40250582
 20
154.43302404
 30
0.0
 11
201.18008382
 21
154.34961504
 31
0.0
  0
LINE
  5
3A9
330
1F
100
AcDbEntity
  8
D-STR-STR5
  6
Continuous
 62
    83
370
     9
100
AcDbLine
 10
201.18008382
 20
154.34961504
 30
0.0
 11
201.10223582
 21
154.59983904
 31
0.0
  0
LINE
  5
3AA
330
1F
100
AcDbEntity
  8
D-STR-STR5
  6
Continuous
 62
    83
370
     9
100
AcDbLine
 10
201.32520782
 20
151.22880204
 30
0.0
 11
201.52819382
 21
151.43178804
 31
0.0
  0
LINE
  5
3AB
330
1F
100
AcDbEntity
  8
D-STR-STR5
  6
Continuous
 62
    83
370
     9
100
AcDbLine
 10
201.52819382
 20
151.43178804
 30
0.0
 11
201.81237182
 21
151.16790804
 31
0.0
  0
LINE
  5
3AC
330
1F
100
AcDbEntity
  8
D-STR-STR5
  6
Continuous
 62
    83
370
     9
100
AcDbLine
 10
201.81237182
 20
151.16790804
 30
0.0
 11
201.71764582
 21
150.64014804
 31
0.0
  0
LINE
  5
3AD
330
1F
100
AcDbEntity
  8
D-STR-STR5
  6
Continuous
 62
    83
370
     9
100
AcDbLine
 10
201.71764582
 20
150.64014804
 30
0.0
 11
201.37933782
 21
150.70104204
 31
0.0
  0
LINE
  5
3AE
330
1F
100
AcDbEntity
  8
D-STR-STR5
  6
Continuous
 62
    83
370
     9
100
AcDbLine
 10
201.37933782
 20
150.70104204
 30
0.0
 11
201.32520782
 21
151.22880204
 31
0.0
  0
LINE
  5
3AF
330
1F
100
AcDbEntity
  8
D-STR-STR5
  6
Continuous
 62
    83
370
     9
100
AcDbLine
 10
203.29079382
 20
151.04013804
 30
0.0
 11
203.41868582
 21
151.28202204
 31
0.0
  0
LINE
  5
3B0
330
1F
100
AcDbEntity
  8
D-STR-STR5
  6
Continuous
 62
    83
370
     9
100
AcDbLine
 10
203.41868582
 20
151.28202204
 30
0.0
 11
203.59106382
 21
151.21529604
 31
0.0
  0
LINE
  5
3B1
330
1F
100
AcDbEntity
  8
D-STR-STR5
  6
Continuous
 62
    83
370
     9
100
AcDbLine
 10
203.59106382
 20
151.21529604
 30
0.0
 11
203.59106382
 21
150.87332304
 31
0.0
  0
LINE
  5
3B2
330
1F
100
AcDbEntity
  8
D-STR-STR5
  6
Continuous
 62
    83
370
     9
100
AcDbLine
 10
203.59106382
 20
150.87332304
 30
0.0
 11
203.36864182
 21
150.78991404
 31
0.0
  0
LINE
  5
3B3
330
1F
100
AcDbEntity
  8
D-STR-STR5
  6
Continuous
 62
    83
370
     9
100
AcDbLine
 10
203.36864182
 20
150.78991404
 30
0.0
 11
203.29079382
 21
151.04013804
 31
0.0
  0
LINE
  5
3B4
330
1F
100
AcDbEntity
  8
D-STR-STR5
  6
Continuous
 62
    83
370
     9
100
AcDbLine
 10
202.29436182
 20
156.27731304
 30
0.0
 11
202.21436182
 21
156.15731304
 31
0.0
  0
LINE
  5
3B5
330
1F
100
AcDbEntity
  8
D-STR-STR5
  6
Continuous
 62
    83
370
     9
100
AcDbLine
 10
203.74461182
 20
156.63328404
 30
0.0
 11
203.66461182
 21
156.51328404
 31
0.0
  0
LINE
  5
3B6
330
1F
100
AcDbEntity
  8
D-STR-STR5
  6
Continuous
 62
    83
370
     9
100
AcDbLine
 10
200.71227182
 20
150.54223704
 30
0.0
 11
200.63227182
 21
150.42223704
 31
0.0
  0
LINE
  5
3B7
330
1F
100
AcDbEntity
  8
D-STR-STR5
  6
Continuous
 62
    83
370
     9
100
AcDbLine
 10
200.81774382
 20
156.11910204
 30
0.0
 11
200.73774382
 21
155.99910204
 31
0.0
  0
LINE
  5
3B8
330
1F
100
AcDbEntity
  8
D-STR-STR5
  6
Continuous
 62
    83
370
     9
100
AcDbLine
 10
202.34709782
 20
153.82507404
 30
0.0
 11
202.26709782
 21
153.70507404
 31
0.0
  0
LINE
  5
3B9
330
1F
100
AcDbEntity
  8
D-STR-STR5
  6
Continuous
 62
    83
370
     9
100
AcDbLine
 10
203.48092782
 20
152.95492404
 30
0.0
 11
203.40092782
 21
152.83492404
 31
0.0
  0
LINE
  5
3BA
330
1F
100
AcDbEntity
  8
D-STR-STR5
  6
Continuous
 62
    83
370
     9
100
AcDbLine
 10
200.81774382
 20
152.79671604
 30
0.0
 11
200.73774382
 21
152.67671604
 31
0.0
  0
LINE
  5
3BB
330
1F
100
AcDbEntity
  8
D-STR-STR5
  6
Continuous
 62
    83
370
     9
100
AcDbLine
 10
202.61077982
 20
151.80791004
 30
0.0
 11
202.53077982
 21
151.68791004
 31
0.0
  0
LINE
  5
3BC
330
1F
100
AcDbEntity
  8
D-STR-STR5
  6
Continuous
 62
    83
370
     9
100
AcDbLine
 10
201.55605182
 20
149.39522304
 30
0.0
 11
201.47605182
 21
149.27522304
 31
0.0
  0
LINE
  5
3BD
330
1F
100
AcDbEntity
  8
D-STR-STR5
  6
Continuous
 62
    83
370
     9
100
AcDbLine
 10
203.03266982
 20
149.39522304
 30
0.0
 11
202.95266982
 21
149.27522304
 31
0.0
  0
LINE
  5
3BE
330
1F
100
AcDbEntity
  8
D-STR-STR5
  6
Continuous
 62
    83
370
     9
100
AcDbLine
 10
195.35730732
 20
150.55039554
 30
0.0
 11
195.15432132
 21
150.34740954
 31
0.0
  0
LINE
  5
3BF
330
1F
100
AcDbEntity
  8
D-STR-STR5
  6
Continuous
 62
    83
370
     9
100
AcDbLine
 10
195.15432132
 20
150.34740954
 30
0.0
 11
194.87014332
 21
150.61128954
 31
0.0
  0
LINE
  5
3C0
330
1F
100
AcDbEntity
  8
D-STR-STR5
  6
Continuous
 62
    83
370
     9
100
AcDbLine
 10
194.87014332
 20
150.61128954
 30
0.0
 11
194.96486932
 21
151.13904954
 31
0.0
  0
LINE
  5
3C1
330
1F
100
AcDbEntity
  8
D-STR-STR5
  6
Continuous
 62
    83
370
     9
100
AcDbLine
 10
194.96486932
 20
151.13904954
 30
0.0
 11
195.30317732
 21
151.07815554
 31
0.0
  0
LINE
  5
3C2
330
1F
100
AcDbEntity
  8
D-STR-STR5
  6
Continuous
 62
    83
370
     9
100
AcDbLine
 10
195.30317732
 20
151.07815554
 30
0.0
 11
195.35730732
 21
150.55039554
 31
0.0
  0
LINE
  5
3C3
330
1F
100
AcDbEntity
  8
D-STR-STR5
  6
Continuous
 62
    83
370
     9
100
AcDbLine
 10
197.26784132
 20
151.37189754
 30
0.0
 11
197.13994932
 21
151.13001354
 31
0.0
  0
LINE
  5
3C4
330
1F
100
AcDbEntity
  8
D-STR-STR5
  6
Continuous
 62
    83
370
     9
100
AcDbLine
 10
197.13994932
 20
151.13001354
 30
0.0
 11
196.96757132
 21
151.19673954
 31
0.0
  0
LINE
  5
3C5
330
1F
100
AcDbEntity
  8
D-STR-STR5
  6
Continuous
 62
    83
370
     9
100
AcDbLine
 10
196.96757132
 20
151.19673954
 30
0.0
 11
196.96757132
 21
151.53871254
 31
0.0
  0
LINE
  5
3C6
330
1F
100
AcDbEntity
  8
D-STR-STR5
  6
Continuous
 62
    83
370
     9
100
AcDbLine
 10
196.96757132
 20
151.53871254
 30
0.0
 11
197.18999332
 21
151.62212154
 31
0.0
  0
LINE
  5
3C7
330
1F
100
AcDbEntity
  8
D-STR-STR5
  6
Continuous
 62
    83
370
     9
100
AcDbLine
 10
197.18999332
 20
151.62212154
 30
0.0
 11
197.26784132
 21
151.37189754
 31
0.0
  0
LINE
  5
3C8
330
1F
100
AcDbEntity
  8
D-STR-STR5
  6
Continuous
 62
    83
370
     9
100
AcDbLine
 10
197.04486932
 20
154.74293454
 30
0.0
 11
196.84188332
 21
154.53994854
 31
0.0
  0
LINE
  5
3C9
330
1F
100
AcDbEntity
  8
D-STR-STR5
  6
Continuous
 62
    83
370
     9
100
AcDbLine
 10
196.84188332
 20
154.53994854
 30
0.0
 11
196.55770532
 21
154.80382854
 31
0.0
  0
LINE
  5
3CA
330
1F
100
AcDbEntity
  8
D-STR-STR5
  6
Continuous
 62
    83
370
     9
100
AcDbLine
 10
196.55770532
 20
154.80382854
 30
0.0
 11
196.65243132
 21
155.33158854
 31
0.0
  0
LINE
  5
3CB
330
1F
100
AcDbEntity
  8
D-STR-STR5
  6
Continuous
 62
    83
370
     9
100
AcDbLine
 10
196.65243132
 20
155.33158854
 30
0.0
 11
196.99073932
 21
155.27069454
 31
0.0
  0
LINE
  5
3CC
330
1F
100
AcDbEntity
  8
D-STR-STR5
  6
Continuous
 62
    83
370
     9
100
AcDbLine
 10
196.99073932
 20
155.27069454
 30
0.0
 11
197.04486932
 21
154.74293454
 31
0.0
  0
LINE
  5
3CD
330
1F
100
AcDbEntity
  8
D-STR-STR5
  6
Continuous
 62
    83
370
     9
100
AcDbLine
 10
195.07928332
 20
154.93159854
 30
0.0
 11
194.95139132
 21
154.68971454
 31
0.0
  0
LINE
  5
3CE
330
1F
100
AcDbEntity
  8
D-STR-STR5
  6
Continuous
 62
    83
370
     9
100
AcDbLine
 10
194.95139132
 20
154.68971454
 30
0.0
 11
194.77901332
 21
154.75644054
 31
0.0
  0
LINE
  5
3CF
330
1F
100
AcDbEntity
  8
D-STR-STR5
  6
Continuous
 62
    83
370
     9
100
AcDbLine
 10
194.77901332
 20
154.75644054
 30
0.0
 11
194.77901332
 21
155.09841354
 31
0.0
  0
LINE
  5
3D0
330
1F
100
AcDbEntity
  8
D-STR-STR5
  6
Continuous
 62
    83
370
     9
100
AcDbLine
 10
194.77901332
 20
155.09841354
 30
0.0
 11
195.00143532
 21
155.18182254
 31
0.0
  0
LINE
  5
3D1
330
1F
100
AcDbEntity
  8
D-STR-STR5
  6
Continuous
 62
    83
370
     9
100
AcDbLine
 10
195.00143532
 20
155.18182254
 30
0.0
 11
195.07928332
 21
154.93159854
 31
0.0
  0
LINE
  5
3D2
330
1F
100
AcDbEntity
  8
D-STR-STR5
  6
Continuous
 62
    83
370
     9
100
AcDbLine
 10
196.07571532
 20
149.69442354
 30
0.0
 11
196.15571532
 21
149.81442354
 31
0.0
  0
LINE
  5
3D3
330
1F
100
AcDbEntity
  8
D-STR-STR5
  6
Continuous
 62
    83
370
     9
100
AcDbLine
 10
194.62546532
 20
149.33845254
 30
0.0
 11
194.70546532
 21
149.45845254
 31
0.0
  0
LINE
  5
3D4
330
1F
100
AcDbEntity
  8
D-STR-STR5
  6
Continuous
 62
    83
370
     9
100
AcDbLine
 10
197.65780532
 20
155.42949954
 30
0.0
 11
197.73780532
 21
155.54949954
 31
0.0
  0
LINE
  5
3D5
330
1F
100
AcDbEntity
  8
D-STR-STR5
  6
Continuous
 62
    83
370
     9
100
AcDbLine
 10
197.55233332
 20
149.85263454
 30
0.0
 11
197.63233332
 21
149.97263454
 31
0.0
  0
LINE
  5
3D6
330
1F
100
AcDbEntity
  8
D-STR-STR5
  6
Continuous
 62
    83
370
     9
100
AcDbLine
 10
196.02297932
 20
152.14666254
 30
0.0
 11
196.10297932
 21
152.26666254
 31
0.0
  0
LINE
  5
3D7
330
1F
100
AcDbEntity
  8
D-STR-STR5
  6
Continuous
 62
    83
370
     9
100
AcDbLine
 10
194.88914932
 20
153.01681254
 30
0.0
 11
194.96914932
 21
153.13681254
 31
0.0
  0
LINE
  5
3D8
330
1F
100
AcDbEntity
  8
D-STR-STR5
  6
Continuous
 62
    83
370
     9
100
AcDbLine
 10
197.55233332
 20
153.17502054
 30
0.0
 11
197.63233332
 21
153.29502054
 31
0.0
  0
LINE
  5
3D9
330
1F
100
AcDbEntity
  8
D-STR-STR5
  6
Continuous
 62
    83
370
     9
100
AcDbLine
 10
195.75929732
 20
154.16382654
 30
0.0
 11
195.83929732
 21
154.28382654
 31
0.0
  0
LINE
  5
3DA
330
1F
100
AcDbEntity
  8
D-STR-STR5
  6
Continuous
 62
    83
370
     9
100
AcDbLine
 10
196.81402532
 20
156.57651354
 30
0.0
 11
196.89402532
 21
156.69651354
 31
0.0
  0
LINE
  5
3DB
330
1F
100
AcDbEntity
  8
D-STR-STR5
  6
Continuous
 62
    83
370
     9
100
AcDbLine
 10
195.33740732
 20
156.57651354
 30
0.0
 11
195.41740732
 21
156.69651354
 31
0.0
  0
LINE
  5
3DC
330
1F
100
AcDbEntity
  8
寸法
  6
Continuous
 62
   132
370
    18
100
AcDbLine
 10
68.54118332
 20
146.63745954
 30
0.0
 11
67.49395682000001
 21
147.44102454
 31
0.0
  0
LINE
  5
3DD
330
1F
100
AcDbEntity
  8
寸法
  6
Continuous
 62
   132
370
    18
100
AcDbLine
 10
67.49395682000001
 20
147.44102454
 30
0.0
 11
68.29752182
 21
146.39379804
 31
0.0
  0
DIMENSION
  5
3DE
330
1F
100
AcDbEntity
  8
D-STR-DIM
  6
Continuous
 62
     5
370
    13
100
AcDbDimension
  2
*D1
 10
58.07117104
 20
226.89572556
 30
0.0
 11
65.04775179958652
 21
233.9322247627945
 31
0.0
 70
   163
  1
600～1000
 71
     5
 42
20.79890383858554
  3
Standard
100
AcDbDiametricDimension
 15
75.68645136
 25
237.95449132
 35
0.0
 40
0.0
1001
ACAD
1000
DSTYLE
1002
{
1070
   271
1070
     2
1070
   178
1070
     5
1070
   177
1070
     5
1070
   176
1070
     5
1070
   289
1070
     3
1070
    77
1070
     1
1070
   174
1070
     1
1070
   172
1070
     1
1070
    73
1070
     0
1070
    74
1070
     0
1070
   173
1070
     1
1070
   279
1070
     2
1070
    44
1040
0.0
1070
    42
1040
0.0
1070
   147
1040
0.0
1070
   140
1040
2.777777777777778
1070
    41
1040
0.9999999999999749
1070
   340
1005
4F
1002
}
  0
DIMENSION
  5
3E9
330
1F
100
AcDbEntity
  8
D-STR-DIM
  6
Continuous
 62
     5
370
    13
100
AcDbDimension
  2
*D2
 10
170.21711982
 20
148.63749654
 30
0.0
 11
167.96711982
 21
147.63749678
 31
0.0
 70
   160
  1
100
 71
     5
 42
1.999999500000001
 53
90.0
  3
Standard
100
AcDbAlignedDimension
 13
145.21711982
 23
146.63749704
 33
0.0
 14
145.21711982
 24
148.63749654
 34
0.0
 50
90.0
100
AcDbRotatedDimension
1001
ACAD
1000
DSTYLE
1002
{
1070
   271
1070
     2
1070
   178
1070
     5
1070
   177
1070
     5
1070
   176
1070
     5
1070
   289
1070
     3
1070
    77
1070
     1
1070
   174
1070
     1
1070
   172
1070
     1
1070
    73
1070
     1
1070
    74
1070
     0
1070
   173
1070
     1
1070
   279
1070
     2
1070
    44
1040
1.0
1070
    42
1040
1.0
1070
   147
1040
0.0
1070
   140
1040
2.777777777777778
1070
    41
1040
0.9999999999999749
1070
   340
1005
4F
1002
}
  0
DIMENSION
  5
3F8
330
1F
100
AcDbEntity
  8
D-STR-DIM
  6
Continuous
 62
     5
370
    13
100
AcDbDimension
  2
*D3
 10
170.21711982
 20
236.63749554
 30
0.0
 11
167.96711982
 21
192.63749604
 31
0.0
 70
   160
  1
3600～4700
 71
     5
 42
87.99999900000003
 53
90.0
  3
Standard
100
AcDbAlignedDimension
 13
145.21711982
 23
148.63749654
 33
0.0
 14
140.11711982
 24
236.63749554
 34
0.0
 50
90.0
100
AcDbRotatedDimension
1001
ACAD
1000
DSTYLE
1002
{
1070
   271
1070
     2
1070
   178
1070
     5
1070
   177
1070
     5
1070
   176
1070
     5
1070
   289
1070
     3
1070
    77
1070
     1
1070
   174
1070
     1
1070
   172
1070
     1
1070
    73
1070
     1
1070
    74
1070
     0
1070
   173
1070
     1
1070
   279
1070
     2
1070
    44
1040
1.0
1070
    42
1040
1.0
1070
   147
1040
0.0
1070
   140
1040
2.777777777777778
1070
    41
1040
0.9999999999999749
1070
   340
1005
4F
1002
}
  0
LINE
  5
405
330
1F
100
AcDbEntity
  8
D-TTL-LINE
  6
Continuous
 62
     7
370
    13
100
AcDbLine
 10
134.21712032
 20
170.63749654
 30
0.0
 11
144.21711932
 21
170.63749654
 31
0.0
  0
DIMENSION
  5
406
330
1F
100
AcDbEntity
  8
D-STR-DIM
  6
Continuous
 62
     5
370
    13
100
AcDbDimension
  2
*D4
 10
162.21711982
 20
172.63749654
 30
0.0
 11
159.61711982
 21
160.98749654
 31
0.0
 70
   160
  1
H
 71
     5
 42
24.0
 53
90.0
  3
Standard
100
AcDbAlignedDimension
 13
145.21711982
 23
148.63749654
 33
0.0
 14
157.21711982
 24
172.63749654
 34
0.0
 50
90.0
100
AcDbRotatedDimension
1001
ACAD
1000
DSTYLE
1002
{
1070
   271
1070
     2
1070
   178
1070
     5
1070
   177
1070
     5
1070
   176
1070
     5
1070
   289
1070
     3
1070
    77
1070
     1
1070
   174
1070
     1
1070
   172
1070
     1
1070
    73
1070
     1
1070
    74
1070
     0
1070
   173
1070
     1
1070
   279
1070
     2
1070
    44
1040
1.0
1070
    42
1040
1.0
1070
   147
1040
0.0
1070
   140
1040
2.777777777777778
1070
    41
1040
0.9999999999999749
1070
   340
1005
4F
1002
}
  0
DIMENSION
  5
413
330
1F
100
AcDbEntity
  8
D-STR-DIM
  6
Continuous
 62
     5
370
    13
100
AcDbDimension
  2
*D5
 10
162.21711982
 20
222.63749604
 30
0.0
 11
159.96711982
 21
197.63749628
 31
0.0
 70
   160
  1
標準 2500
 71
     5
 42
49.9999995
 53
90.0
  3
Standard
100
AcDbAlignedDimension
 13
157.21711982
 23
172.63749654
 33
0.0
 14
134.21712032
 24
222.63749604
 34
0.0
 50
90.0
100
AcDbRotatedDimension
1001
ACAD
1000
DSTYLE
1002
{
1070
   271
1070
     2
1070
   178
1070
     5
1070
   177
1070
     5
1070
   176
1070
     5
1070
   289
1070
     3
1070
    77
1070
     1
1070
   174
1070
     1
1070
   172
1070
     1
1070
    73
1070
     1
1070
    74
1070
     0
1070
   173
1070
     1
1070
   279
1070
     2
1070
    44
1040
1.0
1070
    42
1040
1.0
1070
   147
1040
0.0
1070
   140
1040
2.777777777777778
1070
    41
1040
0.9999999999999749
1070
   340
1005
4F
1002
}
  0
DIMENSION
  5
420
330
1F
100
AcDbEntity
  8
D-STR-DIM
  6
Continuous
 62
     5
370
    13
100
AcDbDimension
  2
*D6
 10
154.21711982
 20
172.63749654
 30
0.0
 11
151.96711982
 21
171.63749654
 31
0.0
 70
   160
  1
100
 71
     5
 42
2.0
 53
90.0
  3
Standard
100
AcDbAlignedDimension
 13
144.21711932
 23
170.63749654
 33
0.0
 14
157.21711982
 24
172.63749654
 34
0.0
 50
90.0
100
AcDbRotatedDimension
1001
ACAD
1000
DSTYLE
1002
{
1070
   271
1070
     2
1070
   178
1070
     5
1070
   177
1070
     5
1070
   176
1070
     5
1070
   289
1070
     3
1070
    77
1070
     1
1070
   174
1070
     1
1070
   172
1070
     1
1070
    73
1070
     1
1070
    74
1070
     0
1070
   173
1070
     1
1070
   279
1070
     2
1070
    44
1040
0.9999999999999716
1070
    42
1040
1.0
1070
   147
1040
0.0
1070
   140
1040
2.777777777777778
1070
    41
1040
0.9999999999999749
1070
   340
1005
4F
1002
}
  0
LINE
  5
42D
330
1F
100
AcDbEntity
  8
D-STR-HTXT
  6
Continuous
 62
     5
370
    13
100
AcDbLine
 10
62.56848396774893
 20
238.2560367282223
 30
0.0
 11
56.602332
 21
246.6528432
 31
0.0
  0
LINE
  5
42E
330
1F
100
AcDbEntity
  8
D-STR-HTXT
  6
Continuous
 62
     5
370
    13
100
AcDbLine
 10
63.1476911
 20
237.44085632
 30
0.0
 11
62.7043473691193
 21
238.3525712502641
 31
0.0
  0
LINE
  5
42F
330
1F
100
AcDbEntity
  8
D-STR-HTXT
  6
Continuous
 62
     5
370
    13
100
AcDbLine
 10
63.1476911
 20
237.44085632
 30
0.0
 11
62.43262056637855
 21
238.1595022061804
 31
0.0
  0
LINE
  5
430
330
1F
100
AcDbEntity
  8
D-STR-HTXT
  6
Continuous
 62
     5
370
    13
100
AcDbLine
 10
62.7043473691193
 20
238.3525712502641
 30
0.0
 11
62.43262056637855
 21
238.1595022061804
 31
0.0
  0
LINE
  5
431
330
1F
100
AcDbEntity
  8
D-STR-HTXT
  6
Continuous
 62
     5
370
    13
100
AcDbLine
 10
62.79301611529543
 20
238.1702282642113
 30
0.0
 11
62.67717468884522
 21
238.3332643458557
 31
0.0
  0
LINE
  5
432
330
1F
100
AcDbEntity
  8
D-STR-HTXT
  6
Continuous
 62
     5
370
    13
100
AcDbLine
 10
62.65000200857114
 20
238.3139574414474
 30
0.0
 11
62.88168486147156
 21
237.9878852781584
 31
0.0
  0
LINE
  5
433
330
1F
100
AcDbEntity
  8
D-STR-HTXT
  6
Continuous
 62
     5
370
    13
100
AcDbLine
 10
62.9703536076477
 20
237.8055422921056
 30
0.0
 11
62.62282932829707
 21
238.294650537039
 31
0.0
  0
LINE
  5
434
330
1F
100
AcDbEntity
  8
D-STR-HTXT
  6
Continuous
 62
     5
370
    13
100
AcDbLine
 10
62.595656648023
 20
238.2753436326306
 30
0.0
 11
63.05902235382384
 21
237.6231993060528
 31
0.0
  0
LINE
  5
435
330
1F
100
AcDbEntity
  8
D-STR-HTXT
  6
Continuous
 62
     5
370
    13
100
AcDbLine
 10
63.14769109999997
 20
237.44085632
 30
0.0
 11
62.56848396774892
 21
238.2560367282223
 31
0.0
  0
LINE
  5
436
330
1F
100
AcDbEntity
  8
D-STR-HTXT
  6
Continuous
 62
     5
370
    13
100
AcDbLine
 10
62.54131128747484
 20
238.2367298238139
 30
0.0
 11
63.00467699327569
 21
237.5845854972361
 31
0.0
  0
LINE
  5
437
330
1F
100
AcDbEntity
  8
D-STR-HTXT
  6
Continuous
 62
     5
370
    13
100
AcDbLine
 10
62.86166288655139
 20
237.7283146744722
 30
0.0
 11
62.51413860720076
 21
238.2174229194055
 31
0.0
  0
LINE
  5
438
330
1F
100
AcDbEntity
  8
D-STR-HTXT
  6
Continuous
 62
     5
370
    13
100
AcDbLine
 10
62.48696592692669
 20
238.1981160149972
 30
0.0
 11
62.71864877982711
 21
237.8720438517082
 31
0.0
  0
LINE
  5
439
330
1F
100
AcDbEntity
  8
D-STR-HTXT
  6
Continuous
 62
     5
370
    13
100
AcDbLine
 10
62.57563467310282
 20
238.0157730289443
 30
0.0
 11
62.45979324665261
 21
238.1788091105888
 31
0.0
  0
LINE
  5
43A
330
1F
100
AcDbEntity
  8
D-STR-HTXT
  6
Continuous
 62
     5
370
    13
100
AcDbLine
 10
56.602332
 20
246.6528432
 30
0.0
 11
23.302332
 21
246.6528432
 31
0.0
  0
TEXT
  5
43B
330
1F
100
AcDbEntity
  8
D-STR-HTXT
  6
Continuous
 62
     5
370
    13
100
AcDbText
 10
28.39677644444445
 20
247.660265075
 30
0.0
 40
2.777777777777778
  1
鏡面ステンレス製
 41
0.8
  7
ＭＳ ゴシック
 72
     1
 11
39.95233200000001
 21
247.1528432
 31
0.0
100
AcDbText
 73
     1
  0
LINE
  5
43C
330
1F
100
AcDbEntity
  8
D-STR-HTXT
  6
Continuous
 62
     5
370
    13
100
AcDbLine
 10
137.0358605407597
 20
235.0626626138516
 30
0.0
 11
144.44786036
 21
247.68657548
 31
0.0
  0
LINE
  5
43D
330
1F
100
AcDbEntity
  8
D-STR-HTXT
  6
Continuous
 62
     5
370
    13
100
AcDbLine
 10
136.52954252
 20
234.20031578
 30
0.0
 11
137.1795850130683
 21
234.9782762770583
 31
0.0
  0
LINE
  5
43E
330
1F
100
AcDbEntity
  8
D-STR-HTXT
  6
Continuous
 62
     5
370
    13
100
AcDbLine
 10
136.52954252
 20
234.20031578
 30
0.0
 11
136.8921360684511
 21
235.1470489506449
 31
0.0
  0
LINE
  5
43F
330
1F
100
AcDbEntity
  8
D-STR-HTXT
  6
Continuous
 62
     5
370
    13
100
AcDbLine
 10
137.1795850130683
 20
234.9782762770583
 30
0.0
 11
136.8921360684511
 21
235.1470489506449
 31
0.0
  0
LINE
  5
440
330
1F
100
AcDbEntity
  8
D-STR-HTXT
  6
Continuous
 62
     5
370
    13
100
AcDbLine
 10
137.0495765144546
 20
234.8226841776467
 30
0.0
 11
137.1508401186066
 21
234.995153544417
 31
0.0
  0
LINE
  5
441
330
1F
100
AcDbEntity
  8
D-STR-HTXT
  6
Continuous
 62
     5
370
    13
100
AcDbLine
 10
137.1220952241448
 20
235.0120308117756
 30
0.0
 11
136.919568015841
 21
234.667092078235
 31
0.0
  0
LINE
  5
442
330
1F
100
AcDbEntity
  8
D-STR-HTXT
  6
Continuous
 62
     5
370
    13
100
AcDbLine
 10
136.7895595172273
 20
234.5114999788233
 30
0.0
 11
137.0933503296831
 21
235.0289080791343
 31
0.0
  0
LINE
  5
443
330
1F
100
AcDbEntity
  8
D-STR-HTXT
  6
Continuous
 62
     5
370
    13
100
AcDbLine
 10
137.0646054352214
 20
235.0457853464929
 30
0.0
 11
136.6595510186137
 21
234.3559078794116
 31
0.0
  0
LINE
  5
444
330
1F
100
AcDbEntity
  8
D-STR-HTXT
  6
Continuous
 62
     5
370
    13
100
AcDbLine
 10
136.52954252
 20
234.20031578
 30
0.0
 11
137.0358605407597
 21
235.0626626138516
 31
0.0
  0
LINE
  5
445
330
1F
100
AcDbEntity
  8
D-STR-HTXT
  6
Continuous
 62
     5
370
    13
100
AcDbLine
 10
137.0071156462979
 20
235.0795398812103
 30
0.0
 11
136.6020612296902
 21
234.389662414129
 31
0.0
  0
LINE
  5
446
330
1F
100
AcDbEntity
  8
D-STR-HTXT
  6
Continuous
 62
     5
370
    13
100
AcDbLine
 10
136.6745799393804
 20
234.5790090482579
 30
0.0
 11
136.9783707518362
 21
235.0964171485689
 31
0.0
  0
LINE
  5
447
330
1F
100
AcDbEntity
  8
D-STR-HTXT
  6
Continuous
 62
     5
370
    13
100
AcDbLine
 10
136.9496258573745
 20
235.1132944159276
 30
0.0
 11
136.7470986490707
 21
234.7683556823869
 31
0.0
  0
LINE
  5
448
330
1F
100
AcDbEntity
  8
D-STR-HTXT
  6
Continuous
 62
     5
370
    13
100
AcDbLine
 10
136.8196173587608
 20
234.9577023165159
 30
0.0
 11
136.9208809629128
 21
235.1301716832862
 31
0.0
  0
LINE
  5
449
330
1F
100
AcDbEntity
  8
D-STR-HTXT
  6
Continuous
 62
     5
370
    13
100
AcDbLine
 10
144.44786036
 20
247.68657548
 30
0.0
 11
192.44786036
 21
247.68657548
 31
0.0
  0
TEXT
  5
44A
330
1F
100
AcDbEntity
  8
D-STR-HTXT
  6
Continuous
 62
     5
370
    13
100
AcDbText
 10
151.1145270266667
 20
248.693997355
 30
0.0
 40
2.777777777777778
  1
取付金具(溶融亜鉛メッキ)
 41
0.8
  7
ＭＳ ゴシック
 72
     1
 11
168.44786036
 21
248.18657548
 31
0.0
100
AcDbText
 73
     1
  0
LINE
  5
44B
330
1F
100
AcDbEntity
  8
D-STR
  6
Continuous
 62
     1
370
    50
100
AcDbLine
 10
66.51711982
 20
212.67807838
 30
0.0
 11
67.91711982000001
 21
212.67807838
 31
0.0
  0
LINE
  5
44C
330
1F
100
AcDbEntity
  8
D-STR
  6
Continuous
 62
     1
370
    50
100
AcDbLine
 10
66.51711982
 20
212.67807838
 30
0.0
 11
66.51711982
 21
208.67807838
 31
0.0
  0
LINE
  5
44D
330
1F
100
AcDbEntity
  8
D-STR
  6
Continuous
 62
     1
370
    50
100
AcDbLine
 10
66.51711982
 20
208.67807838
 30
0.0
 11
67.91711982000001
 21
208.67807838
 31
0.0
  0
LINE
  5
44E
330
1F
100
AcDbEntity
  8
D-STR
  6
Continuous
 62
     1
370
    50
100
AcDbLine
 10
67.91711982
 20
212.67807838
 30
0.0
 11
67.91711982
 21
208.67807838
 31
0.0
  0
LINE
  5
44F
330
1F
100
AcDbEntity
  8
D-STR-HTXT
  6
Continuous
 62
     5
370
    13
100
AcDbLine
 10
65.85656279626575
 20
212.7180814940757
 30
0.0
 11
61.88701846000001
 21
216.64530944
 31
0.0
  0
LINE
  5
450
330
1F
100
AcDbEntity
  8
D-STR-HTXT
  6
Continuous
 62
     5
370
    13
100
AcDbLine
 10
66.56744854
 20
212.01477398
 30
0.0
 11
65.97378071527837
 21
212.8365624513647
 31
0.0
  0
LINE
  5
451
330
1F
100
AcDbEntity
  8
D-STR-HTXT
  6
Continuous
 62
     5
370
    13
100
AcDbLine
 10
66.56744854
 20
212.01477398
 30
0.0
 11
65.73934487725313
 21
212.5996005367867
 31
0.0
  0
LINE
  5
452
330
1F
100
AcDbEntity
  8
D-STR-HTXT
  6
Continuous
 62
     5
370
    13
100
AcDbLine
 10
65.97378071527837
 20
212.8365624513647
 30
0.0
 11
65.73934487725313
 21
212.5996005367867
 31
0.0
  0
LINE
  5
453
330
1F
100
AcDbEntity
  8
D-STR-HTXT
  6
Continuous
 62
     5
370
    13
100
AcDbLine
 10
66.0925142802227
 20
212.6722047570918
 30
0.0
 11
65.95033713147585
 21
212.8128662599069
 31
0.0
  0
LINE
  5
454
330
1F
100
AcDbEntity
  8
D-STR-HTXT
  6
Continuous
 62
     5
370
    13
100
AcDbLine
 10
65.92689354767332
 20
212.7891700684491
 30
0.0
 11
66.21124784516701
 21
212.5078470628188
 31
0.0
  0
LINE
  5
455
330
1F
100
AcDbEntity
  8
D-STR-HTXT
  6
Continuous
 62
     5
370
    13
100
AcDbLine
 10
66.32998141011134
 20
212.3434893685459
 30
0.0
 11
65.9034499638708
 21
212.7654738769913
 31
0.0
  0
LINE
  5
456
330
1F
100
AcDbEntity
  8
D-STR-HTXT
  6
Continuous
 62
     5
370
    13
100
AcDbLine
 10
65.88000638006827
 20
212.7417776855335
 30
0.0
 11
66.44871497505565
 21
212.1791316742729
 31
0.0
  0
LINE
  5
457
330
1F
100
AcDbEntity
  8
D-STR-HTXT
  6
Continuous
 62
     5
370
    13
100
AcDbLine
 10
66.56744853999999
 20
212.0147739799999
 30
0.0
 11
65.85656279626575
 21
212.7180814940757
 31
0.0
  0
LINE
  5
458
330
1F
100
AcDbEntity
  8
D-STR-HTXT
  6
Continuous
 62
     5
370
    13
100
AcDbLine
 10
65.83311921246322
 20
212.6943853026179
 30
0.0
 11
66.4018278074506
 21
212.1317392913573
 31
0.0
  0
LINE
  5
459
330
1F
100
AcDbEntity
  8
D-STR-HTXT
  6
Continuous
 62
     5
370
    13
100
AcDbLine
 10
66.23620707490124
 20
212.2487046027146
 30
0.0
 11
65.8096756286607
 21
212.6706891111601
 31
0.0
  0
LINE
  5
45A
330
1F
100
AcDbEntity
  8
D-STR-HTXT
  6
Continuous
 62
     5
370
    13
100
AcDbLine
 10
65.78623204485818
 20
212.6469929197023
 30
0.0
 11
66.07058634235187
 21
212.365669914072
 31
0.0
  0
LINE
  5
45B
330
1F
100
AcDbEntity
  8
D-STR-HTXT
  6
Continuous
 62
     5
370
    13
100
AcDbLine
 10
65.9049656098025
 20
212.4826352254293
 30
0.0
 11
65.76278846105565
 21
212.6232967282445
 31
0.0
  0
LINE
  5
45C
330
1F
100
AcDbEntity
  8
D-STR-HTXT
  6
Continuous
 62
     5
370
    13
100
AcDbLine
 10
61.88701846
 20
216.64530944
 30
0.0
 11
22.98701846
 21
216.64530944
 31
0.0
  0
TEXT
  5
45D
330
1F
100
AcDbEntity
  8
D-STR-HTXT
  6
Continuous
 62
     5
370
    13
100
AcDbText
 10
27.16479623777778
 20
217.652731315
 30
0.0
 40
2.777777777777778
  1
注意シート
 41
0.8
  7
ＭＳ ゴシック
 72
     1
 11
34.38701846
 21
217.14530944
 31
0.0
100
AcDbText
 73
     1
  0
TEXT
  5
45E
330
1F
100
AcDbEntity
  8
D-STR-HTXT
  6
Continuous
 62
     5
370
    13
100
AcDbText
 10
29.43701846000001
 20
213.152731315
 30
0.0
 40
2.777777777777778
  1
高輝度反射430×120
 41
0.8
  7
ＭＳ ゴシック
 72
     1
 11
42.43701846
 21
212.64530944
 31
0.0
100
AcDbText
 73
     1
  0
LINE
  5
45F
330
1F
100
AcDbEntity
  8
D-STR-HTXT
  6
Continuous
 62
     5
370
    13
100
AcDbLine
 10
70.75071557712421
 20
166.0751348185474
 30
0.0
 11
77.14951328000001
 21
161.6418898
 31
0.0
  0
LINE
  5
460
330
1F
100
AcDbEntity
  8
D-STR-HTXT
  6
Continuous
 62
     5
370
    13
100
AcDbLine
 10
69.92872232
 20
166.64463204
 30
0.0
 11
70.65579937354877
 21
165.93813594236
 31
0.0
  0
LINE
  5
461
330
1F
100
AcDbEntity
  8
D-STR-HTXT
  6
Continuous
 62
     5
370
    13
100
AcDbLine
 10
69.92872232
 20
166.64463204
 30
0.0
 11
70.84563178069965
 21
166.2121336947347
 31
0.0
  0
LINE
  5
462
330
1F
100
AcDbEntity
  8
D-STR-HTXT
  6
Continuous
 62
     5
370
    13
100
AcDbLine
 10
70.65579937354877
 20
165.93813594236
 30
0.0
 11
70.84563178069965
 21
166.2121336947347
 31
0.0
  0
LINE
  5
463
330
1F
100
AcDbEntity
  8
D-STR-HTXT
  6
Continuous
 62
     5
370
    13
100
AcDbLine
 10
70.51038396283901
 20
166.079435161888
 30
0.0
 11
70.67478261426386
 21
165.9655357175975
 31
0.0
  0
LINE
  5
464
330
1F
100
AcDbEntity
  8
D-STR-HTXT
  6
Continuous
 62
     5
370
    13
100
AcDbLine
 10
70.69376585497895
 20
165.9929354928349
 30
0.0
 11
70.36496855212927
 21
166.220734381416
 31
0.0
  0
LINE
  5
465
330
1F
100
AcDbEntity
  8
D-STR-HTXT
  6
Continuous
 62
     5
370
    13
100
AcDbLine
 10
70.21955314141951
 20
166.362033600944
 30
0.0
 11
70.71274909569404
 21
166.0203352680724
 31
0.0
  0
LINE
  5
466
330
1F
100
AcDbEntity
  8
D-STR-HTXT
  6
Continuous
 62
     5
370
    13
100
AcDbLine
 10
70.73173233640912
 20
166.0477350433099
 30
0.0
 11
70.07413773070975
 21
166.503332820472
 31
0.0
  0
LINE
  5
467
330
1F
100
AcDbEntity
  8
D-STR-HTXT
  6
Continuous
 62
     5
370
    13
100
AcDbLine
 10
69.92872232
 20
166.64463204
 30
0.0
 11
70.75071557712421
 21
166.0751348185474
 31
0.0
  0
LINE
  5
468
330
1F
100
AcDbEntity
  8
D-STR-HTXT
  6
Continuous
 62
     5
370
    13
100
AcDbLine
 10
70.7696988178393
 20
166.1025345937848
 30
0.0
 11
70.11210421213993
 21
166.558132370947
 31
0.0
  0
LINE
  5
469
330
1F
100
AcDbEntity
  8
D-STR-HTXT
  6
Continuous
 62
     5
370
    13
100
AcDbLine
 10
70.29548610427986
 20
166.4716327018939
 30
0.0
 11
70.78868205855439
 21
166.1299343690223
 31
0.0
  0
LINE
  5
46A
330
1F
100
AcDbEntity
  8
D-STR-HTXT
  6
Continuous
 62
     5
370
    13
100
AcDbLine
 10
70.80766529926947
 20
166.1573341442598
 30
0.0
 11
70.4788679964198
 21
166.3851330328408
 31
0.0
  0
LINE
  5
46B
330
1F
100
AcDbEntity
  8
D-STR-HTXT
  6
Continuous
 62
     5
370
    13
100
AcDbLine
 10
70.66224988855971
 20
166.2986333637878
 30
0.0
 11
70.82664853998456
 21
166.1847339194973
 31
0.0
  0
LINE
  5
46C
330
1F
100
AcDbEntity
  8
D-STR-HTXT
  6
Continuous
 62
     5
370
    13
100
AcDbLine
 10
77.14951328000001
 20
161.6418898
 30
0.0
 11
103.44951328
 21
161.6418898
 31
0.0
  0
TEXT
  5
46D
330
1F
100
AcDbEntity
  8
D-STR-HTXT
  6
Continuous
 62
     5
370
    13
100
AcDbText
 10
81.63284661333333
 20
162.649311675
 30
0.0
 40
2.777777777777778
  1
コンクリート
 41
0.8
  7
ＭＳ ゴシック
 72
     1
 11
90.29951328
 21
162.1418898
 31
0.0
100
AcDbText
 73
     1
  0
LINE
  5
46E
330
1F
100
AcDbEntity
  8
D-STR-HTXT
  6
Continuous
 62
     5
370
    13
100
AcDbLine
 10
64.81324314436586
 20
155.3628107983969
 30
0.0
 11
59.72390952000001
 21
160.72491158
 31
0.0
  0
LINE
  5
46F
330
1F
100
AcDbEntity
  8
D-STR-HTXT
  6
Continuous
 62
     5
370
    13
100
AcDbLine
 10
65.50166106
 20
154.63749654
 30
0.0
 11
64.93412885409867
 21
155.4775471176693
 31
0.0
  0
LINE
  5
470
330
1F
100
AcDbEntity
  8
D-STR-HTXT
  6
Continuous
 62
     5
370
    13
100
AcDbLine
 10
65.50166106
 20
154.63749654
 30
0.0
 11
64.69235743463304
 21
155.2480744791246
 31
0.0
  0
LINE
  5
471
330
1F
100
AcDbEntity
  8
D-STR-HTXT
  6
Continuous
 62
     5
370
    13
100
AcDbLine
 10
64.93412885409867
 20
155.4775471176693
 30
0.0
 11
64.69235743463304
 21
155.2480744791246
 31
0.0
  0
LINE
  5
472
330
1F
100
AcDbEntity
  8
D-STR-HTXT
  6
Continuous
 62
     5
370
    13
100
AcDbLine
 10
65.04763529527894
 20
155.3095370021354
 30
0.0
 11
64.90995171215211
 21
155.4545998538148
 31
0.0
  0
LINE
  5
473
330
1F
100
AcDbEntity
  8
D-STR-HTXT
  6
Continuous
 62
     5
370
    13
100
AcDbLine
 10
64.88577457020554
 20
155.4316525899603
 30
0.0
 11
65.1611417364592
 21
155.1415268866016
 31
0.0
  0
LINE
  5
474
330
1F
100
AcDbEntity
  8
D-STR-HTXT
  6
Continuous
 62
     5
370
    13
100
AcDbLine
 10
65.27464817763946
 20
154.9735167710677
 30
0.0
 11
64.86159742825897
 21
155.4087053261059
 31
0.0
  0
LINE
  5
475
330
1F
100
AcDbEntity
  8
D-STR-HTXT
  6
Continuous
 62
     5
370
    13
100
AcDbLine
 10
64.83742028631242
 20
155.3857580622514
 30
0.0
 11
65.38815461881974
 21
154.8055066555339
 31
0.0
  0
LINE
  5
476
330
1F
100
AcDbEntity
  8
D-STR-HTXT
  6
Continuous
 62
     5
370
    13
100
AcDbLine
 10
65.50166106
 20
154.63749654
 30
0.0
 11
64.81324314436586
 21
155.3628107983969
 31
0.0
  0
LINE
  5
477
330
1F
100
AcDbEntity
  8
D-STR-HTXT
  6
Continuous
 62
     5
370
    13
100
AcDbLine
 10
64.78906600241929
 20
155.3398635345424
 30
0.0
 11
65.33980033492661
 21
154.7596121278249
 31
0.0
  0
LINE
  5
478
330
1F
100
AcDbEntity
  8
D-STR-HTXT
  6
Continuous
 62
     5
370
    13
100
AcDbLine
 10
65.17793960985321
 20
154.8817277156498
 30
0.0
 11
64.76488886047272
 21
155.316916270688
 31
0.0
  0
LINE
  5
479
330
1F
100
AcDbEntity
  8
D-STR-HTXT
  6
Continuous
 62
     5
370
    13
100
AcDbLine
 10
64.74071171852616
 20
155.2939690068335
 30
0.0
 11
65.01607888477982
 21
155.0038433034747
 31
0.0
  0
LINE
  5
47A
330
1F
100
AcDbEntity
  8
D-STR-HTXT
  6
Continuous
 62
     5
370
    13
100
AcDbLine
 10
64.85421815970642
 20
155.1259588912996
 30
0.0
 11
64.71653457657959
 21
155.271021742979
 31
0.0
  0
LINE
  5
47B
330
1F
100
AcDbEntity
  8
D-STR-HTXT
  6
Continuous
 62
     5
370
    13
100
AcDbLine
 10
59.72390952
 20
160.72491158
 30
0.0
 11
33.42390952
 21
160.72491158
 31
0.0
  0
TEXT
  5
47C
330
1F
100
AcDbEntity
  8
D-STR-HTXT
  6
Continuous
 62
     5
370
    13
100
AcDbText
 10
37.90724285333333
 20
161.732333455
 30
0.0
 40
2.777777777777778
  1
アンカーバー
 41
0.8
  7
ＭＳ ゴシック
 72
     1
 11
46.57390951999999
 21
161.22491158
 31
0.0
100
AcDbText
 73
     1
  0
LINE
  5
47D
330
1F
100
AcDbEntity
  8
D-STR-HTXT
  6
Continuous
 62
     5
370
    13
100
AcDbLine
 10
67.25449849236581
 20
146.5068444579487
 30
0.0
 11
71.1088506
 21
135.66087688
 31
0.0
  0
LINE
  5
47E
330
1F
100
AcDbEntity
  8
D-STR-HTXT
  6
Continuous
 62
     5
370
    13
100
AcDbLine
 10
66.91964245999999
 20
147.44911376
 30
0.0
 11
67.0974536086906
 21
146.4510351192211
 31
0.0
  0
LINE
  5
47F
330
1F
100
AcDbEntity
  8
D-STR-HTXT
  6
Continuous
 62
     5
370
    13
100
AcDbLine
 10
66.91964245999999
 20
147.44911376
 30
0.0
 11
67.41154337604102
 21
146.5626537966764
 31
0.0
  0
LINE
  5
480
330
1F
100
AcDbEntity
  8
D-STR-HTXT
  6
Continuous
 62
     5
370
    13
100
AcDbLine
 10
67.0974536086906
 20
146.4510351192211
 30
0.0
 11
67.41154337604102
 21
146.5626537966764
 31
0.0
  0
LINE
  5
481
330
1F
100
AcDbEntity
  8
D-STR-HTXT
  6
Continuous
 62
     5
370
    13
100
AcDbLine
 10
67.06189137895248
 20
146.6506508473769
 30
0.0
 11
67.12886258542564
 21
146.4621969869667
 31
0.0
  0
LINE
  5
482
330
1F
100
AcDbEntity
  8
D-STR-HTXT
  6
Continuous
 62
     5
370
    13
100
AcDbLine
 10
67.16027156216069
 20
146.4733588547122
 30
0.0
 11
67.02632914921438
 21
146.8502665755327
 31
0.0
  0
LINE
  5
483
330
1F
100
AcDbEntity
  8
D-STR-HTXT
  6
Continuous
 62
     5
370
    13
100
AcDbLine
 10
66.99076691947626
 20
147.0498823036885
 30
0.0
 11
67.19168053889572
 21
146.4845207224577
 31
0.0
  0
LINE
  5
484
330
1F
100
AcDbEntity
  8
D-STR-HTXT
  6
Continuous
 62
     5
370
    13
100
AcDbLine
 10
67.22308951563078
 20
146.4956825902032
 30
0.0
 11
66.95520468973817
 21
147.2494980318443
 31
0.0
  0
LINE
  5
485
330
1F
100
AcDbEntity
  8
D-STR-HTXT
  6
Continuous
 62
     5
370
    13
100
AcDbLine
 10
66.91964246000005
 20
147.44911376
 30
0.0
 11
67.25449849236581
 21
146.5068444579488
 31
0.0
  0
LINE
  5
486
330
1F
100
AcDbEntity
  8
D-STR-HTXT
  6
Continuous
 62
     5
370
    13
100
AcDbLine
 10
67.28590746910086
 20
146.5180063256943
 30
0.0
 11
67.01802264320825
 21
147.2718217673353
 31
0.0
  0
LINE
  5
487
330
1F
100
AcDbEntity
  8
D-STR-HTXT
  6
Continuous
 62
     5
370
    13
100
AcDbLine
 10
67.11640282641643
 20
147.0945297746706
 30
0.0
 11
67.3173164458359
 21
146.5291681934398
 31
0.0
  0
LINE
  5
488
330
1F
100
AcDbEntity
  8
D-STR-HTXT
  6
Continuous
 62
     5
370
    13
100
AcDbLine
 10
67.34872542257094
 20
146.5403300611853
 30
0.0
 11
67.21478300962463
 21
146.9172377820058
 31
0.0
  0
LINE
  5
489
330
1F
100
AcDbEntity
  8
D-STR-HTXT
  6
Continuous
 62
     5
370
    13
100
AcDbLine
 10
67.31316319283283
 20
146.7399457893411
 30
0.0
 11
67.38013439930599
 21
146.5514919289309
 31
0.0
  0
LINE
  5
48A
330
1F
100
AcDbEntity
  8
D-STR-HTXT
  6
Continuous
 62
     5
370
    13
100
AcDbLine
 10
71.1088506
 20
135.66087688
 30
0.0
 11
111.4088506
 21
135.66087688
 31
0.0
  0
TEXT
  5
48B
330
1F
100
AcDbEntity
  8
D-STR-HTXT
  6
Continuous
 62
     5
370
    13
100
AcDbText
 10
76.81440615555557
 20
136.668298755
 30
0.0
 40
2.777777777777778
  1
再生クラッシャーラン
 41
0.8000000000000002
  7
ＭＳ ゴシック
 72
     1
 11
91.25885060000002
 21
136.16087688
 31
0.0
100
AcDbText
 73
     1
  0
LINE
  5
48C
330
1F
100
AcDbEntity
  8
D-TTL-LINE
  6
Continuous
 62
     7
370
    13
100
AcDbLine
 10
55.45804718
 20
123.0074451
 30
0.0
 11
79.86846564000001
 21
123.0074451
 31
0.0
  0
TEXT
  5
48D
330
1F
100
AcDbEntity
  8
D-TTL-TXT
  6
Continuous
 62
     7
370
    13
100
AcDbText
 10
57.90925720000001
 20
123.8967632928571
 30
0.0
 40
3.968253968253968
  1
断 面 図
 41
0.8
  7
ＭＳ ゴシック
 11
57.90925720000001
 21
123.1718749
 31
0.0
100
AcDbText
 73
     1
  0
LINE
  5
48E
330
1F
100
AcDbEntity
  8
D-STR
  6
Continuous
 62
     1
370
    50
100
AcDbLine
 10
72.21711932000001
 20
113.43948474
 30
0.0
 11
62.21712032000001
 21
113.43948474
 31
0.0
  0
LINE
  5
48F
330
1F
100
AcDbEntity
  8
D-STR
  6
Continuous
 62
     1
370
    50
100
AcDbLine
 10
72.21711932000001
 20
103.43948474
 30
0.0
 11
72.21711932000001
 21
113.43948474
 31
0.0
  0
LINE
  5
490
330
1F
100
AcDbEntity
  8
D-STR
  6
Continuous
 62
     1
370
    50
100
AcDbLine
 10
72.21711932000001
 20
103.43948474
 30
0.0
 11
62.21712032000001
 21
103.43948474
 31
0.0
  0
LINE
  5
491
330
1F
100
AcDbEntity
  8
D-STR
  6
Continuous
 62
     1
370
    50
100
AcDbLine
 10
62.21712032000001
 20
103.43948474
 30
0.0
 11
62.21712032000001
 21
113.43948474
 31
0.0
  0
CIRCLE
  5
492
330
1F
100
AcDbEntity
  8
D-STR
  6
Continuous
 62
     1
370
    50
100
AcDbCircle
 10
67.21711982
 20
108.43948474
 30
0.0
 40
0.763
  0
CIRCLE
  5
493
330
1F
100
AcDbEntity
  8
D-STR
  6
Continuous
 62
     1
370
    50
100
AcDbCircle
 10
67.21711982
 20
108.43948474
 30
0.0
 40
5.0
  0
DIMENSION
  5
494
330
1F
100
AcDbEntity
  8
D-STR-DIM
  6
Continuous
 62
     5
370
    13
100
AcDbDimension
  2
*D7
 10
87.21711932000001
 20
103.43948474
 30
0.0
 11
84.96711932000001
 21
108.43948474
 31
0.0
 70
   160
  1
500
 71
     5
 42
10.0
 53
90.0
  3
Standard
100
AcDbAlignedDimension
 13
72.21711932000001
 23
113.43948474
 33
0.0
 14
72.21711932000001
 24
103.43948474
 34
0.0
 50
270.0
100
AcDbRotatedDimension
1001
ACAD
1000
DSTYLE
1002
{
1070
   271
1070
     2
1070
   178
1070
     5
1070
   177
1070
     5
1070
   176
1070
     5
1070
   289
1070
     3
1070
    77
1070
     1
1070
   174
1070
     1
1070
   172
1070
     1
1070
    73
1070
     1
1070
    74
1070
     0
1070
   173
1070
     1
1070
   279
1070
     2
1070
    44
1040
1.0
1070
    42
1040
1.0
1070
   147
1040
0.0
1070
   140
1040
2.777777777777778
1070
    41
1040
0.9999999999999749
1070
   340
1005
4F
1002
}
  0
DIMENSION
  5
4A1
330
1F
100
AcDbEntity
  8
D-STR-DIM
  6
Continuous
 62
     5
370
    13
100
AcDbDimension
  2
*D8
 10
72.21711932000001
 20
88.43948474000001
 30
0.0
 11
67.21711982
 21
90.68948474000001
 31
0.0
 70
   160
  1
500
 71
     5
 42
9.999999000000003
  3
Standard
100
AcDbAlignedDimension
 13
62.21712032000001
 23
103.43948474
 33
0.0
 14
72.21711932000001
 24
103.43948474
 34
0.0
100
AcDbRotatedDimension
1001
ACAD
1000
DSTYLE
1002
{
1070
   271
1070
     2
1070
   178
1070
     5
1070
   177
1070
     5
1070
   176
1070
     5
1070
   289
1070
     3
1070
    77
1070
     1
1070
   174
1070
     1
1070
   172
1070
     1
1070
    73
1070
     0
1070
    74
1070
     0
1070
   173
1070
     1
1070
   279
1070
     2
1070
    44
1040
1.0
1070
    42
1040
1.0
1070
   147
1040
0.0
1070
   140
1040
2.777777777777778
1070
    41
1040
0.9999999999999749
1070
   340
1005
4F
1002
}
  0
LINE
  5
4AE
330
1F
100
AcDbEntity
  8
D-STR-HTXT
  6
Continuous
 62
     5
370
    13
100
AcDbLine
 10
62.13172359461419
 20
111.5418788584565
 30
0.0
 11
57.36984215999999
 21
112.90576138
 31
0.0
  0
LINE
  5
4AF
330
1F
100
AcDbEntity
  8
D-STR-HTXT
  6
Continuous
 62
     5
370
    13
100
AcDbLine
 10
63.09306896
 20
111.26653346
 30
0.0
 11
62.17761449435694
 21
111.7021030860208
 31
0.0
  0
LINE
  5
4B0
330
1F
100
AcDbEntity
  8
D-STR-HTXT
  6
Continuous
 62
     5
370
    13
100
AcDbLine
 10
63.09306896
 20
111.26653346
 30
0.0
 11
62.08583269487144
 21
111.3816546308922
 31
0.0
  0
LINE
  5
4B1
330
1F
100
AcDbEntity
  8
D-STR-HTXT
  6
Continuous
 62
     5
370
    13
100
AcDbLine
 10
62.17761449435694
 20
111.7021030860208
 30
0.0
 11
62.08583269487144
 21
111.3816546308922
 31
0.0
  0
LINE
  5
4B2
330
1F
100
AcDbEntity
  8
D-STR-HTXT
  6
Continuous
 62
     5
370
    13
100
AcDbLine
 10
62.36070538748556
 20
111.6149891608166
 30
0.0
 11
62.1684363144084
 21
111.670058240508
 31
0.0
  0
LINE
  5
4B3
330
1F
100
AcDbEntity
  8
D-STR-HTXT
  6
Continuous
 62
     5
370
    13
100
AcDbLine
 10
62.15925813445985
 20
111.6380133949951
 30
0.0
 11
62.54379628061417
 21
111.5278752356125
 31
0.0
  0
LINE
  5
4B4
330
1F
100
AcDbEntity
  8
D-STR-HTXT
  6
Continuous
 62
     5
370
    13
100
AcDbLine
 10
62.72688717374277
 20
111.4407613104083
 30
0.0
 11
62.15007995451129
 21
111.6059685494822
 31
0.0
  0
LINE
  5
4B5
330
1F
100
AcDbEntity
  8
D-STR-HTXT
  6
Continuous
 62
     5
370
    13
100
AcDbLine
 10
62.14090177456274
 20
111.5739237039694
 30
0.0
 11
62.90997806687139
 21
111.3536473852042
 31
0.0
  0
LINE
  5
4B6
330
1F
100
AcDbEntity
  8
D-STR-HTXT
  6
Continuous
 62
     5
370
    13
100
AcDbLine
 10
63.09306896
 20
111.26653346
 30
0.0
 11
62.13172359461419
 21
111.5418788584565
 31
0.0
  0
LINE
  5
4B7
330
1F
100
AcDbEntity
  8
D-STR-HTXT
  6
Continuous
 62
     5
370
    13
100
AcDbLine
 10
62.12254541466564
 20
111.5098340129437
 30
0.0
 11
62.89162170697429
 21
111.2895576941784
 31
0.0
  0
LINE
  5
4B8
330
1F
100
AcDbEntity
  8
D-STR-HTXT
  6
Continuous
 62
     5
370
    13
100
AcDbLine
 10
62.69017445394857
 20
111.3125819283569
 30
0.0
 11
62.11336723471709
 21
111.4777891674308
 31
0.0
  0
LINE
  5
4B9
330
1F
100
AcDbEntity
  8
D-STR-HTXT
  6
Continuous
 62
     5
370
    13
100
AcDbLine
 10
62.10418905476854
 20
111.4457443219179
 30
0.0
 11
62.48872720092286
 21
111.3356061625353
 31
0.0
  0
LINE
  5
4BA
330
1F
100
AcDbEntity
  8
D-STR-HTXT
  6
Continuous
 62
     5
370
    13
100
AcDbLine
 10
62.28727994789715
 20
111.3586303967138
 30
0.0
 11
62.09501087481999
 21
111.4136994764051
 31
0.0
  0
LINE
  5
4BB
330
1F
100
AcDbEntity
  8
D-STR-HTXT
  6
Continuous
 62
     5
370
    13
100
AcDbLine
 10
57.36984216
 20
112.90576138
 30
0.0
 11
24.06984216
 21
112.90576138
 31
0.0
  0
TEXT
  5
4BC
330
1F
100
AcDbEntity
  8
D-STR-HTXT
  6
Continuous
 62
     5
370
    13
100
AcDbText
 10
29.16428660444444
 20
113.913183255
 30
0.0
 40
2.777777777777778
  1
スパイラルダクト
 41
0.8
  7
ＭＳ ゴシック
 72
     1
 11
40.71984216
 21
113.40576138
 31
0.0
100
AcDbText
 73
     1
  0
LINE
  5
4BD
330
1F
100
AcDbEntity
  8
D-STR-HTXT
  6
Continuous
 62
     5
370
    13
100
AcDbLine
 10
62.35725501327847
 20
103.7305815717892
 30
0.0
 11
55.68270094
 21
97.47983958
 31
0.0
  0
LINE
  5
4BE
330
1F
100
AcDbEntity
  8
D-STR-HTXT
  6
Continuous
 62
     5
370
    13
100
AcDbLine
 10
63.0871551
 20
104.41413542
 30
0.0
 11
62.24332937191
 21
103.8522315862428
 31
0.0
  0
LINE
  5
4BF
330
1F
100
AcDbEntity
  8
D-STR-HTXT
  6
Continuous
 62
     5
370
    13
100
AcDbLine
 10
63.0871551
 20
104.41413542
 30
0.0
 11
62.47118065464694
 21
103.6089315573356
 31
0.0
  0
LINE
  5
4C0
330
1F
100
AcDbEntity
  8
D-STR-HTXT
  6
Continuous
 62
     5
370
    13
100
AcDbLine
 10
62.24332937191
 20
103.8522315862428
 30
0.0
 11
62.47118065464694
 21
103.6089315573356
 31
0.0
  0
LINE
  5
4C1
330
1F
100
AcDbEntity
  8
D-STR-HTXT
  6
Continuous
 62
     5
370
    13
100
AcDbLine
 10
62.412094517528
 20
103.9646123529942
 30
0.0
 11
62.2661145001837
 21
103.827901583352
 31
0.0
  0
LINE
  5
4C2
330
1F
100
AcDbEntity
  8
D-STR-HTXT
  6
Continuous
 62
     5
370
    13
100
AcDbLine
 10
62.28889962845739
 20
103.8035715804613
 30
0.0
 11
62.58085966314601
 21
104.0769931197457
 31
0.0
  0
LINE
  5
4C3
330
1F
100
AcDbEntity
  8
D-STR-HTXT
  6
Continuous
 62
     5
370
    13
100
AcDbLine
 10
62.749624808764
 20
104.1893738864971
 30
0.0
 11
62.31168475673108
 21
103.7792415775706
 31
0.0
  0
LINE
  5
4C4
330
1F
100
AcDbEntity
  8
D-STR-HTXT
  6
Continuous
 62
     5
370
    13
100
AcDbLine
 10
62.33446988500478
 20
103.7549115746799
 30
0.0
 11
62.918389954382
 21
104.3017546532486
 31
0.0
  0
LINE
  5
4C5
330
1F
100
AcDbEntity
  8
D-STR-HTXT
  6
Continuous
 62
     5
370
    13
100
AcDbLine
 10
63.0871551
 20
104.41413542
 30
0.0
 11
62.35725501327848
 21
103.7305815717892
 31
0.0
  0
LINE
  5
4C6
330
1F
100
AcDbEntity
  8
D-STR-HTXT
  6
Continuous
 62
     5
370
    13
100
AcDbLine
 10
62.38004014155217
 20
103.7062515688985
 30
0.0
 11
62.96396021092939
 21
104.2530946474671
 31
0.0
  0
LINE
  5
4C7
330
1F
100
AcDbEntity
  8
D-STR-HTXT
  6
Continuous
 62
     5
370
    13
100
AcDbLine
 10
62.84076532185878
 20
104.0920538749342
 30
0.0
 11
62.40282526982586
 21
103.6819215660077
 31
0.0
  0
LINE
  5
4C8
330
1F
100
AcDbEntity
  8
D-STR-HTXT
  6
Continuous
 62
     5
370
    13
100
AcDbLine
 10
62.42561039809956
 20
103.657591563117
 30
0.0
 11
62.71757043278817
 21
103.9310131024014
 31
0.0
  0
LINE
  5
4C9
330
1F
100
AcDbEntity
  8
D-STR-HTXT
  6
Continuous
 62
     5
370
    13
100
AcDbLine
 10
62.59437554371756
 20
103.7699723298685
 30
0.0
 11
62.44839552637325
 21
103.6332615602263
 31
0.0
  0
LINE
  5
4CA
330
1F
100
AcDbEntity
  8
D-STR-HTXT
  6
Continuous
 62
     5
370
    13
100
AcDbLine
 10
55.68270094
 20
97.47983958
 30
0.0
 11
39.88270094
 21
97.47983958
 31
0.0
  0
TEXT
  5
4CB
330
1F
100
AcDbEntity
  8
D-STR-HTXT
  6
Continuous
 62
     5
370
    13
100
AcDbText
 10
43.44936760666667
 20
98.48726145500001
 30
0.0
 40
2.777777777777778
  1
発生土
 41
0.8
  7
ＭＳ ゴシック
 72
     1
 11
47.78270094000001
 21
97.97983958
 31
0.0
100
AcDbText
 73
     1
  0
LINE
  5
4CC
330
1F
100
AcDbEntity
  8
D-STR-HTXT
  6
Continuous
 62
     5
370
    13
100
AcDbLine
 10
135.6013592440778
 20
173.5836619824533
 30
0.0
 11
127.263289
 21
182.92872636
 31
0.0
  0
LINE
  5
4CD
330
1F
100
AcDbEntity
  8
D-STR-HTXT
  6
Continuous
 62
     5
370
    13
100
AcDbLine
 10
136.26712008
 20
172.83749678
 30
0.0
 11
135.7257201111534
 21
173.6946221217736
 31
0.0
  0
LINE
  5
4CE
330
1F
100
AcDbEntity
  8
D-STR-HTXT
  6
Continuous
 62
     5
370
    13
100
AcDbLine
 10
136.26712008
 20
172.83749678
 30
0.0
 11
135.4769983770023
 21
173.4727018431329
 31
0.0
  0
LINE
  5
4CF
330
1F
100
AcDbEntity
  8
D-STR-HTXT
  6
Continuous
 62
     5
370
    13
100
AcDbLine
 10
135.7257201111534
 20
173.6946221217736
 30
0.0
 11
135.4769983770023
 21
173.4727018431329
 31
0.0
  0
LINE
  5
4D0
330
1F
100
AcDbEntity
  8
D-STR-HTXT
  6
Continuous
 62
     5
370
    13
100
AcDbLine
 10
135.8340001049227
 20
173.5231970534189
 30
0.0
 11
135.7008479377383
 21
173.6724300939096
 31
0.0
  0
LINE
  5
4D1
330
1F
100
AcDbEntity
  8
D-STR-HTXT
  6
Continuous
 62
     5
370
    13
100
AcDbLine
 10
135.6759757643232
 20
173.6502380660455
 30
0.0
 11
135.942280098692
 21
173.3517719850642
 31
0.0
  0
LINE
  5
4D2
330
1F
100
AcDbEntity
  8
D-STR-HTXT
  6
Continuous
 62
     5
370
    13
100
AcDbLine
 10
136.0505600924614
 20
173.1803469167095
 30
0.0
 11
135.651103590908
 21
173.6280460381814
 31
0.0
  0
LINE
  5
4D3
330
1F
100
AcDbEntity
  8
D-STR-HTXT
  6
Continuous
 62
     5
370
    13
100
AcDbLine
 10
135.6262314174929
 20
173.6058540103174
 30
0.0
 11
136.1588400862307
 21
173.0089218483547
 31
0.0
  0
LINE
  5
4D4
330
1F
100
AcDbEntity
  8
D-STR-HTXT
  6
Continuous
 62
     5
370
    13
100
AcDbLine
 10
136.26712008
 20
172.83749678
 30
0.0
 11
135.6013592440778
 21
173.5836619824533
 31
0.0
  0
LINE
  5
4D5
330
1F
100
AcDbEntity
  8
D-STR-HTXT
  6
Continuous
 62
     5
370
    13
100
AcDbLine
 10
135.5764870706627
 20
173.5614699545892
 30
0.0
 11
136.1090957394005
 21
172.9645377926266
 31
0.0
  0
LINE
  5
4D6
330
1F
100
AcDbEntity
  8
D-STR-HTXT
  6
Continuous
 62
     5
370
    13
100
AcDbLine
 10
135.9510713988009
 20
173.0915788052532
 30
0.0
 11
135.5516148972476
 21
173.5392779267251
 31
0.0
  0
LINE
  5
4D7
330
1F
100
AcDbEntity
  8
D-STR-HTXT
  6
Continuous
 62
     5
370
    13
100
AcDbLine
 10
135.5267427238325
 20
173.5170858988611
 30
0.0
 11
135.7930470582014
 21
173.2186198178798
 31
0.0
  0
LINE
  5
4D8
330
1F
100
AcDbEntity
  8
D-STR-HTXT
  6
Continuous
 62
     5
370
    13
100
AcDbLine
 10
135.6350227176018
 20
173.3456608305063
 30
0.0
 11
135.5018705504174
 21
173.494893870997
 31
0.0
  0
LINE
  5
4D9
330
1F
100
AcDbEntity
  8
D-STR-HTXT
  6
Continuous
 62
     5
370
    13
100
AcDbLine
 10
127.263289
 20
182.92872636
 30
0.0
 11
102.363289
 21
182.92872636
 31
0.0
  0
TEXT
  5
4DA
330
1F
100
AcDbEntity
  8
D-STR-HTXT
  6
Continuous
 62
     5
370
    13
100
AcDbText
 10
107.5910667777778
 20
183.936148235
 30
0.0
 40
2.777777777777778
  1
□500×500
 41
0.8000000000000002
  7
ＭＳ ゴシック
 72
     1
 11
114.813289
 21
183.42872636
 31
0.0
100
AcDbText
 73
     1
  0
LINE
  5
4DB
330
1F
100
AcDbEntity
  8
D-TTL-LINE
  6
Continuous
 62
     7
370
    13
100
AcDbLine
 10
127.45804718
 20
123.0074451
 30
0.0
 11
151.86846564
 21
123.0074451
 31
0.0
  0
TEXT
  5
4DC
330
1F
100
AcDbEntity
  8
D-TTL-TXT
  6
Continuous
 62
     7
370
    13
100
AcDbText
 10
129.9092572
 20
123.8967632928571
 30
0.0
 40
3.968253968253968
  1
断 面 図
 41
0.8
  7
ＭＳ ゴシック
 11
129.9092572
 21
123.1718749
 31
0.0
100
AcDbText
 73
     1
  0
LINE
  5
4DD
330
1F
100
AcDbEntity
  8
D-STR
  6
Continuous
 62
     1
370
    50
100
AcDbLine
 10
144.21711932
 20
113.43948474
 30
0.0
 11
134.21712032
 21
113.43948474
 31
0.0
  0
LINE
  5
4DE
330
1F
100
AcDbEntity
  8
D-STR
  6
Continuous
 62
     1
370
    50
100
AcDbLine
 10
144.21711932
 20
103.43948474
 30
0.0
 11
144.21711932
 21
113.43948474
 31
0.0
  0
LINE
  5
4DF
330
1F
100
AcDbEntity
  8
D-STR
  6
Continuous
 62
     1
370
    50
100
AcDbLine
 10
144.21711932
 20
103.43948474
 30
0.0
 11
134.21712032
 21
103.43948474
 31
0.0
  0
LINE
  5
4E0
330
1F
100
AcDbEntity
  8
D-STR
  6
Continuous
 62
     1
370
    50
100
AcDbLine
 10
134.21712032
 20
103.43948474
 30
0.0
 11
134.21712032
 21
113.43948474
 31
0.0
  0
CIRCLE
  5
4E1
330
1F
100
AcDbEntity
  8
D-STR
  6
Continuous
 62
     1
370
    50
100
AcDbCircle
 10
139.21711982
 20
108.43948474
 30
0.0
 40
0.763
  0
CIRCLE
  5
4E2
330
1F
100
AcDbEntity
  8
D-STR
  6
Continuous
 62
     1
370
    50
100
AcDbCircle
 10
139.21711982
 20
108.43948474
 30
0.0
 40
5.0
  0
DIMENSION
  5
4E3
330
1F
100
AcDbEntity
  8
D-STR-DIM
  6
Continuous
 62
     5
370
    13
100
AcDbDimension
  2
*D9
 10
159.21711932
 20
103.43948474
 30
0.0
 11
156.96711932
 21
108.43948474
 31
0.0
 70
   160
  1
500
 71
     5
 42
10.0
 53
90.0
  3
Standard
100
AcDbAlignedDimension
 13
144.21711932
 23
113.43948474
 33
0.0
 14
144.21711932
 24
103.43948474
 34
0.0
 50
270.0
100
AcDbRotatedDimension
1001
ACAD
1000
DSTYLE
1002
{
1070
   271
1070
     2
1070
   178
1070
     5
1070
   177
1070
     5
1070
   176
1070
     5
1070
   289
1070
     3
1070
    77
1070
     1
1070
   174
1070
     1
1070
   172
1070
     1
1070
    73
1070
     1
1070
    74
1070
     0
1070
   173
1070
     1
1070
   279
1070
     2
1070
    44
1040
1.0
1070
    42
1040
1.0
1070
   147
1040
0.0
1070
   140
1040
2.777777777777778
1070
    41
1040
0.9999999999999749
1070
   340
1005
4F
1002
}
  0
DIMENSION
  5
4F0
330
1F
100
AcDbEntity
  8
D-STR-DIM
  6
Continuous
 62
     5
370
    13
100
AcDbDimension
  2
*D10
 10
144.21711932
 20
88.43948474000001
 30
0.0
 11
139.21711982
 21
90.68948474000001
 31
0.0
 70
   160
  1
500
 71
     5
 42
9.999999000000003
  3
Standard
100
AcDbAlignedDimension
 13
134.21712032
 23
103.43948474
 33
0.0
 14
144.21711932
 24
103.43948474
 34
0.0
100
AcDbRotatedDimension
1001
ACAD
1000
DSTYLE
1002
{
1070
   271
1070
     2
1070
   178
1070
     5
1070
   177
1070
     5
1070
   176
1070
     5
1070
   289
1070
     3
1070
    77
1070
     1
1070
   174
1070
     1
1070
   172
1070
     1
1070
    73
1070
     0
1070
    74
1070
     0
1070
   173
1070
     1
1070
   279
1070
     2
1070
    44
1040
1.0
1070
    42
1040
1.0
1070
   147
1040
0.0
1070
   140
1040
2.777777777777778
1070
    41
1040
0.9999999999999749
1070
   340
1005
4F
1002
}
  0
LINE
  5
4FD
330
1F
100
AcDbEntity
  8
D-STR-HTXT
  6
Continuous
 62
     5
370
    13
100
AcDbLine
 10
134.1317235946142
 20
111.5418788584565
 30
0.0
 11
129.36984216
 21
112.90576138
 31
0.0
  0
LINE
  5
4FE
330
1F
100
AcDbEntity
  8
D-STR-HTXT
  6
Continuous
 62
     5
370
    13
100
AcDbLine
 10
135.09306896
 20
111.26653346
 30
0.0
 11
134.177614494357
 21
111.7021030860208
 31
0.0
  0
LINE
  5
4FF
330
1F
100
AcDbEntity
  8
D-STR-HTXT
  6
Continuous
 62
     5
370
    13
100
AcDbLine
 10
135.09306896
 20
111.26653346
 30
0.0
 11
134.0858326948714
 21
111.3816546308922
 31
0.0
  0
LINE
  5
500
330
1F
100
AcDbEntity
  8
D-STR-HTXT
  6
Continuous
 62
     5
370
    13
100
AcDbLine
 10
134.177614494357
 20
111.7021030860208
 30
0.0
 11
134.0858326948714
 21
111.3816546308922
 31
0.0
  0
LINE
  5
501
330
1F
100
AcDbEntity
  8
D-STR-HTXT
  6
Continuous
 62
     5
370
    13
100
AcDbLine
 10
134.3607053874856
 20
111.6149891608166
 30
0.0
 11
134.1684363144084
 21
111.6700582405079
 31
0.0
  0
LINE
  5
502
330
1F
100
AcDbEntity
  8
D-STR-HTXT
  6
Continuous
 62
     5
370
    13
100
AcDbLine
 10
134.1592581344599
 20
111.6380133949951
 30
0.0
 11
134.5437962806142
 21
111.5278752356125
 31
0.0
  0
LINE
  5
503
330
1F
100
AcDbEntity
  8
D-STR-HTXT
  6
Continuous
 62
     5
370
    13
100
AcDbLine
 10
134.7268871737428
 20
111.4407613104083
 30
0.0
 11
134.1500799545113
 21
111.6059685494822
 31
0.0
  0
LINE
  5
504
330
1F
100
AcDbEntity
  8
D-STR-HTXT
  6
Continuous
 62
     5
370
    13
100
AcDbLine
 10
134.1409017745628
 20
111.5739237039694
 30
0.0
 11
134.9099780668714
 21
111.3536473852041
 31
0.0
  0
LINE
  5
505
330
1F
100
AcDbEntity
  8
D-STR-HTXT
  6
Continuous
 62
     5
370
    13
100
AcDbLine
 10
135.09306896
 20
111.2665334599999
 30
0.0
 11
134.1317235946142
 21
111.5418788584565
 31
0.0
  0
LINE
  5
506
330
1F
100
AcDbEntity
  8
D-STR-HTXT
  6
Continuous
 62
     5
370
    13
100
AcDbLine
 10
134.1225454146656
 20
111.5098340129436
 30
0.0
 11
134.8916217069743
 21
111.2895576941784
 31
0.0
  0
LINE
  5
507
330
1F
100
AcDbEntity
  8
D-STR-HTXT
  6
Continuous
 62
     5
370
    13
100
AcDbLine
 10
134.6901744539486
 20
111.3125819283568
 30
0.0
 11
134.1133672347171
 21
111.4777891674308
 31
0.0
  0
LINE
  5
508
330
1F
100
AcDbEntity
  8
D-STR-HTXT
  6
Continuous
 62
     5
370
    13
100
AcDbLine
 10
134.1041890547685
 20
111.4457443219179
 30
0.0
 11
134.4887272009229
 21
111.3356061625353
 31
0.0
  0
LINE
  5
509
330
1F
100
AcDbEntity
  8
D-STR-HTXT
  6
Continuous
 62
     5
370
    13
100
AcDbLine
 10
134.2872799478972
 20
111.3586303967137
 30
0.0
 11
134.09501087482
 21
111.4136994764051
 31
0.0
  0
LINE
  5
50A
330
1F
100
AcDbEntity
  8
D-STR-HTXT
  6
Continuous
 62
     5
370
    13
100
AcDbLine
 10
129.36984216
 20
112.90576138
 30
0.0
 11
96.06984216000001
 21
112.90576138
 31
0.0
  0
TEXT
  5
50B
330
1F
100
AcDbEntity
  8
D-STR-HTXT
  6
Continuous
 62
     5
370
    13
100
AcDbText
 10
101.1642866044445
 20
113.913183255
 30
0.0
 40
2.777777777777778
  1
スパイラルダクト
 41
0.8
  7
ＭＳ ゴシック
 72
     1
 11
112.71984216
 21
113.40576138
 31
0.0
100
AcDbText
 73
     1
  0
LINE
  5
50C
330
1F
100
AcDbEntity
  8
D-STR-HTXT
  6
Continuous
 62
     5
370
    13
100
AcDbLine
 10
134.3572550132785
 20
103.7305815717892
 30
0.0
 11
127.68270094
 21
97.47983958
 31
0.0
  0
LINE
  5
50D
330
1F
100
AcDbEntity
  8
D-STR-HTXT
  6
Continuous
 62
     5
370
    13
100
AcDbLine
 10
135.0871551
 20
104.41413542
 30
0.0
 11
134.24332937191
 21
103.8522315862428
 31
0.0
  0
LINE
  5
50E
330
1F
100
AcDbEntity
  8
D-STR-HTXT
  6
Continuous
 62
     5
370
    13
100
AcDbLine
 10
135.0871551
 20
104.41413542
 30
0.0
 11
134.4711806546469
 21
103.6089315573356
 31
0.0
  0
LINE
  5
50F
330
1F
100
AcDbEntity
  8
D-STR-HTXT
  6
Continuous
 62
     5
370
    13
100
AcDbLine
 10
134.24332937191
 20
103.8522315862428
 30
0.0
 11
134.4711806546469
 21
103.6089315573356
 31
0.0
  0
LINE
  5
510
330
1F
100
AcDbEntity
  8
D-STR-HTXT
  6
Continuous
 62
     5
370
    13
100
AcDbLine
 10
134.412094517528
 20
103.9646123529942
 30
0.0
 11
134.2661145001837
 21
103.827901583352
 31
0.0
  0
LINE
  5
511
330
1F
100
AcDbEntity
  8
D-STR-HTXT
  6
Continuous
 62
     5
370
    13
100
AcDbLine
 10
134.2888996284574
 20
103.8035715804613
 30
0.0
 11
134.580859663146
 21
104.0769931197456
 31
0.0
  0
LINE
  5
512
330
1F
100
AcDbEntity
  8
D-STR-HTXT
  6
Continuous
 62
     5
370
    13
100
AcDbLine
 10
134.749624808764
 20
104.1893738864971
 30
0.0
 11
134.3116847567311
 21
103.7792415775706
 31
0.0
  0
LINE
  5
513
330
1F
100
AcDbEntity
  8
D-STR-HTXT
  6
Continuous
 62
     5
370
    13
100
AcDbLine
 10
134.3344698850048
 20
103.7549115746799
 30
0.0
 11
134.918389954382
 21
104.3017546532486
 31
0.0
  0
LINE
  5
514
330
1F
100
AcDbEntity
  8
D-STR-HTXT
  6
Continuous
 62
     5
370
    13
100
AcDbLine
 10
135.0871551
 20
104.41413542
 30
0.0
 11
134.3572550132785
 21
103.7305815717892
 31
0.0
  0
LINE
  5
515
330
1F
100
AcDbEntity
  8
D-STR-HTXT
  6
Continuous
 62
     5
370
    13
100
AcDbLine
 10
134.3800401415522
 20
103.7062515688984
 30
0.0
 11
134.9639602109294
 21
104.2530946474671
 31
0.0
  0
LINE
  5
516
330
1F
100
AcDbEntity
  8
D-STR-HTXT
  6
Continuous
 62
     5
370
    13
100
AcDbLine
 10
134.8407653218588
 20
104.0920538749342
 30
0.0
 11
134.4028252698259
 21
103.6819215660077
 31
0.0
  0
LINE
  5
517
330
1F
100
AcDbEntity
  8
D-STR-HTXT
  6
Continuous
 62
     5
370
    13
100
AcDbLine
 10
134.4256103980995
 20
103.657591563117
 30
0.0
 11
134.7175704327882
 21
103.9310131024013
 31
0.0
  0
LINE
  5
518
330
1F
100
AcDbEntity
  8
D-STR-HTXT
  6
Continuous
 62
     5
370
    13
100
AcDbLine
 10
134.5943755437175
 20
103.7699723298685
 30
0.0
 11
134.4483955263732
 21
103.6332615602263
 31
0.0
  0
LINE
  5
519
330
1F
100
AcDbEntity
  8
D-STR-HTXT
  6
Continuous
 62
     5
370
    13
100
AcDbLine
 10
127.68270094
 20
97.47983958
 30
0.0
 11
111.88270094
 21
97.47983958
 31
0.0
  0
TEXT
  5
51A
330
1F
100
AcDbEntity
  8
D-STR-HTXT
  6
Continuous
 62
     5
370
    13
100
AcDbText
 10
115.4493676066667
 20
98.48726145500001
 30
0.0
 40
2.777777777777778
  1
発生土
 41
0.8
  7
ＭＳ ゴシック
 72
     1
 11
119.78270094
 21
97.97983958
 31
0.0
100
AcDbText
 73
     1
  0
LINE
  5
51B
330
1F
100
AcDbEntity
  8
D-TTL-LINE
  6
Continuous
 62
     7
370
    13
100
AcDbLine
 10
187.45804718
 20
123.0074451
 30
0.0
 11
211.86846564
 21
123.0074451
 31
0.0
  0
TEXT
  5
51C
330
1F
100
AcDbEntity
  8
D-TTL-TXT
  6
Continuous
 62
     7
370
    13
100
AcDbText
 10
189.9092572
 20
123.8967632928571
 30
0.0
 40
3.968253968253968
  1
断 面 図
 41
0.8
  7
ＭＳ ゴシック
 11
189.9092572
 21
123.1718749
 31
0.0
100
AcDbText
 73
     1
  0
LINE
  5
51D
330
1F
100
AcDbEntity
  8
D-STR
  6
Continuous
 62
     1
370
    50
100
AcDbLine
 10
204.21711932
 20
113.43948474
 30
0.0
 11
194.21712032
 21
113.43948474
 31
0.0
  0
LINE
  5
51E
330
1F
100
AcDbEntity
  8
D-STR
  6
Continuous
 62
     1
370
    50
100
AcDbLine
 10
204.21711932
 20
103.43948474
 30
0.0
 11
204.21711932
 21
113.43948474
 31
0.0
  0
LINE
  5
51F
330
1F
100
AcDbEntity
  8
D-STR
  6
Continuous
 62
     1
370
    50
100
AcDbLine
 10
204.21711932
 20
103.43948474
 30
0.0
 11
194.21712032
 21
103.43948474
 31
0.0
  0
LINE
  5
520
330
1F
100
AcDbEntity
  8
D-STR
  6
Continuous
 62
     1
370
    50
100
AcDbLine
 10
194.21712032
 20
103.43948474
 30
0.0
 11
194.21712032
 21
113.43948474
 31
0.0
  0
CIRCLE
  5
521
330
1F
100
AcDbEntity
  8
D-STR
  6
Continuous
 62
     1
370
    50
100
AcDbCircle
 10
199.21711982
 20
108.43948474
 30
0.0
 40
0.763
  0
CIRCLE
  5
522
330
1F
100
AcDbEntity
  8
D-STR
  6
Continuous
 62
     1
370
    50
100
AcDbCircle
 10
199.21711982
 20
108.43948474
 30
0.0
 40
5.0
  0
DIMENSION
  5
523
330
1F
100
AcDbEntity
  8
D-STR-DIM
  6
Continuous
 62
     5
370
    13
100
AcDbDimension
  2
*D11
 10
219.21711932
 20
103.43948474
 30
0.0
 11
216.96711932
 21
108.43948474
 31
0.0
 70
   160
  1
500
 71
     5
 42
10.0
 53
90.0
  3
Standard
100
AcDbAlignedDimension
 13
204.21711932
 23
113.43948474
 33
0.0
 14
204.21711932
 24
103.43948474
 34
0.0
 50
270.0
100
AcDbRotatedDimension
1001
ACAD
1000
DSTYLE
1002
{
1070
   271
1070
     2
1070
   178
1070
     5
1070
   177
1070
     5
1070
   176
1070
     5
1070
   289
1070
     3
1070
    77
1070
     1
1070
   174
1070
     1
1070
   172
1070
     1
1070
    73
1070
     1
1070
    74
1070
     0
1070
   173
1070
     1
1070
   279
1070
     2
1070
    44
1040
1.0
1070
    42
1040
1.0
1070
   147
1040
0.0
1070
   140
1040
2.777777777777778
1070
    41
1040
0.9999999999999749
1070
   340
1005
4F
1002
}
  0
DIMENSION
  5
530
330
1F
100
AcDbEntity
  8
D-STR-DIM
  6
Continuous
 62
     5
370
    13
100
AcDbDimension
  2
*D12
 10
204.21711932
 20
88.43948474000001
 30
0.0
 11
199.21711982
 21
90.68948474000001
 31
0.0
 70
   160
  1
500
 71
     5
 42
9.999999000000003
  3
Standard
100
AcDbAlignedDimension
 13
194.21712032
 23
103.43948474
 33
0.0
 14
204.21711932
 24
103.43948474
 34
0.0
100
AcDbRotatedDimension
1001
ACAD
1000
DSTYLE
1002
{
1070
   271
1070
     2
1070
   178
1070
     5
1070
   177
1070
     5
1070
   176
1070
     5
1070
   289
1070
     3
1070
    77
1070
     1
1070
   174
1070
     1
1070
   172
1070
     1
1070
    73
1070
     0
1070
    74
1070
     0
1070
   173
1070
     1
1070
   279
1070
     2
1070
    44
1040
1.0
1070
    42
1040
1.0
1070
   147
1040
0.0
1070
   140
1040
2.777777777777778
1070
    41
1040
0.9999999999999749
1070
   340
1005
4F
1002
}
  0
LINE
  5
53D
330
1F
100
AcDbEntity
  8
D-STR-HTXT
  6
Continuous
 62
     5
370
    13
100
AcDbLine
 10
194.1317235946142
 20
111.5418788584565
 30
0.0
 11
189.36984216
 21
112.90576138
 31
0.0
  0
LINE
  5
53E
330
1F
100
AcDbEntity
  8
D-STR-HTXT
  6
Continuous
 62
     5
370
    13
100
AcDbLine
 10
195.09306896
 20
111.26653346
 30
0.0
 11
194.1776144943569
 21
111.7021030860208
 31
0.0
  0
LINE
  5
53F
330
1F
100
AcDbEntity
  8
D-STR-HTXT
  6
Continuous
 62
     5
370
    13
100
AcDbLine
 10
195.09306896
 20
111.26653346
 30
0.0
 11
194.0858326948714
 21
111.3816546308922
 31
0.0
  0
LINE
  5
540
330
1F
100
AcDbEntity
  8
D-STR-HTXT
  6
Continuous
 62
     5
370
    13
100
AcDbLine
 10
194.1776144943569
 20
111.7021030860208
 30
0.0
 11
194.0858326948714
 21
111.3816546308922
 31
0.0
  0
LINE
  5
541
330
1F
100
AcDbEntity
  8
D-STR-HTXT
  6
Continuous
 62
     5
370
    13
100
AcDbLine
 10
194.3607053874856
 20
111.6149891608166
 30
0.0
 11
194.1684363144084
 21
111.670058240508
 31
0.0
  0
LINE
  5
542
330
1F
100
AcDbEntity
  8
D-STR-HTXT
  6
Continuous
 62
     5
370
    13
100
AcDbLine
 10
194.1592581344598
 20
111.6380133949951
 30
0.0
 11
194.5437962806141
 21
111.5278752356125
 31
0.0
  0
LINE
  5
543
330
1F
100
AcDbEntity
  8
D-STR-HTXT
  6
Continuous
 62
     5
370
    13
100
AcDbLine
 10
194.7268871737428
 20
111.4407613104083
 30
0.0
 11
194.1500799545113
 21
111.6059685494822
 31
0.0
  0
LINE
  5
544
330
1F
100
AcDbEntity
  8
D-STR-HTXT
  6
Continuous
 62
     5
370
    13
100
AcDbLine
 10
194.1409017745627
 20
111.5739237039694
 30
0.0
 11
194.9099780668714
 21
111.3536473852041
 31
0.0
  0
LINE
  5
545
330
1F
100
AcDbEntity
  8
D-STR-HTXT
  6
Continuous
 62
     5
370
    13
100
AcDbLine
 10
195.09306896
 20
111.26653346
 30
0.0
 11
194.1317235946142
 21
111.5418788584565
 31
0.0
  0
LINE
  5
546
330
1F
100
AcDbEntity
  8
D-STR-HTXT
  6
Continuous
 62
     5
370
    13
100
AcDbLine
 10
194.1225454146656
 20
111.5098340129437
 30
0.0
 11
194.8916217069742
 21
111.2895576941784
 31
0.0
  0
LINE
  5
547
330
1F
100
AcDbEntity
  8
D-STR-HTXT
  6
Continuous
 62
     5
370
    13
100
AcDbLine
 10
194.6901744539485
 20
111.3125819283569
 30
0.0
 11
194.1133672347171
 21
111.4777891674308
 31
0.0
  0
LINE
  5
548
330
1F
100
AcDbEntity
  8
D-STR-HTXT
  6
Continuous
 62
     5
370
    13
100
AcDbLine
 10
194.1041890547685
 20
111.4457443219179
 30
0.0
 11
194.4887272009228
 21
111.3356061625353
 31
0.0
  0
LINE
  5
549
330
1F
100
AcDbEntity
  8
D-STR-HTXT
  6
Continuous
 62
     5
370
    13
100
AcDbLine
 10
194.2872799478971
 20
111.3586303967138
 30
0.0
 11
194.09501087482
 21
111.4136994764051
 31
0.0
  0
LINE
  5
54A
330
1F
100
AcDbEntity
  8
D-STR-HTXT
  6
Continuous
 62
     5
370
    13
100
AcDbLine
 10
189.36984216
 20
112.90576138
 30
0.0
 11
156.06984216
 21
112.90576138
 31
0.0
  0
TEXT
  5
54B
330
1F
100
AcDbEntity
  8
D-STR-HTXT
  6
Continuous
 62
     5
370
    13
100
AcDbText
 10
161.1642866044445
 20
113.913183255
 30
0.0
 40
2.777777777777778
  1
スパイラルダクト
 41
0.8
  7
ＭＳ ゴシック
 72
     1
 11
172.71984216
 21
113.40576138
 31
0.0
100
AcDbText
 73
     1
  0
LINE
  5
54C
330
1F
100
AcDbEntity
  8
D-STR-HTXT
  6
Continuous
 62
     5
370
    13
100
AcDbLine
 10
194.3572550132785
 20
103.7305815717892
 30
0.0
 11
187.68270094
 21
97.47983958
 31
0.0
  0
LINE
  5
54D
330
1F
100
AcDbEntity
  8
D-STR-HTXT
  6
Continuous
 62
     5
370
    13
100
AcDbLine
 10
195.0871551
 20
104.41413542
 30
0.0
 11
194.24332937191
 21
103.8522315862428
 31
0.0
  0
LINE
  5
54E
330
1F
100
AcDbEntity
  8
D-STR-HTXT
  6
Continuous
 62
     5
370
    13
100
AcDbLine
 10
195.0871551
 20
104.41413542
 30
0.0
 11
194.471180654647
 21
103.6089315573356
 31
0.0
  0
LINE
  5
54F
330
1F
100
AcDbEntity
  8
D-STR-HTXT
  6
Continuous
 62
     5
370
    13
100
AcDbLine
 10
194.24332937191
 20
103.8522315862428
 30
0.0
 11
194.471180654647
 21
103.6089315573356
 31
0.0
  0
LINE
  5
550
330
1F
100
AcDbEntity
  8
D-STR-HTXT
  6
Continuous
 62
     5
370
    13
100
AcDbLine
 10
194.412094517528
 20
103.9646123529942
 30
0.0
 11
194.2661145001837
 21
103.827901583352
 31
0.0
  0
LINE
  5
551
330
1F
100
AcDbEntity
  8
D-STR-HTXT
  6
Continuous
 62
     5
370
    13
100
AcDbLine
 10
194.2888996284574
 20
103.8035715804613
 30
0.0
 11
194.580859663146
 21
104.0769931197456
 31
0.0
  0
LINE
  5
552
330
1F
100
AcDbEntity
  8
D-STR-HTXT
  6
Continuous
 62
     5
370
    13
100
AcDbLine
 10
194.749624808764
 20
104.1893738864971
 30
0.0
 11
194.3116847567311
 21
103.7792415775706
 31
0.0
  0
LINE
  5
553
330
1F
100
AcDbEntity
  8
D-STR-HTXT
  6
Continuous
 62
     5
370
    13
100
AcDbLine
 10
194.3344698850048
 20
103.7549115746799
 30
0.0
 11
194.918389954382
 21
104.3017546532486
 31
0.0
  0
LINE
  5
554
330
1F
100
AcDbEntity
  8
D-STR-HTXT
  6
Continuous
 62
     5
370
    13
100
AcDbLine
 10
195.0871551
 20
104.41413542
 30
0.0
 11
194.3572550132785
 21
103.7305815717892
 31
0.0
  0
LINE
  5
555
330
1F
100
AcDbEntity
  8
D-STR-HTXT
  6
Continuous
 62
     5
370
    13
100
AcDbLine
 10
194.3800401415522
 20
103.7062515688984
 30
0.0
 11
194.9639602109294
 21
104.2530946474671
 31
0.0
  0
LINE
  5
556
330
1F
100
AcDbEntity
  8
D-STR-HTXT
  6
Continuous
 62
     5
370
    13
100
AcDbLine
 10
194.8407653218588
 20
104.0920538749342
 30
0.0
 11
194.4028252698259
 21
103.6819215660077
 31
0.0
  0
LINE
  5
557
330
1F
100
AcDbEntity
  8
D-STR-HTXT
  6
Continuous
 62
     5
370
    13
100
AcDbLine
 10
194.4256103980996
 20
103.657591563117
 30
0.0
 11
194.7175704327882
 21
103.9310131024013
 31
0.0
  0
LINE
  5
558
330
1F
100
AcDbEntity
  8
D-STR-HTXT
  6
Continuous
 62
     5
370
    13
100
AcDbLine
 10
194.5943755437176
 20
103.7699723298685
 30
0.0
 11
194.4483955263733
 21
103.6332615602263
 31
0.0
  0
LINE
  5
559
330
1F
100
AcDbEntity
  8
D-STR-HTXT
  6
Continuous
 62
     5
370
    13
100
AcDbLine
 10
187.68270094
 20
97.47983958
 30
0.0
 11
171.88270094
 21
97.47983958
 31
0.0
  0
TEXT
  5
55A
330
1F
100
AcDbEntity
  8
D-STR-HTXT
  6
Continuous
 62
     5
370
    13
100
AcDbText
 10
175.4493676066667
 20
98.48726145500001
 30
0.0
 40
2.777777777777778
  1
発生土
 41
0.8
  7
ＭＳ ゴシック
 72
     1
 11
179.78270094
 21
97.97983958
 31
0.0
100
AcDbText
 73
     1
  0
LINE
  5
55B
330
1F
100
AcDbEntity
  8
D-MTR-FRAM
  6
Continuous
 62
     7
370
    13
100
AcDbLine
 10
382.77258508
 20
251.93942722
 30
0.0
 11
250.77258508
 21
251.93942722
 31
0.0
  0
LINE
  5
55C
330
1F
100
AcDbEntity
  8
D-MTR-LINE
  6
Continuous
 62
     7
370
    13
100
AcDbLine
 10
382.77258508
 20
243.93942722
 30
0.0
 11
298.77258508
 21
243.93942722
 31
0.0
  0
LINE
  5
55D
330
1F
100
AcDbEntity
  8
D-MTR-LINE
  6
Continuous
 62
     7
370
    13
100
AcDbLine
 10
382.77258508
 20
235.93942722
 30
0.0
 11
298.77258508
 21
235.93942722
 31
0.0
  0
LINE
  5
55E
330
1F
100
AcDbEntity
  8
D-MTR-LINE
  6
Continuous
 62
     7
370
    13
100
AcDbLine
 10
382.77258508
 20
227.93942722
 30
0.0
 11
250.77258508
 21
227.93942722
 31
0.0
  0
LINE
  5
55F
330
1F
100
AcDbEntity
  8
D-MTR-LINE
  6
Continuous
 62
     7
370
    13
100
AcDbLine
 10
382.77258508
 20
219.93942722
 30
0.0
 11
278.77258508
 21
219.93942722
 31
0.0
  0
LINE
  5
560
330
1F
100
AcDbEntity
  8
D-MTR-LINE
  6
Continuous
 62
     7
370
    13
100
AcDbLine
 10
382.77258508
 20
211.93942722
 30
0.0
 11
278.77258508
 21
211.93942722
 31
0.0
  0
LINE
  5
561
330
1F
100
AcDbEntity
  8
D-MTR-LINE
  6
Continuous
 62
     7
370
    13
100
AcDbLine
 10
382.77258508
 20
203.93942722
 30
0.0
 11
250.77258508
 21
203.93942722
 31
0.0
  0
LINE
  5
562
330
1F
100
AcDbEntity
  8
D-MTR-LINE
  6
Continuous
 62
     7
370
    13
100
AcDbLine
 10
382.77258508
 20
195.93942722
 30
0.0
 11
278.77258508
 21
195.93942722
 31
0.0
  0
LINE
  5
563
330
1F
100
AcDbEntity
  8
D-MTR-LINE
  6
Continuous
 62
     7
370
    13
100
AcDbLine
 10
382.77258508
 20
187.93942722
 30
0.0
 11
278.77258508
 21
187.93942722
 31
0.0
  0
LINE
  5
564
330
1F
100
AcDbEntity
  8
D-MTR-FRAM
  6
Continuous
 62
     7
370
    13
100
AcDbLine
 10
382.77258508
 20
179.93942722
 30
0.0
 11
250.77258508
 21
179.93942722
 31
0.0
  0
LINE
  5
565
330
1F
100
AcDbEntity
  8
D-MTR-FRAM
  6
Continuous
 62
     7
370
    13
100
AcDbLine
 10
378.77258508
 20
163.93942722
 30
0.0
 11
250.77258508
 21
163.93942722
 31
0.0
  0
LINE
  5
566
330
1F
100
AcDbEntity
  8
D-MTR-LINE
  6
Continuous
 62
     7
370
    13
100
AcDbLine
 10
378.77258508
 20
155.93942722
 30
0.0
 11
294.77258508
 21
155.93942722
 31
0.0
  0
LINE
  5
567
330
1F
100
AcDbEntity
  8
D-MTR-LINE
  6
Continuous
 62
     7
370
    13
100
AcDbLine
 10
378.77258508
 20
147.93942722
 30
0.0
 11
250.77258508
 21
147.93942722
 31
0.0
  0
LINE
  5
568
330
1F
100
AcDbEntity
  8
D-MTR-LINE
  6
Continuous
 62
     7
370
    13
100
AcDbLine
 10
378.77258508
 20
139.93942722
 30
0.0
 11
270.77258508
 21
139.93942722
 31
0.0
  0
LINE
  5
569
330
1F
100
AcDbEntity
  8
D-MTR-LINE
  6
Continuous
 62
     7
370
    13
100
AcDbLine
 10
378.77258508
 20
131.93942722
 30
0.0
 11
270.77258508
 21
131.93942722
 31
0.0
  0
LINE
  5
56A
330
1F
100
AcDbEntity
  8
D-MTR-FRAM
  6
Continuous
 62
     7
370
    13
100
AcDbLine
 10
378.77258508
 20
123.93942722
 30
0.0
 11
250.77258508
 21
123.93942722
 31
0.0
  0
LINE
  5
56B
330
1F
100
AcDbEntity
  8
D-MTR-FRAM
  6
Continuous
 62
     7
370
    13
100
AcDbLine
 10
250.77258508
 20
251.93942722
 30
0.0
 11
250.77258508
 21
179.93942722
 31
0.0
  0
LINE
  5
56C
330
1F
100
AcDbEntity
  8
D-MTR-FRAM
  6
Continuous
 62
     7
370
    13
100
AcDbLine
 10
250.77258508
 20
163.93942722
 30
0.0
 11
250.77258508
 21
123.93942722
 31
0.0
  0
LINE
  5
56D
330
1F
100
AcDbEntity
  8
D-MTR-LINE
  6
Continuous
 62
     7
370
    13
100
AcDbLine
 10
266.77258508
 20
251.93942722
 30
0.0
 11
266.77258508
 21
179.93942722
 31
0.0
  0
LINE
  5
56E
330
1F
100
AcDbEntity
  8
D-MTR-LINE
  6
Continuous
 62
     7
370
    13
100
AcDbLine
 10
278.77258508
 20
227.93942722
 30
0.0
 11
278.77258508
 21
179.93942722
 31
0.0
  0
LINE
  5
56F
330
1F
100
AcDbEntity
  8
D-MTR-LINE
  6
Continuous
 62
     7
370
    13
100
AcDbLine
 10
298.77258508
 20
251.93942722
 30
0.0
 11
298.77258508
 21
179.93942722
 31
0.0
  0
LINE
  5
570
330
1F
100
AcDbEntity
  8
D-MTR-LINE
  6
Continuous
 62
     7
370
    13
100
AcDbLine
 10
312.77258508
 20
235.93942722
 30
0.0
 11
312.77258508
 21
179.93942722
 31
0.0
  0
LINE
  5
571
330
1F
100
AcDbEntity
  8
D-MTR-LINE
  6
Continuous
 62
     7
370
    13
100
AcDbLine
 10
326.77258508
 20
243.93942722
 30
0.0
 11
326.77258508
 21
179.93942722
 31
0.0
  0
LINE
  5
572
330
1F
100
AcDbEntity
  8
D-MTR-LINE
  6
Continuous
 62
     7
370
    13
100
AcDbLine
 10
340.77258508
 20
235.93942722
 30
0.0
 11
340.77258508
 21
179.93942722
 31
0.0
  0
LINE
  5
573
330
1F
100
AcDbEntity
  8
D-MTR-LINE
  6
Continuous
 62
     7
370
    13
100
AcDbLine
 10
354.77258508
 20
243.93942722
 30
0.0
 11
354.77258508
 21
179.93942722
 31
0.0
  0
LINE
  5
574
330
1F
100
AcDbEntity
  8
D-MTR-LINE
  6
Continuous
 62
     7
370
    13
100
AcDbLine
 10
368.77258508
 20
235.93942722
 30
0.0
 11
368.77258508
 21
179.93942722
 31
0.0
  0
LINE
  5
575
330
1F
100
AcDbEntity
  8
D-MTR-FRAM
  6
Continuous
 62
     7
370
    13
100
AcDbLine
 10
382.77258508
 20
251.93942722
 30
0.0
 11
382.77258508
 21
179.93942722
 31
0.0
  0
LINE
  5
576
330
1F
100
AcDbEntity
  8
D-MTR-LINE
  6
Continuous
 62
     7
370
    13
100
AcDbLine
 10
270.77258508
 20
163.93942722
 30
0.0
 11
270.77258508
 21
123.93942722
 31
0.0
  0
LINE
  5
577
330
1F
100
AcDbEntity
  8
D-MTR-LINE
  6
Continuous
 62
     7
370
    13
100
AcDbLine
 10
294.77258508
 20
163.93942722
 30
0.0
 11
294.77258508
 21
123.93942722
 31
0.0
  0
LINE
  5
578
330
1F
100
AcDbEntity
  8
D-MTR-LINE
  6
Continuous
 62
     7
370
    13
100
AcDbLine
 10
308.77258508
 20
155.93942722
 30
0.0
 11
308.77258508
 21
123.93942722
 31
0.0
  0
LINE
  5
579
330
1F
100
AcDbEntity
  8
D-MTR-LINE
  6
Continuous
 62
     7
370
    13
100
AcDbLine
 10
322.77258508
 20
155.93942722
 30
0.0
 11
322.77258508
 21
123.93942722
 31
0.0
  0
LINE
  5
57A
330
1F
100
AcDbEntity
  8
D-MTR-LINE
  6
Continuous
 62
     7
370
    13
100
AcDbLine
 10
336.77258508
 20
163.93942722
 30
0.0
 11
336.77258508
 21
123.93942722
 31
0.0
  0
LINE
  5
57B
330
1F
100
AcDbEntity
  8
D-MTR-LINE
  6
Continuous
 62
     7
370
    13
100
AcDbLine
 10
350.77258508
 20
155.93942722
 30
0.0
 11
350.77258508
 21
123.93942722
 31
0.0
  0
LINE
  5
57C
330
1F
100
AcDbEntity
  8
D-MTR-LINE
  6
Continuous
 62
     7
370
    13
100
AcDbLine
 10
364.77258508
 20
155.93942722
 30
0.0
 11
364.77258508
 21
123.93942722
 31
0.0
  0
LINE
  5
57D
330
1F
100
AcDbEntity
  8
D-MTR-FRAM
  6
Continuous
 62
     7
370
    13
100
AcDbLine
 10
378.77258508
 20
163.93942722
 30
0.0
 11
378.77258508
 21
123.93942722
 31
0.0
  0
TEXT
  5
57E
330
1F
100
AcDbEntity
  8
D-MTR-TXT
  6
Continuous
 62
     7
370
    13
100
AcDbText
 10
253.99867104
 20
238.590404895
 30
0.0
 40
2.777777777777778
  1
鏡面数
 41
0.8
  7
ＭＳ ゴシック
 11
253.99867104
 21
238.08298302
 31
0.0
100
AcDbText
 73
     1
  0
TEXT
  5
57F
330
1F
100
AcDbEntity
  8
D-MTR-TXT
  6
Continuous
 62
     7
370
    13
100
AcDbText
 10
279.59313508
 20
238.859761235
 30
0.0
 40
2.777777777777778
  1
種類
 41
0.8
  7
ＭＳ ゴシック
 11
279.59313508
 21
238.35233936
 31
0.0
100
AcDbText
 73
     1
  0
TEXT
  5
580
330
1F
100
AcDbEntity
  8
D-MTR-TXT
  6
Continuous
 62
     7
370
    13
100
AcDbText
 10
324.91489846
 20
246.293008635
 30
0.0
 40
2.777777777777778
  1
Ｈ＝根入れ長さ(cm)
 41
0.8
  7
ＭＳ ゴシック
 11
324.91489846
 21
245.78558676
 31
0.0
100
AcDbText
 73
     1
  0
LINE
  5
581
330
1F
100
AcDbEntity
  8
D-MTR-LINE
  6
Continuous
 62
     7
370
    13
100
AcDbLine
 10
250.77258508
 20
163.93942722
 30
0.0
 11
270.77258508
 21
147.93942722
 31
0.0
  0
LINE
  5
582
330
1F
100
AcDbEntity
  8
D-MTR-LINE
  6
Continuous
 62
     7
370
    13
100
AcDbLine
 10
270.77258508
 20
163.93942722
 30
0.0
 11
294.77258508
 21
147.93942722
 31
0.0
  0
TEXT
  5
583
330
1F
100
AcDbEntity
  8
D-MTR-TXT
  6
Continuous
 62
     7
370
    13
100
AcDbText
 10
303.75550282
 20
238.834924495
 30
0.0
 40
2.777777777777778
  1
基礎幅40cm
 41
0.8
  7
ＭＳ ゴシック
 11
303.75550282
 21
238.32750262
 31
0.0
100
AcDbText
 73
     1
  0
TEXT
  5
584
330
1F
100
AcDbEntity
  8
D-MTR-TXT
  6
Continuous
 62
     7
370
    13
100
AcDbText
 10
331.7555028199999
 20
238.834924495
 30
0.0
 40
2.777777777777778
  1
基礎幅50cm
 41
0.8
  7
ＭＳ ゴシック
 11
331.7555028199999
 21
238.32750262
 31
0.0
100
AcDbText
 73
     1
  0
TEXT
  5
585
330
1F
100
AcDbEntity
  8
D-MTR-TXT
  6
Continuous
 62
     7
370
    13
100
AcDbText
 10
359.7555028199999
 20
238.834924495
 30
0.0
 40
2.777777777777778
  1
基礎幅60cm
 41
0.8
  7
ＭＳ ゴシック
 11
359.7555028199999
 21
238.32750262
 31
0.0
100
AcDbText
 73
     1
  0
TEXT
  5
586
330
1F
100
AcDbEntity
  8
D-MTR-TXT
  6
Continuous
 62
     7
370
    13
100
AcDbText
 10
301.13162464
 20
230.735623135
 30
0.0
 40
2.777777777777778
  1
未舗装
 41
0.8
  7
ＭＳ ゴシック
 11
301.13162464
 21
230.22820126
 31
0.0
100
AcDbText
 73
     1
  0
TEXT
  5
587
330
1F
100
AcDbEntity
  8
D-MTR-TXT
  6
Continuous
 62
     7
370
    13
100
AcDbText
 10
316.93576252
 20
230.735623135
 30
0.0
 40
2.777777777777778
  1
舗装
 41
0.8
  7
ＭＳ ゴシック
 11
316.93576252
 21
230.22820126
 31
0.0
100
AcDbText
 73
     1
  0
TEXT
  5
588
330
1F
100
AcDbEntity
  8
D-MTR-TXT
  6
Continuous
 62
     7
370
    13
100
AcDbText
 10
329.13162464
 20
230.735623135
 30
0.0
 40
2.777777777777778
  1
未舗装
 41
0.8
  7
ＭＳ ゴシック
 11
329.13162464
 21
230.22820126
 31
0.0
100
AcDbText
 73
     1
  0
TEXT
  5
589
330
1F
100
AcDbEntity
  8
D-MTR-TXT
  6
Continuous
 62
     7
370
    13
100
AcDbText
 10
344.93576252
 20
230.735623135
 30
0.0
 40
2.777777777777778
  1
舗装
 41
0.8
  7
ＭＳ ゴシック
 11
344.93576252
 21
230.22820126
 31
0.0
100
AcDbText
 73
     1
  0
TEXT
  5
58A
330
1F
100
AcDbEntity
  8
D-MTR-TXT
  6
Continuous
 62
     7
370
    13
100
AcDbText
 10
357.13162464
 20
230.735623135
 30
0.0
 40
2.777777777777778
  1
未舗装
 41
0.8
  7
ＭＳ ゴシック
 11
357.13162464
 21
230.22820126
 31
0.0
100
AcDbText
 73
     1
  0
TEXT
  5
58B
330
1F
100
AcDbEntity
  8
D-MTR-TXT
  6
Continuous
 62
     7
370
    13
100
AcDbText
 10
372.93576252
 20
230.735623135
 30
0.0
 40
2.777777777777778
  1
舗装
 41
0.8
  7
ＭＳ ゴシック
 11
372.93576252
 21
230.22820126
 31
0.0
100
AcDbText
 73
     1
  0
TEXT
  5
58C
330
1F
100
AcDbEntity
  8
D-MTR-TXT
  6
Continuous
 62
     7
370
    13
100
AcDbText
 10
255.82168972
 20
214.980947455
 30
0.0
 40
2.777777777777778
  1
一面
 41
0.8
  7
ＭＳ ゴシック
 11
255.82168972
 21
214.47352558
 31
0.0
100
AcDbText
 73
     1
  0
TEXT
  5
58D
330
1F
100
AcDbEntity
  8
D-MTR-TXT
  6
Continuous
 62
     7
370
    13
100
AcDbText
 10
269.57008634
 20
214.980947455
 30
0.0
 40
2.777777777777778
  1
丸形
 41
0.8
  7
ＭＳ ゴシック
 11
269.57008634
 21
214.47352558
 31
0.0
100
AcDbText
 73
     1
  0
TEXT
  5
58E
330
1F
100
AcDbEntity
  8
D-MTR-TXT
  6
Continuous
 62
     7
370
    13
100
AcDbText
 10
255.82168972
 20
190.980947455
 30
0.0
 40
2.777777777777778
  1
二面
 41
0.8
  7
ＭＳ ゴシック
 11
255.82168972
 21
190.47352558
 31
0.0
100
AcDbText
 73
     1
  0
TEXT
  5
58F
330
1F
100
AcDbEntity
  8
D-MTR-TXT
  6
Continuous
 62
     7
370
    13
100
AcDbText
 10
269.57008634
 20
190.980947455
 30
0.0
 40
2.777777777777778
  1
丸形
 41
0.8
  7
ＭＳ ゴシック
 11
269.57008634
 21
190.47352558
 31
0.0
100
AcDbText
 73
     1
  0
TEXT
  5
590
330
1F
100
AcDbEntity
  8
D-MTR-TXT
  6
Continuous
 62
     7
370
    13
100
AcDbText
 10
284.4437304
 20
222.183640195
 30
0.0
 40
2.777777777777778
  1
φ600
 41
0.8
  7
ＭＳ ゴシック
 11
284.4437304
 21
221.67621832
 31
0.0
100
AcDbText
 73
     1
  0
TEXT
  5
591
330
1F
100
AcDbEntity
  8
D-MTR-TXT
  6
Continuous
 62
     7
370
    13
100
AcDbText
 10
284.4437304
 20
214.183640195
 30
0.0
 40
2.777777777777778
  1
φ800
 41
0.8
  7
ＭＳ ゴシック
 11
284.4437304
 21
213.67621832
 31
0.0
100
AcDbText
 73
     1
  0
TEXT
  5
592
330
1F
100
AcDbEntity
  8
D-MTR-TXT
  6
Continuous
 62
     7
370
    13
100
AcDbText
 10
283.38830974
 20
206.183640195
 30
0.0
 40
2.777777777777778
  1
φ1000
 41
0.8
  7
ＭＳ ゴシック
 11
283.38830974
 21
205.67621832
 31
0.0
100
AcDbText
 73
     1
  0
TEXT
  5
593
330
1F
100
AcDbEntity
  8
D-MTR-TXT
  6
Continuous
 62
     7
370
    13
100
AcDbText
 10
284.4437304
 20
198.183640195
 30
0.0
 40
2.777777777777778
  1
φ600
 41
0.8
  7
ＭＳ ゴシック
 11
284.4437304
 21
197.67621832
 31
0.0
100
AcDbText
 73
     1
  0
TEXT
  5
594
330
1F
100
AcDbEntity
  8
D-MTR-TXT
  6
Continuous
 62
     7
370
    13
100
AcDbText
 10
284.4437304
 20
190.183640195
 30
0.0
 40
2.777777777777778
  1
φ800
 41
0.8
  7
ＭＳ ゴシック
 11
284.4437304
 21
189.67621832
 31
0.0
100
AcDbText
 73
     1
  0
TEXT
  5
595
330
1F
100
AcDbEntity
  8
D-MTR-TXT
  6
Continuous
 62
     7
370
    13
100
AcDbText
 10
283.38830974
 20
182.183640195
 30
0.0
 40
2.777777777777778
  1
φ1000
 41
0.8
  7
ＭＳ ゴシック
 11
283.38830974
 21
181.67621832
 31
0.0
100
AcDbText
 73
     1
  0
TEXT
  5
596
330
1F
100
AcDbEntity
  8
D-MTR-TXT
  6
Continuous
 62
     7
370
    13
100
AcDbText
 10
278.25648054
 20
142.183640195
 30
0.0
 40
2.777777777777778
  1
φ600
 41
0.8
  7
ＭＳ ゴシック
 11
278.25648054
 21
141.67621832
 31
0.0
100
AcDbText
 73
     1
  0
TEXT
  5
597
330
1F
100
AcDbEntity
  8
D-MTR-TXT
  6
Continuous
 62
     7
370
    13
100
AcDbText
 10
278.25648054
 20
134.183640195
 30
0.0
 40
2.777777777777778
  1
φ800
 41
0.8
  7
ＭＳ ゴシック
 11
278.25648054
 21
133.67621832
 31
0.0
100
AcDbText
 73
     1
  0
TEXT
  5
598
330
1F
100
AcDbEntity
  8
D-MTR-TXT
  6
Continuous
 62
     7
370
    13
100
AcDbText
 10
277.20105988
 20
126.183640195
 30
0.0
 40
2.777777777777778
  1
φ1000
 41
0.8
  7
ＭＳ ゴシック
 11
277.20105988
 21
125.67621832
 31
0.0
100
AcDbText
 73
     1
  0
TEXT
  5
599
330
1F
100
AcDbEntity
  8
D-MTR-TXT
  6
Continuous
 62
     7
370
    13
100
AcDbText
 10
253.92568668
 20
134.905995615
 30
0.0
 40
2.777777777777778
  1
40m/sec
 41
0.8
  7
ＭＳ ゴシック
 11
253.92568668
 21
134.39857374
 31
0.0
100
AcDbText
 73
     1
  0
TEXT
  5
59A
330
1F
100
AcDbEntity
  8
D-MTR-TXT
  6
Continuous
 62
     7
370
    13
100
AcDbText
 10
305.65275284
 20
158.688149395
 30
0.0
 40
2.777777777777778
  1
一面鏡の支柱
 41
0.8
  7
ＭＳ ゴシック
 11
305.65275284
 21
158.18072752
 31
0.0
100
AcDbText
 73
     1
  0
TEXT
  5
59B
330
1F
100
AcDbEntity
  8
D-MTR-TXT
  6
Continuous
 62
     7
370
    13
100
AcDbText
 10
347.6527528400001
 20
158.688149395
 30
0.0
 40
2.777777777777778
  1
二面鏡の支柱
 41
0.8
  7
ＭＳ ゴシック
 11
347.6527528400001
 21
158.18072752
 31
0.0
100
AcDbText
 73
     1
  0
TEXT
  5
59C
330
1F
100
AcDbEntity
  8
D-MTR-TXT
  6
Continuous
 62
     7
370
    13
100
AcDbText
 10
298.58228708
 20
150.669464095
 30
0.0
 40
2.777777777777778
  1
外径
 41
0.8
  7
ＭＳ ゴシック
 11
298.58228708
 21
150.16204222
 31
0.0
100
AcDbText
 73
     1
  0
TEXT
  5
59D
330
1F
100
AcDbEntity
  8
D-MTR-TXT
  6
Continuous
 62
     7
370
    13
100
AcDbText
 10
312.58228708
 20
150.669464095
 30
0.0
 40
2.777777777777778
  1
肉厚
 41
0.8
  7
ＭＳ ゴシック
 11
312.58228708
 21
150.16204222
 31
0.0
100
AcDbText
 73
     1
  0
TEXT
  5
59E
330
1F
100
AcDbEntity
  8
D-MTR-TXT
  6
Continuous
 62
     7
370
    13
100
AcDbText
 10
326.58228708
 20
150.669464095
 30
0.0
 40
2.777777777777778
  1
長さ
 41
0.8
  7
ＭＳ ゴシック
 11
326.58228708
 21
150.16204222
 31
0.0
100
AcDbText
 73
     1
  0
TEXT
  5
59F
330
1F
100
AcDbEntity
  8
D-MTR-TXT
  6
Continuous
 62
     7
370
    13
100
AcDbText
 10
340.58228708
 20
150.669464095
 30
0.0
 40
2.777777777777778
  1
外径
 41
0.8
  7
ＭＳ ゴシック
 11
340.58228708
 21
150.16204222
 31
0.0
100
AcDbText
 73
     1
  0
TEXT
  5
5A0
330
1F
100
AcDbEntity
  8
D-MTR-TXT
  6
Continuous
 62
     7
370
    13
100
AcDbText
 10
354.58228708
 20
150.669464095
 30
0.0
 40
2.777777777777778
  1
肉厚
 41
0.8
  7
ＭＳ ゴシック
 11
354.58228708
 21
150.16204222
 31
0.0
100
AcDbText
 73
     1
  0
TEXT
  5
5A1
330
1F
100
AcDbEntity
  8
D-MTR-TXT
  6
Continuous
 62
     7
370
    13
100
AcDbText
 10
368.58228708
 20
150.669464095
 30
0.0
 40
2.777777777777778
  1
長さ
 41
0.8
  7
ＭＳ ゴシック
 11
368.58228708
 21
150.16204222
 31
0.0
100
AcDbText
 73
     1
  0
TEXT
  5
5A2
330
1F
100
AcDbEntity
  8
D-MTR-TXT
  6
Continuous
 62
     7
370
    13
100
AcDbText
 10
304.76020834
 20
222.253566435
 30
0.0
 40
2.777777777777778
  1
80
 41
0.8
  7
ＭＳ ゴシック
 11
304.76020834
 21
221.74614456
 31
0.0
100
AcDbText
 73
     1
  0
TEXT
  5
5A3
330
1F
100
AcDbEntity
  8
D-MTR-TXT
  6
Continuous
 62
     7
370
    13
100
AcDbText
 10
318.76020834
 20
222.253566435
 30
0.0
 40
2.777777777777778
  1
60
 41
0.8
  7
ＭＳ ゴシック
 11
318.76020834
 21
221.74614456
 31
0.0
100
AcDbText
 73
     1
  0
TEXT
  5
5A4
330
1F
100
AcDbEntity
  8
D-MTR-TXT
  6
Continuous
 62
     7
370
    13
100
AcDbText
 10
332.76020834
 20
222.253566435
 30
0.0
 40
2.777777777777778
  1
60
 41
0.8
  7
ＭＳ ゴシック
 11
332.76020834
 21
221.74614456
 31
0.0
100
AcDbText
 73
     1
  0
TEXT
  5
5A5
330
1F
100
AcDbEntity
  8
D-MTR-TXT
  6
Continuous
 62
     7
370
    13
100
AcDbText
 10
346.76020834
 20
222.253566435
 30
0.0
 40
2.777777777777778
  1
50
 41
0.8
  7
ＭＳ ゴシック
 11
346.76020834
 21
221.74614456
 31
0.0
100
AcDbText
 73
     1
  0
TEXT
  5
5A6
330
1F
100
AcDbEntity
  8
D-MTR-TXT
  6
Continuous
 62
     7
370
    13
100
AcDbText
 10
360.76020834
 20
222.253566435
 30
0.0
 40
2.777777777777778
  1
-
 41
0.8
  7
ＭＳ ゴシック
 11
360.76020834
 21
221.74614456
 31
0.0
100
AcDbText
 73
     1
  0
TEXT
  5
5A7
330
1F
100
AcDbEntity
  8
D-MTR-TXT
  6
Continuous
 62
     7
370
    13
100
AcDbText
 10
374.76020834
 20
222.253566435
 30
0.0
 40
2.777777777777778
  1
-
 41
0.8
  7
ＭＳ ゴシック
 11
374.76020834
 21
221.74614456
 31
0.0
100
AcDbText
 73
     1
  0
TEXT
  5
5A8
330
1F
100
AcDbEntity
  8
D-MTR-TXT
  6
Continuous
 62
     7
370
    13
100
AcDbText
 10
302.70471272
 20
214.253566435
 30
0.0
 40
2.777777777777778
  1
110
 41
0.8
  7
ＭＳ ゴシック
 11
302.70471272
 21
213.74614456
 31
0.0
100
AcDbText
 73
     1
  0
TEXT
  5
5A9
330
1F
100
AcDbEntity
  8
D-MTR-TXT
  6
Continuous
 62
     7
370
    13
100
AcDbText
 10
318.76020834
 20
214.253566435
 30
0.0
 40
2.777777777777778
  1
80
 41
0.8
  7
ＭＳ ゴシック
 11
318.76020834
 21
213.74614456
 31
0.0
100
AcDbText
 73
     1
  0
TEXT
  5
5AA
330
1F
100
AcDbEntity
  8
D-MTR-TXT
  6
Continuous
 62
     7
370
    13
100
AcDbText
 10
332.76020834
 20
214.253566435
 30
0.0
 40
2.777777777777778
  1
90
 41
0.8
  7
ＭＳ ゴシック
 11
332.76020834
 21
213.74614456
 31
0.0
100
AcDbText
 73
     1
  0
TEXT
  5
5AB
330
1F
100
AcDbEntity
  8
D-MTR-TXT
  6
Continuous
 62
     7
370
    13
100
AcDbText
 10
346.76020834
 20
214.253566435
 30
0.0
 40
2.777777777777778
  1
70
 41
0.8
  7
ＭＳ ゴシック
 11
346.76020834
 21
213.74614456
 31
0.0
100
AcDbText
 73
     1
  0
TEXT
  5
5AC
330
1F
100
AcDbEntity
  8
D-MTR-TXT
  6
Continuous
 62
     7
370
    13
100
AcDbText
 10
360.76020834
 20
214.253566435
 30
0.0
 40
2.777777777777778
  1
80
 41
0.8
  7
ＭＳ ゴシック
 11
360.76020834
 21
213.74614456
 31
0.0
100
AcDbText
 73
     1
  0
TEXT
  5
5AD
330
1F
100
AcDbEntity
  8
D-MTR-TXT
  6
Continuous
 62
     7
370
    13
100
AcDbText
 10
374.76020834
 20
214.253566435
 30
0.0
 40
2.777777777777778
  1
60
 41
0.8
  7
ＭＳ ゴシック
 11
374.76020834
 21
213.74614456
 31
0.0
100
AcDbText
 73
     1
  0
TEXT
  5
5AE
330
1F
100
AcDbEntity
  8
D-MTR-TXT
  6
Continuous
 62
     7
370
    13
100
AcDbText
 10
302.70471272
 20
206.253566435
 30
0.0
 40
2.777777777777778
  1
130
 41
0.8
  7
ＭＳ ゴシック
 11
302.70471272
 21
205.74614456
 31
0.0
100
AcDbText
 73
     1
  0
TEXT
  5
5AF
330
1F
100
AcDbEntity
  8
D-MTR-TXT
  6
Continuous
 62
     7
370
    13
100
AcDbText
 10
316.70471272
 20
206.253566435
 30
0.0
 40
2.777777777777778
  1
100
 41
0.8
  7
ＭＳ ゴシック
 11
316.70471272
 21
205.74614456
 31
0.0
100
AcDbText
 73
     1
  0
TEXT
  5
5B0
330
1F
100
AcDbEntity
  8
D-MTR-TXT
  6
Continuous
 62
     7
370
    13
100
AcDbText
 10
330.70471272
 20
206.253566435
 30
0.0
 40
2.777777777777778
  1
120
 41
0.8
  7
ＭＳ ゴシック
 11
330.70471272
 21
205.74614456
 31
0.0
100
AcDbText
 73
     1
  0
TEXT
  5
5B1
330
1F
100
AcDbEntity
  8
D-MTR-TXT
  6
Continuous
 62
     7
370
    13
100
AcDbText
 10
346.76020834
 20
206.253566435
 30
0.0
 40
2.777777777777778
  1
90
 41
0.8
  7
ＭＳ ゴシック
 11
346.76020834
 21
205.74614456
 31
0.0
100
AcDbText
 73
     1
  0
TEXT
  5
5B2
330
1F
100
AcDbEntity
  8
D-MTR-TXT
  6
Continuous
 62
     7
370
    13
100
AcDbText
 10
358.63945888
 20
206.253566435
 30
0.0
 40
2.777777777777778
  1
100
 41
0.8
  7
ＭＳ ゴシック
 11
358.63945888
 21
205.74614456
 31
0.0
100
AcDbText
 73
     1
  0
TEXT
  5
5B3
330
1F
100
AcDbEntity
  8
D-MTR-TXT
  6
Continuous
 62
     7
370
    13
100
AcDbText
 10
374.76020834
 20
206.253566435
 30
0.0
 40
2.777777777777778
  1
70
 41
0.8
  7
ＭＳ ゴシック
 11
374.76020834
 21
205.74614456
 31
0.0
100
AcDbText
 73
     1
  0
TEXT
  5
5B4
330
1F
100
AcDbEntity
  8
D-MTR-TXT
  6
Continuous
 62
     7
370
    13
100
AcDbText
 10
302.70471272
 20
198.253566435
 30
0.0
 40
2.777777777777778
  1
110
 41
0.8
  7
ＭＳ ゴシック
 11
302.70471272
 21
197.74614456
 31
0.0
100
AcDbText
 73
     1
  0
TEXT
  5
5B5
330
1F
100
AcDbEntity
  8
D-MTR-TXT
  6
Continuous
 62
     7
370
    13
100
AcDbText
 10
318.76020834
 20
198.253566435
 30
0.0
 40
2.777777777777778
  1
80
 41
0.8
  7
ＭＳ ゴシック
 11
318.76020834
 21
197.74614456
 31
0.0
100
AcDbText
 73
     1
  0
TEXT
  5
5B6
330
1F
100
AcDbEntity
  8
D-MTR-TXT
  6
Continuous
 62
     7
370
    13
100
AcDbText
 10
332.76020834
 20
198.253566435
 30
0.0
 40
2.777777777777778
  1
90
 41
0.8
  7
ＭＳ ゴシック
 11
332.76020834
 21
197.74614456
 31
0.0
100
AcDbText
 73
     1
  0
TEXT
  5
5B7
330
1F
100
AcDbEntity
  8
D-MTR-TXT
  6
Continuous
 62
     7
370
    13
100
AcDbText
 10
346.76020834
 20
198.253566435
 30
0.0
 40
2.777777777777778
  1
70
 41
0.8
  7
ＭＳ ゴシック
 11
346.76020834
 21
197.74614456
 31
0.0
100
AcDbText
 73
     1
  0
TEXT
  5
5B8
330
1F
100
AcDbEntity
  8
D-MTR-TXT
  6
Continuous
 62
     7
370
    13
100
AcDbText
 10
360.76020834
 20
198.253566435
 30
0.0
 40
2.777777777777778
  1
80
 41
0.8
  7
ＭＳ ゴシック
 11
360.76020834
 21
197.74614456
 31
0.0
100
AcDbText
 73
     1
  0
TEXT
  5
5B9
330
1F
100
AcDbEntity
  8
D-MTR-TXT
  6
Continuous
 62
     7
370
    13
100
AcDbText
 10
374.76020834
 20
198.253566435
 30
0.0
 40
2.777777777777778
  1
60
 41
0.8
  7
ＭＳ ゴシック
 11
374.76020834
 21
197.74614456
 31
0.0
100
AcDbText
 73
     1
  0
TEXT
  5
5BA
330
1F
100
AcDbEntity
  8
D-MTR-TXT
  6
Continuous
 62
     7
370
    13
100
AcDbText
 10
304.76020834
 20
182.253566435
 30
0.0
 40
2.777777777777778
  1
-
 41
0.8
  7
ＭＳ ゴシック
 11
304.76020834
 21
181.74614456
 31
0.0
100
AcDbText
 73
     1
  0
TEXT
  5
5BB
330
1F
100
AcDbEntity
  8
D-MTR-TXT
  6
Continuous
 62
     7
370
    13
100
AcDbText
 10
316.69383708
 20
182.253566435
 30
0.0
 40
2.777777777777778
  1
120
 41
0.8
  7
ＭＳ ゴシック
 11
316.69383708
 21
181.74614456
 31
0.0
100
AcDbText
 73
     1
  0
TEXT
  5
5BC
330
1F
100
AcDbEntity
  8
D-MTR-TXT
  6
Continuous
 62
     7
370
    13
100
AcDbText
 10
330.69383708
 20
182.253566435
 30
0.0
 40
2.777777777777778
  1
150
 41
0.8
  7
ＭＳ ゴシック
 11
330.69383708
 21
181.74614456
 31
0.0
100
AcDbText
 73
     1
  0
TEXT
  5
5BD
330
1F
100
AcDbEntity
  8
D-MTR-TXT
  6
Continuous
 62
     7
370
    13
100
AcDbText
 10
344.69383708
 20
182.253566435
 30
0.0
 40
2.777777777777778
  1
110
 41
0.8
  7
ＭＳ ゴシック
 11
344.69383708
 21
181.74614456
 31
0.0
100
AcDbText
 73
     1
  0
TEXT
  5
5BE
330
1F
100
AcDbEntity
  8
D-MTR-TXT
  6
Continuous
 62
     7
370
    13
100
AcDbText
 10
358.63945888
 20
190.253566435
 30
0.0
 40
2.777777777777778
  1
100
 41
0.8
  7
ＭＳ ゴシック
 11
358.63945888
 21
189.74614456
 31
0.0
100
AcDbText
 73
     1
  0
TEXT
  5
5BF
330
1F
100
AcDbEntity
  8
D-MTR-TXT
  6
Continuous
 62
     7
370
    13
100
AcDbText
 10
374.76020834
 20
190.253566435
 30
0.0
 40
2.777777777777778
  1
70
 41
0.8
  7
ＭＳ ゴシック
 11
374.76020834
 21
189.74614456
 31
0.0
100
AcDbText
 73
     1
  0
TEXT
  5
5C0
330
1F
100
AcDbEntity
  8
D-MTR-TXT
  6
Continuous
 62
     7
370
    13
100
AcDbText
 10
358.70471272
 20
182.253566435
 30
0.0
 40
2.777777777777778
  1
130
 41
0.8
  7
ＭＳ ゴシック
 11
358.70471272
 21
181.74614456
 31
0.0
100
AcDbText
 73
     1
  0
TEXT
  5
5C1
330
1F
100
AcDbEntity
  8
D-MTR-TXT
  6
Continuous
 62
     7
370
    13
100
AcDbText
 10
372.70471272
 20
182.253566435
 30
0.0
 40
2.777777777777778
  1
100
 41
0.8
  7
ＭＳ ゴシック
 11
372.70471272
 21
181.74614456
 31
0.0
100
AcDbText
 73
     1
  0
TEXT
  5
5C2
330
1F
100
AcDbEntity
  8
D-MTR-TXT
  6
Continuous
 62
     7
370
    13
100
AcDbText
 10
302.70471272
 20
190.253566435
 30
0.0
 40
2.777777777777778
  1
130
 41
0.8
  7
ＭＳ ゴシック
 11
302.70471272
 21
189.74614456
 31
0.0
100
AcDbText
 73
     1
  0
TEXT
  5
5C3
330
1F
100
AcDbEntity
  8
D-MTR-TXT
  6
Continuous
 62
     7
370
    13
100
AcDbText
 10
316.70471272
 20
190.253566435
 30
0.0
 40
2.777777777777778
  1
100
 41
0.8
  7
ＭＳ ゴシック
 11
316.70471272
 21
189.74614456
 31
0.0
100
AcDbText
 73
     1
  0
TEXT
  5
5C4
330
1F
100
AcDbEntity
  8
D-MTR-TXT
  6
Continuous
 62
     7
370
    13
100
AcDbText
 10
330.70471272
 20
190.253566435
 30
0.0
 40
2.777777777777778
  1
120
 41
0.8
  7
ＭＳ ゴシック
 11
330.70471272
 21
189.74614456
 31
0.0
100
AcDbText
 73
     1
  0
TEXT
  5
5C5
330
1F
100
AcDbEntity
  8
D-MTR-TXT
  6
Continuous
 62
     7
370
    13
100
AcDbText
 10
346.76020834
 20
190.253566435
 30
0.0
 40
2.777777777777778
  1
90
 41
0.8
  7
ＭＳ ゴシック
 11
346.76020834
 21
189.74614456
 31
0.0
100
AcDbText
 73
     1
  0
TEXT
  5
5C6
330
1F
100
AcDbEntity
  8
D-MTR-TXT
  6
Continuous
 62
     7
370
    13
100
AcDbText
 10
298.02515786
 20
142.426736495
 30
0.0
 40
2.777777777777778
  1
76.3
 41
0.8
  7
ＭＳ ゴシック
 11
298.02515786
 21
141.91931462
 31
0.0
100
AcDbText
 73
     1
  0
TEXT
  5
5C7
330
1F
100
AcDbEntity
  8
D-MTR-TXT
  6
Continuous
 62
     7
370
    13
100
AcDbText
 10
313.807756
 20
142.518747535
 30
0.0
 40
2.777777777777778
  1
3.2
 41
0.8
  7
ＭＳ ゴシック
 11
313.807756
 21
142.01132566
 31
0.0
100
AcDbText
 73
     1
  0
TEXT
  5
5C8
330
1F
100
AcDbEntity
  8
D-MTR-TXT
  6
Continuous
 62
     7
370
    13
100
AcDbText
 10
326.11779286
 20
142.599595995
 30
0.0
 40
2.777777777777778
  1
3600
 41
0.8
  7
ＭＳ ゴシック
 11
326.11779286
 21
142.09217412
 31
0.0
100
AcDbText
 73
     1
  0
TEXT
  5
5C9
330
1F
100
AcDbEntity
  8
D-MTR-TXT
  6
Continuous
 62
     7
370
    13
100
AcDbText
 10
340.02515786
 20
142.426736495
 30
0.0
 40
2.777777777777778
  1
76.3
 41
0.8
  7
ＭＳ ゴシック
 11
340.02515786
 21
141.91931462
 31
0.0
100
AcDbText
 73
     1
  0
TEXT
  5
5CA
330
1F
100
AcDbEntity
  8
D-MTR-TXT
  6
Continuous
 62
     7
370
    13
100
AcDbText
 10
355.807756
 20
142.518747535
 30
0.0
 40
2.777777777777778
  1
3.2
 41
0.8
  7
ＭＳ ゴシック
 11
355.807756
 21
142.01132566
 31
0.0
100
AcDbText
 73
     1
  0
TEXT
  5
5CB
330
1F
100
AcDbEntity
  8
D-MTR-TXT
  6
Continuous
 62
     7
370
    13
100
AcDbText
 10
368.11779286
 20
142.599595995
 30
0.0
 40
2.777777777777778
  1
4000
 41
0.8
  7
ＭＳ ゴシック
 11
368.11779286
 21
142.09217412
 31
0.0
100
AcDbText
 73
     1
  0
TEXT
  5
5CC
330
1F
100
AcDbEntity
  8
D-MTR-TXT
  6
Continuous
 62
     7
370
    13
100
AcDbText
 10
298.02515786
 20
134.426736495
 30
0.0
 40
2.777777777777778
  1
76.3
 41
0.8
  7
ＭＳ ゴシック
 11
298.02515786
 21
133.91931462
 31
0.0
100
AcDbText
 73
     1
  0
TEXT
  5
5CD
330
1F
100
AcDbEntity
  8
D-MTR-TXT
  6
Continuous
 62
     7
370
    13
100
AcDbText
 10
313.807756
 20
134.518747535
 30
0.0
 40
2.777777777777778
  1
3.2
 41
0.8
  7
ＭＳ ゴシック
 11
313.807756
 21
134.01132566
 31
0.0
100
AcDbText
 73
     1
  0
TEXT
  5
5CE
330
1F
100
AcDbEntity
  8
D-MTR-TXT
  6
Continuous
 62
     7
370
    13
100
AcDbText
 10
326.11779286
 20
134.599595995
 30
0.0
 40
2.777777777777778
  1
4000
 41
0.8
  7
ＭＳ ゴシック
 11
326.11779286
 21
134.09217412
 31
0.0
100
AcDbText
 73
     1
  0
TEXT
  5
5CF
330
1F
100
AcDbEntity
  8
D-MTR-TXT
  6
Continuous
 62
     7
370
    13
100
AcDbText
 10
340.02515786
 20
134.426736495
 30
0.0
 40
2.777777777777778
  1
89.1
 41
0.8
  7
ＭＳ ゴシック
 11
340.02515786
 21
133.91931462
 31
0.0
100
AcDbText
 73
     1
  0
TEXT
  5
5D0
330
1F
100
AcDbEntity
  8
D-MTR-TXT
  6
Continuous
 62
     7
370
    13
100
AcDbText
 10
355.807756
 20
134.518747535
 30
0.0
 40
2.777777777777778
  1
3.2
 41
0.8
  7
ＭＳ ゴシック
 11
355.807756
 21
134.01132566
 31
0.0
100
AcDbText
 73
     1
  0
TEXT
  5
5D1
330
1F
100
AcDbEntity
  8
D-MTR-TXT
  6
Continuous
 62
     7
370
    13
100
AcDbText
 10
368.11779286
 20
134.599595995
 30
0.0
 40
2.777777777777778
  1
4000
 41
0.8
  7
ＭＳ ゴシック
 11
368.11779286
 21
134.09217412
 31
0.0
100
AcDbText
 73
     1
  0
TEXT
  5
5D2
330
1F
100
AcDbEntity
  8
D-MTR-TXT
  6
Continuous
 62
     7
370
    13
100
AcDbText
 10
298.02515786
 20
126.426736495
 30
0.0
 40
2.777777777777778
  1
89.1
 41
0.8
  7
ＭＳ ゴシック
 11
298.02515786
 21
125.91931462
 31
0.0
100
AcDbText
 73
     1
  0
TEXT
  5
5D3
330
1F
100
AcDbEntity
  8
D-MTR-TXT
  6
Continuous
 62
     7
370
    13
100
AcDbText
 10
313.807756
 20
126.518747535
 30
0.0
 40
2.777777777777778
  1
3.2
 41
0.8
  7
ＭＳ ゴシック
 11
313.807756
 21
126.01132566
 31
0.0
100
AcDbText
 73
     1
  0
TEXT
  5
5D4
330
1F
100
AcDbEntity
  8
D-MTR-TXT
  6
Continuous
 62
     7
370
    13
100
AcDbText
 10
326.11779286
 20
126.599595995
 30
0.0
 40
2.777777777777778
  1
4400
 41
0.8
  7
ＭＳ ゴシック
 11
326.11779286
 21
126.09217412
 31
0.0
100
AcDbText
 73
     1
  0
TEXT
  5
5D5
330
1F
100
AcDbEntity
  8
D-MTR-TXT
  6
Continuous
 62
     7
370
    13
100
AcDbText
 10
337.96966224
 20
126.459363415
 30
0.0
 40
2.777777777777778
  1
101.6
 41
0.8
  7
ＭＳ ゴシック
 11
337.96966224
 21
125.95194154
 31
0.0
100
AcDbText
 73
     1
  0
TEXT
  5
5D6
330
1F
100
AcDbEntity
  8
D-MTR-TXT
  6
Continuous
 62
     7
370
    13
100
AcDbText
 10
355.807756
 20
126.518747535
 30
0.0
 40
2.777777777777778
  1
4.0
 41
0.8
  7
ＭＳ ゴシック
 11
355.807756
 21
126.01132566
 31
0.0
100
AcDbText
 73
     1
  0
TEXT
  5
5D7
330
1F
100
AcDbEntity
  8
D-MTR-TXT
  6
Continuous
 62
     7
370
    13
100
AcDbText
 10
368.11779286
 20
126.599595995
 30
0.0
 40
2.777777777777778
  1
4800
 41
0.8
  7
ＭＳ ゴシック
 11
368.11779286
 21
126.09217412
 31
0.0
100
AcDbText
 73
     1
  0
TEXT
  5
5D8
330
1F
100
AcDbEntity
  8
D-MTR
  6
Continuous
 62
     7
370
    13
100
AcDbText
 10
254.49795364
 20
255.751997075
 30
0.0
 40
2.777777777777778
  1
道路反射鏡の標準基礎寸法（設計風速 40m/sec）
 41
0.8000000000000002
  7
ＭＳ ゴシック
 11
254.49795364
 21
255.2445752
 31
0.0
100
AcDbText
 73
     1
  0
TEXT
  5
5D9
330
1F
100
AcDbEntity
  8
D-MTR
  6
Continuous
 62
     7
370
    13
100
AcDbText
 10
253.60846126
 20
166.982634255
 30
0.0
 40
2.777777777777778
  1
風速に適応する支柱寸法 （単位mm）
 41
0.8
  7
ＭＳ ゴシック
 11
253.60846126
 21
166.47521238
 31
0.0
100
AcDbText
 73
     1
  0
LINE
  5
5DA
330
1F
100
AcDbEntity
  8
D-TTL
  6
Continuous
 62
     7
370
    13
100
AcDbLine
 10
63.09252517249648
 20
173.4262254785539
 30
0.0
 11
65.46532399453656
 21
173.6577183641544
 31
0.0
  0
LINE
  5
5DB
330
1F
100
AcDbEntity
  8
D-TTL
  6
Continuous
 62
     7
370
    13
100
AcDbLine
 10
63.09252517249648
 20
173.4262254785539
 30
0.0
 11
64.05866976467415
 21
173.8219079611152
 31
0.0
  0
LINE
  5
5DC
330
1F
100
AcDbEntity
  8
D-TTL
  6
Continuous
 62
     7
370
    13
100
AcDbLine
 10
68.97495755029945
 20
173.6571289092153
 30
0.0
 11
71.18917078143599
 21
173.4411078098075
 31
0.0
  0
LINE
  5
5DD
330
1F
100
AcDbEntity
  8
D-TTL
  6
Continuous
 62
     7
370
    13
100
AcDbLine
 10
71.18917078143599
 20
173.4411078098075
 30
0.0
 11
70.22302618925832
 21
173.8367902923688
 31
0.0
  0
LINE
  5
5DE
330
1F
100
AcDbEntity
  8
D-TTL
  6
Continuous
 62
     7
370
    13
100
AcDbLine
 10
135.4960224810964
 20
173.7017203343943
 30
0.0
 11
137.8688213031365
 21
173.9332132199947
 31
0.0
  0
LINE
  5
5DF
330
1F
100
AcDbEntity
  8
D-TTL
  6
Continuous
 62
     7
370
    13
100
AcDbLine
 10
135.4960224810964
 20
173.7017203343943
 30
0.0
 11
136.4621670732741
 21
174.0974028169555
 31
0.0
  0
LINE
  5
5E0
330
1F
100
AcDbEntity
  8
D-TTL
  6
Continuous
 62
     7
370
    13
100
AcDbLine
 10
141.3784548588994
 20
173.9326237650556
 30
0.0
 11
143.5926680900359
 21
173.7166026656479
 31
0.0
  0
LINE
  5
5E1
330
1F
100
AcDbEntity
  8
D-TTL
  6
Continuous
 62
     7
370
    13
100
AcDbLine
 10
143.5926680900359
 20
173.7166026656479
 30
0.0
 11
142.6265234978583
 21
174.1122851482091
 31
0.0
  0
LINE
  5
5E2
330
1F
100
AcDbEntity
  8
D-TTL
  6
Continuous
 62
     7
370
    13
100
AcDbLine
 10
195.0793313949706
 20
173.3613306404401
 30
0.0
 11
197.4521302170106
 21
173.5928235260406
 31
0.0
  0
LINE
  5
5E3
330
1F
100
AcDbEntity
  8
D-TTL
  6
Continuous
 62
     7
370
    13
100
AcDbLine
 10
195.0793313949706
 20
173.3613306404401
 30
0.0
 11
196.0454759871482
 21
173.7570131230014
 31
0.0
  0
LINE
  5
5E4
330
1F
100
AcDbEntity
  8
D-TTL
  6
Continuous
 62
     7
370
    13
100
AcDbLine
 10
200.9617637727735
 20
173.5922340711015
 30
0.0
 11
203.17597700391
 21
173.3762129716937
 31
0.0
  0
LINE
  5
5E5
330
1F
100
AcDbEntity
  8
D-TTL
  6
Continuous
 62
     7
370
    13
100
AcDbLine
 10
203.17597700391
 20
173.3762129716937
 30
0.0
 11
202.2098324117324
 21
173.771895454255
 31
0.0
  0
ENDSEC
  0
SECTION
  2
OBJECTS
  0
DICTIONARY
  5
C
330
0
100
AcDbDictionary
281
     1
  3
ACAD_GROUP
350
D
  3
ACAD_LAYOUT
350
1A
  3
ACAD_MATERIAL
350
3B
  3
ACAD_MLEADERSTYLE
350
60A
  3
ACAD_MLINESTYLE
350
17
  3
ACAD_PLOTSETTINGS
350
19
  3
ACAD_PLOTSTYLENAME
350
E
  3
ACAD_SCALELIST
350
5E6
  3
ACAD_VISUALSTYLE
350
2A
  3
AcDbVariableDictionary
350
608
  0
DICTIONARY
  5
D
102
{ACAD_REACTORS
330
C
102
}
330
C
100
AcDbDictionary
281
     1
  0
DICTIONARY
  5
1A
102
{ACAD_REACTORS
330
C
102
}
330
C
100
AcDbDictionary
281
     1
  3
Layout1
350
1E
  3
Layout2
350
26
  3
Model
350
22
  0
DICTIONARY
  5
3B
102
{ACAD_REACTORS
330
C
102
}
330
C
100
AcDbDictionary
281
     1
  3
ByBlock
350
3D
  3
ByLayer
350
3C
  3
Global
350
3E
  0
DICTIONARY
  5
60A
102
{ACAD_REACTORS
330
C
102
}
330
C
100
AcDbDictionary
281
     1
  0
DICTIONARY
  5
17
102
{ACAD_REACTORS
330
C
102
}
330
C
100
AcDbDictionary
281
     1
  3
Standard
350
18
  0
DICTIONARY
  5
19
102
{ACAD_REACTORS
330
C
102
}
330
C
100
AcDbDictionary
281
     1
  0
ACDBDICTIONARYWDFLT
  5
E
102
{ACAD_REACTORS
330
C
102
}
330
C
100
AcDbDictionary
281
     1
  3
Normal
350
F
100
AcDbDictionaryWithDefault
340
F
  0
DICTIONARY
  5
5E6
102
{ACAD_REACTORS
330
C
102
}
330
C
100
AcDbDictionary
281
     1
  3
A0
350
5E7
  3
A1
350
5E8
  3
A2
350
5E9
  3
A3
350
5EA
  3
A4
350
5EB
  3
A5
350
5EC
  3
A6
350
5ED
  3
A7
350
5EE
  3
A8
350
5EF
  3
A9
350
5F0
  3
B0
350
5F1
  3
B1
350
5F2
  3
B2
350
5F3
  3
B3
350
5F4
  3
B4
350
5F5
  3
B5
350
5F6
  3
B6
350
5F7
  3
B7
350
5F8
  3
B8
350
5F9
  3
B9
350
5FA
  3
C0
350
5FB
  3
C1
350
5FC
  3
C2
350
5FD
  3
C3
350
5FE
  3
C4
350
5FF
  3
C5
350
600
  3
C6
350
601
  3
C7
350
602
  3
C8
350
603
  3
C9
350
604
  3
D0
350
605
  3
D1
350
606
  3
D2
350
607
  0
DICTIONARY
  5
2A
102
{ACAD_REACTORS
330
C
102
}
330
C
100
AcDbDictionary
281
     1
  3
2dWireframe
350
2F
  3
3D Hidden
350
31
  3
3dWireframe
350
30
  3
Basic
350
32
  3
Brighten
350
36
  3
ColorChange
350
3A
  3
Conceptual
350
34
  3
Dim
350
35
  3
Facepattern
350
39
  3
Flat
350
2B
  3
FlatWithEdges
350
2C
  3
Gouraud
350
2D
  3
GouraudWithEdges
350
2E
  3
Linepattern
350
38
  3
Realistic
350
33
  3
Thicken
350
37
  0
DICTIONARY
  5
608
102
{ACAD_REACTORS
330
C
102
}
330
C
100
AcDbDictionary
281
     1
  3
CANNOSCALE
350
60B
  3
DIMASSOC
350
60C
  3
HIDETEXT
350
60D
  0
LAYOUT
  5
1E
102
{ACAD_REACTORS
330
1A
102
}
330
1A
100
AcDbPlotSettings
  1

  2
none_device
  4

  6

 40
0.0
 41
0.0
 42
0.0
 43
0.0
 44
0.0
 45
0.0
 46
0.0
 47
0.0
 48
0.0
 49
0.0
140
0.0
141
0.0
142
1.0
143
1.0
 70
   688
 72
     0
 73
     0
 74
     5
  7

 75
    16
147
1.0
148
0.0
149
0.0
100
AcDbLayout
  1
Layout1
 70
     1
 71
     1
 10
0.0
 20
0.0
 11
12.0
 21
9.0
 12
0.0
 22
0.0
 32
0.0
 14
1.000000000000000E+20
 24
1.000000000000000E+20
 34
1.000000000000000E+20
 15
-1.000000000000000E+20
 25
-1.000000000000000E+20
 35
-1.000000000000000E+20
146
0.0
 13
0.0
 23
0.0
 33
0.0
 16
1.0
 26
0.0
 36
0.0
 17
0.0
 27
1.0
 37
0.0
 76
     0
330
1B
  0
LAYOUT
  5
26
102
{ACAD_REACTORS
330
1A
102
}
330
1A
100
AcDbPlotSettings
  1

  2
none_device
  4

  6

 40
0.0
 41
0.0
 42
0.0
 43
0.0
 44
0.0
 45
0.0
 46
0.0
 47
0.0
 48
0.0
 49
0.0
140
0.0
141
0.0
142
1.0
143
1.0
 70
   688
 72
     0
 73
     0
 74
     5
  7

 75
    16
147
1.0
148
0.0
149
0.0
100
AcDbLayout
  1
Layout2
 70
     1
 71
     2
 10
0.0
 20
0.0
 11
0.0
 21
0.0
 12
0.0
 22
0.0
 32
0.0
 14
0.0
 24
0.0
 34
0.0
 15
0.0
 25
0.0
 35
0.0
146
0.0
 13
0.0
 23
0.0
 33
0.0
 16
1.0
 26
0.0
 36
0.0
 17
0.0
 27
1.0
 37
0.0
 76
     0
330
23
  0
LAYOUT
  5
22
102
{ACAD_REACTORS
330
1A
102
}
330
1A
100
AcDbPlotSettings
  1

  2
none_device
  4

  6

 40
0.0
 41
0.0
 42
0.0
 43
0.0
 44
0.0
 45
0.0
 46
0.0
 47
0.0
 48
0.0
 49
0.0
140
0.0
141
0.0
142
1.0
143
1.0
 70
  1712
 72
     0
 73
     0
 74
     0
  7

 75
     0
147
1.0
148
0.0
149
0.0
100
AcDbLayout
  1
Model
 70
     1
 71
     0
 10
21.40466322
 20
87.43948474000001
 11
382.77258508
 21
274.02843234
 12
0.0
 22
0.0
 32
0.0
 14
21.40466322
 24
87.43948474000001
 34
0.0
 15
382.77258508
 25
274.02843234
 35
0.0
146
0.0
 13
0.0
 23
0.0
 33
0.0
 16
1.0
 26
0.0
 36
0.0
 17
0.0
 27
1.0
 37
0.0
 76
     0
330
1F
331
29
  0
MATERIAL
  5
3D
102
{ACAD_REACTORS
330
3B
102
}
102
{ACAD_XDICTIONARY
360
630
102
}
330
3B
100
AcDbMaterial
  1
ByBlock
  0
MATERIAL
  5
3C
102
{ACAD_REACTORS
330
3B
102
}
102
{ACAD_XDICTIONARY
360
62E
102
}
330
3B
100
AcDbMaterial
  1
ByLayer
  0
MATERIAL
  5
3E
102
{ACAD_REACTORS
330
3B
102
}
102
{ACAD_XDICTIONARY
360
632
102
}
330
3B
100
AcDbMaterial
  1
Global
  0
MLINESTYLE
  5
18
102
{ACAD_REACTORS
330
17
102
}
330
17
100
AcDbMlineStyle
  2
Standard
 70
     0
  3

 62
   256
 51
90.0
 52
90.0
 71
     2
 49
0.5
 62
   256
  6
BYLAYER
 49
-0.5
 62
   256
  6
BYLAYER
  0
ACDBPLACEHOLDER
  5
F
102
{ACAD_REACTORS
330
E
102
}
330
E
  0
SCALE
  5
5E7
102
{ACAD_REACTORS
330
5E6
102
}
330
5E6
100
AcDbScale
 70
     0
300
1:1
140
1.0
141
1.0
290
     1
  0
SCALE
  5
5E8
102
{ACAD_REACTORS
330
5E6
102
}
330
5E6
100
AcDbScale
 70
     0
300
1:2
140
1.0
141
2.0
290
     0
  0
SCALE
  5
5E9
102
{ACAD_REACTORS
330
5E6
102
}
330
5E6
100
AcDbScale
 70
     0
300
1:4
140
1.0
141
4.0
290
     0
  0
SCALE
  5
5EA
102
{ACAD_REACTORS
330
5E6
102
}
330
5E6
100
AcDbScale
 70
     0
300
1:5
140
1.0
141
5.0
290
     0
  0
SCALE
  5
5EB
102
{ACAD_REACTORS
330
5E6
102
}
330
5E6
100
AcDbScale
 70
     0
300
1:8
140
1.0
141
8.0
290
     0
  0
SCALE
  5
5EC
102
{ACAD_REACTORS
330
5E6
102
}
330
5E6
100
AcDbScale
 70
     0
300
1:10
140
1.0
141
10.0
290
     0
  0
SCALE
  5
5ED
102
{ACAD_REACTORS
330
5E6
102
}
330
5E6
100
AcDbScale
 70
     0
300
1:16
140
1.0
141
16.0
290
     0
  0
SCALE
  5
5EE
102
{ACAD_REACTORS
330
5E6
102
}
330
5E6
100
AcDbScale
 70
     0
300
1:20
140
1.0
141
20.0
290
     0
  0
SCALE
  5
5EF
102
{ACAD_REACTORS
330
5E6
102
}
330
5E6
100
AcDbScale
 70
     0
300
1:30
140
1.0
141
30.0
290
     0
  0
SCALE
  5
5F0
102
{ACAD_REACTORS
330
5E6
102
}
330
5E6
100
AcDbScale
 70
     0
300
1:40
140
1.0
141
40.0
290
     0
  0
SCALE
  5
5F1
102
{ACAD_REACTORS
330
5E6
102
}
330
5E6
100
AcDbScale
 70
     0
300
1:50
140
1.0
141
50.0
290
     0
  0
SCALE
  5
5F2
102
{ACAD_REACTORS
330
5E6
102
}
330
5E6
100
AcDbScale
 70
     0
300
1:100
140
1.0
141
100.0
290
     0
  0
SCALE
  5
5F3
102
{ACAD_REACTORS
330
5E6
102
}
330
5E6
100
AcDbScale
 70
     0
300
2:1
140
2.0
141
1.0
290
     0
  0
SCALE
  5
5F4
102
{ACAD_REACTORS
330
5E6
102
}
330
5E6
100
AcDbScale
 70
     0
300
4:1
140
4.0
141
1.0
290
     0
  0
SCALE
  5
5F5
102
{ACAD_REACTORS
330
5E6
102
}
330
5E6
100
AcDbScale
 70
     0
300
8:1
140
8.0
141
1.0
290
     0
  0
SCALE
  5
5F6
102
{ACAD_REACTORS
330
5E6
102
}
330
5E6
100
AcDbScale
 70
     0
300
10:1
140
10.0
141
1.0
290
     0
  0
SCALE
  5
5F7
102
{ACAD_REACTORS
330
5E6
102
}
330
5E6
100
AcDbScale
 70
     0
300
100:1
140
100.0
141
1.0
290
     0
  0
SCALE
  5
5F8
102
{ACAD_REACTORS
330
5E6
102
}
330
5E6
100
AcDbScale
 70
     0
300
1/128" = 1'-0"
140
0.0078125
141
12.0
290
     0
  0
SCALE
  5
5F9
102
{ACAD_REACTORS
330
5E6
102
}
330
5E6
100
AcDbScale
 70
     0
300
1/64" = 1'-0"
140
0.015625
141
12.0
290
     0
  0
SCALE
  5
5FA
102
{ACAD_REACTORS
330
5E6
102
}
330
5E6
100
AcDbScale
 70
     0
300
1/32" = 1'-0"
140
0.03125
141
12.0
290
     0
  0
SCALE
  5
5FB
102
{ACAD_REACTORS
330
5E6
102
}
330
5E6
100
AcDbScale
 70
     0
300
1/16" = 1'-0"
140
0.0625
141
12.0
290
     0
  0
SCALE
  5
5FC
102
{ACAD_REACTORS
330
5E6
102
}
330
5E6
100
AcDbScale
 70
     0
300
3/32" = 1'-0"
140
0.09375
141
12.0
290
     0
  0
SCALE
  5
5FD
102
{ACAD_REACTORS
330
5E6
102
}
330
5E6
100
AcDbScale
 70
     0
300
1/8" = 1'-0"
140
0.125
141
12.0
290
     0
  0
SCALE
  5
5FE
102
{ACAD_REACTORS
330
5E6
102
}
330
5E6
100
AcDbScale
 70
     0
300
3/16" = 1'-0"
140
0.1875
141
12.0
290
     0
  0
SCALE
  5
5FF
102
{ACAD_REACTORS
330
5E6
102
}
330
5E6
100
AcDbScale
 70
     0
300
1/4" = 1'-0"
140
0.25
141
12.0
290
     0
  0
SCALE
  5
600
102
{ACAD_REACTORS
330
5E6
102
}
330
5E6
100
AcDbScale
 70
     0
300
3/8" = 1'-0"
140
0.375
141
12.0
290
     0
  0
SCALE
  5
601
102
{ACAD_REACTORS
330
5E6
102
}
330
5E6
100
AcDbScale
 70
     0
300
1/2" = 1'-0"
140
0.5
141
12.0
290
     0
  0
SCALE
  5
602
102
{ACAD_REACTORS
330
5E6
102
}
330
5E6
100
AcDbScale
 70
     0
300
3/4" = 1'-0"
140
0.75
141
12.0
290
     0
  0
SCALE
  5
603
102
{ACAD_REACTORS
330
5E6
102
}
330
5E6
100
AcDbScale
 70
     0
300
1" = 1'-0"
140
1.0
141
12.0
290
     0
  0
SCALE
  5
604
102
{ACAD_REACTORS
330
5E6
102
}
330
5E6
100
AcDbScale
 70
     0
300
1-1/2" = 1'-0"
140
1.5
141
12.0
290
     0
  0
SCALE
  5
605
102
{ACAD_REACTORS
330
5E6
102
}
330
5E6
100
AcDbScale
 70
     0
300
3" = 1'-0"
140
3.0
141
12.0
290
     0
  0
SCALE
  5
606
102
{ACAD_REACTORS
330
5E6
102
}
330
5E6
100
AcDbScale
 70
     0
300
6" = 1'-0"
140
6.0
141
12.0
290
     0
  0
SCALE
  5
607
102
{ACAD_REACTORS
330
5E6
102
}
330
5E6
100
AcDbScale
 70
     0
300
1'-0" = 1'-0"
140
12.0
141
12.0
290
     0
  0
VISUALSTYLE
  5
2F
102
{ACAD_REACTORS
330
2A
102
}
102
{ACAD_XDICTIONARY
360
616
102
}
330
2A
100
AcDbVisualStyle
  2
2dWireframe
 70
     4
 71
     0
 72
     2
 73
     0
 90
        0
 40
-0.6
 41
-30.0
 62
     5
 63
     7
 74
     1
 91
        4
 64
     7
 65
   257
 75
     1
175
     1
 42
1.0
 92
        0
 66
   257
 43
1.0
 76
     1
 77
     6
 78
     2
 67
     7
 79
     5
170
     0
171
     0
290
     0
174
     0
 93
        1
 44
0.0
173
     0
291
     0
 45
0.0
1001
ACAD
1000
AcDbSavedByObjectVersion
1070
     0
  0
VISUALSTYLE
  5
31
102
{ACAD_REACTORS
330
2A
102
}
102
{ACAD_XDICTIONARY
360
61A
102
}
330
2A
100
AcDbVisualStyle
  2
3D Hidden
 70
     6
 71
     1
 72
     2
 73
     2
 90
        0
 40
-0.6
 41
-30.0
 62
     5
 63
     7
 74
     2
 91
        2
 64
     7
 65
   257
 75
     2
175
     1
 42
40.0
 92
        0
 66
   257
 43
1.0
 76
     1
 77
     6
 78
     2
 67
     7
 79
     3
170
     0
171
     0
290
     0
174
     0
 93
        1
 44
0.0
173
     0
291
     0
 45
0.0
1001
ACAD
1000
AcDbSavedByObjectVersion
1070
     0
  0
VISUALSTYLE
  5
30
102
{ACAD_REACTORS
330
2A
102
}
102
{ACAD_XDICTIONARY
360
618
102
}
330
2A
100
AcDbVisualStyle
  2
3dWireframe
 70
     5
 71
     0
 72
     2
 73
     0
 90
        0
 40
-0.6
 41
-30.0
 62
     5
 63
     7
 74
     1
 91
        4
 64
     7
 65
   257
 75
     1
175
     1
 42
1.0
 92
        0
 66
   257
 43
1.0
 76
     1
 77
     6
 78
     2
 67
     7
 79
     5
170
     0
171
     0
290
     0
174
     0
 93
        1
 44
0.0
173
     0
291
     0
 45
0.0
1001
ACAD
1000
AcDbSavedByObjectVersion
1070
     0
  0
VISUALSTYLE
  5
32
102
{ACAD_REACTORS
330
2A
102
}
102
{ACAD_XDICTIONARY
360
61C
102
}
330
2A
100
AcDbVisualStyle
  2
Basic
 70
     7
 71
     1
 72
     0
 73
     1
 90
        0
 40
-0.6
 41
-30.0
 62
     5
 63
     7
 74
     0
 91
        4
 64
     7
 65
   257
 75
     1
175
     1
 42
1.0
 92
        8
 66
     7
 43
1.0
 76
     1
 77
     6
 78
     2
 67
     7
 79
     5
170
     0
171
     0
290
     0
174
     0
 93
        1
 44
0.0
173
     0
291
     1
 45
0.0
1001
ACAD
1000
AcDbSavedByObjectVersion
1070
     0
  0
VISUALSTYLE
  5
36
102
{ACAD_REACTORS
330
2A
102
}
102
{ACAD_XDICTIONARY
360
624
102
}
330
2A
100
AcDbVisualStyle
  2
Brighten
 70
    12
 71
     2
 72
     2
 73
     0
 90
        0
 40
-0.6
 41
-30.0
 62
     5
 63
     7
 74
     1
 91
        4
 64
     7
 65
   257
 75
     1
175
     1
 42
1.0
 92
        8
 66
     7
 43
1.0
 76
     1
 77
     6
 78
     2
 67
     7
 79
     5
170
     0
171
     0
290
     0
174
     0
 93
        1
 44
50.0
173
     0
291
     1
 45
0.0
1001
ACAD
1000
AcDbSavedByObjectVersion
1070
     0
  0
VISUALSTYLE
  5
3A
102
{ACAD_REACTORS
330
2A
102
}
102
{ACAD_XDICTIONARY
360
62C
102
}
330
2A
100
AcDbVisualStyle
  2
ColorChange
 70
    16
 71
     2
 72
     2
 73
     3
 90
        0
 40
-0.6
 41
-30.0
 62
     5
 63
     8
 74
     1
 91
        4
 64
     7
 65
   257
 75
     1
175
     1
 42
1.0
 92
        8
 66
     8
 43
1.0
 76
     1
 77
     6
 78
     2
 67
     7
 79
     5
170
     0
171
     0
290
     0
174
     0
 93
        1
 44
0.0
173
     0
291
     1
 45
0.0
1001
ACAD
1000
AcDbSavedByObjectVersion
1070
     0
  0
VISUALSTYLE
  5
34
102
{ACAD_REACTORS
330
2A
102
}
102
{ACAD_XDICTIONARY
360
620
102
}
330
2A
100
AcDbVisualStyle
  2
Conceptual
 70
     9
 71
     3
 72
     2
 73
     0
 90
        0
 40
-0.6
 41
-30.0
 62
     5
 63
     7
 74
     2
 91
        2
 64
     7
 65
   257
 75
     1
175
     1
 42
40.0
 92
        8
 66
     7
 43
1.0
 76
     1
 77
     6
 78
     2
 67
     7
 79
     3
170
     0
171
     0
290
     0
174
     0
 93
        1
 44
0.0
173
     0
291
     0
 45
0.0
1001
ACAD
1000
AcDbSavedByObjectVersion
1070
     0
  0
VISUALSTYLE
  5
35
102
{ACAD_REACTORS
330
2A
102
}
102
{ACAD_XDICTIONARY
360
622
102
}
330
2A
100
AcDbVisualStyle
  2
Dim
 70
    11
 71
     2
 72
     2
 73
     0
 90
        0
 40
-0.6
 41
-30.0
 62
     5
 63
     7
 74
     1
 91
        4
 64
     7
 65
   257
 75
     1
175
     1
 42
1.0
 92
        8
 66
     7
 43
1.0
 76
     1
 77
     6
 78
     2
 67
     7
 79
     5
170
     0
171
     0
290
     0
174
     0
 93
        1
 44
-50.0
173
     0
291
     1
 45
0.0
1001
ACAD
1000
AcDbSavedByObjectVersion
1070
     0
  0
VISUALSTYLE
  5
39
102
{ACAD_REACTORS
330
2A
102
}
102
{ACAD_XDICTIONARY
360
62A
102
}
330
2A
100
AcDbVisualStyle
  2
Facepattern
 70
    15
 71
     2
 72
     2
 73
     0
 90
        0
 40
-0.6
 41
-30.0
 62
     5
 63
     7
 74
     1
 91
        4
 64
     7
 65
   257
 75
     1
175
     1
 42
1.0
 92
        8
 66
     7
 43
1.0
 76
     1
 77
     6
 78
     2
 67
     7
 79
     5
170
     0
171
     0
290
     0
174
     0
 93
        1
 44
0.0
173
     0
291
     1
 45
0.0
1001
ACAD
1000
AcDbSavedByObjectVersion
1070
     0
  0
VISUALSTYLE
  5
2B
102
{ACAD_REACTORS
330
2A
102
}
102
{ACAD_XDICTIONARY
360
60E
102
}
330
2A
100
AcDbVisualStyle
  2
Flat
 70
     0
 71
     2
 72
     1
 73
     1
 90
        2
 40
-0.6
 41
30.0
 62
     5
 63
     7
 74
     0
 91
        4
 64
     7
 65
   257
 75
     1
175
     1
 42
1.0
 92
        8
 66
     7
 43
1.0
 76
     1
 77
     6
 78
     2
 67
     7
 79
     5
170
     0
171
     0
290
     0
174
     0
 93
       13
 44
0.0
173
     0
291
     1
 45
0.0
1001
ACAD
1000
AcDbSavedByObjectVersion
1070
     0
  0
VISUALSTYLE
  5
2C
102
{ACAD_REACTORS
330
2A
102
}
102
{ACAD_XDICTIONARY
360
610
102
}
330
2A
100
AcDbVisualStyle
  2
FlatWithEdges
 70
     1
 71
     2
 72
     1
 73
     1
 90
        2
 40
-0.6
 41
30.0
 62
     5
 63
     7
 74
     1
 91
        4
 64
     7
 65
   257
 75
     1
175
     1
 42
1.0
 92
        0
 66
   257
 43
1.0
 76
     1
 77
     6
 78
     2
 67
     7
 79
     5
170
     0
171
     0
290
     0
174
     0
 93
       13
 44
0.0
173
     0
291
     1
 45
0.0
1001
ACAD
1000
AcDbSavedByObjectVersion
1070
     0
  0
VISUALSTYLE
  5
2D
102
{ACAD_REACTORS
330
2A
102
}
102
{ACAD_XDICTIONARY
360
612
102
}
330
2A
100
AcDbVisualStyle
  2
Gouraud
 70
     2
 71
     2
 72
     2
 73
     1
 90
        2
 40
-0.6
 41
30.0
 62
     5
 63
     7
 74
     0
 91
        4
 64
     7
 65
   257
 75
     1
175
     1
 42
1.0
 92
        0
 66
     7
 43
1.0
 76
     1
 77
     6
 78
     2
 67
     7
 79
     5
170
     0
171
     0
290
     0
174
     0
 93
       13
 44
0.0
173
     0
291
     1
 45
0.0
1001
ACAD
1000
AcDbSavedByObjectVersion
1070
     0
  0
VISUALSTYLE
  5
2E
102
{ACAD_REACTORS
330
2A
102
}
102
{ACAD_XDICTIONARY
360
614
102
}
330
2A
100
AcDbVisualStyle
  2
GouraudWithEdges
 70
     3
 71
     2
 72
     2
 73
     1
 90
        2
 40
-0.6
 41
30.0
 62
     5
 63
     7
 74
     1
 91
        4
 64
     7
 65
   257
 75
     1
175
     1
 42
1.0
 92
        0
 66
   257
 43
1.0
 76
     1
 77
     6
 78
     2
 67
     7
 79
     5
170
     0
171
     0
290
     0
174
     0
 93
       13
 44
0.0
173
     0
291
     1
 45
0.0
1001
ACAD
1000
AcDbSavedByObjectVersion
1070
     0
  0
VISUALSTYLE
  5
38
102
{ACAD_REACTORS
330
2A
102
}
102
{ACAD_XDICTIONARY
360
628
102
}
330
2A
100
AcDbVisualStyle
  2
Linepattern
 70
    14
 71
     2
 72
     2
 73
     0
 90
        0
 40
-0.6
 41
-30.0
 62
     5
 63
     7
 74
     1
 91
        4
 64
     7
 65
   257
 75
     7
175
     7
 42
1.0
 92
        8
 66
     7
 43
1.0
 76
     1
 77
     6
 78
     2
 67
     7
 79
     5
170
     0
171
     0
290
     0
174
     0
 93
        1
 44
0.0
173
     0
291
     1
 45
0.0
1001
ACAD
1000
AcDbSavedByObjectVersion
1070
     0
  0
VISUALSTYLE
  5
33
102
{ACAD_REACTORS
330
2A
102
}
102
{ACAD_XDICTIONARY
360
61E
102
}
330
2A
100
AcDbVisualStyle
  2
Realistic
 70
     8
 71
     2
 72
     2
 73
     0
 90
        0
 40
-0.6
 41
-30.0
 62
     5
 63
     7
 74
     1
 91
        0
 64
     7
 65
   257
 75
     1
175
     1
 42
1.0
 92
        8
 66
     8
 43
1.0
 76
     1
 77
     6
 78
     2
 67
     7
 79
     5
170
     0
171
     0
290
     0
174
     0
 93
       13
 44
0.0
173
     0
291
     0
 45
0.0
1001
ACAD
1000
AcDbSavedByObjectVersion
1070
     0
  0
VISUALSTYLE
  5
37
102
{ACAD_REACTORS
330
2A
102
}
102
{ACAD_XDICTIONARY
360
626
102
}
330
2A
100
AcDbVisualStyle
  2
Thicken
 70
    13
 71
     2
 72
     2
 73
     0
 90
        0
 40
-0.6
 41
-30.0
 62
     5
 63
     7
 74
     1
 91
        4
 64
     7
 65
   257
 75
     1
175
     1
 42
1.0
 92
       12
 66
     7
 43
1.0
 76
     1
 77
     6
 78
     2
 67
     7
 79
     5
170
     0
171
     0
290
     0
174
     0
 93
        1
 44
0.0
173
     0
291
     1
 45
0.0
1001
ACAD
1000
AcDbSavedByObjectVersion
1070
     0
  0
DICTIONARYVAR
  5
60B
102
{ACAD_REACTORS
330
608
102
}
330
608
100
DictionaryVariables
280
     0
  1
1:1
  0
DICTIONARYVAR
  5
60C
102
{ACAD_REACTORS
330
608
102
}
330
608
100
DictionaryVariables
280
     0
  1
2
  0
DICTIONARYVAR
  5
60D
102
{ACAD_REACTORS
330
608
102
}
330
608
100
DictionaryVariables
280
     0
  1
1
  0
DICTIONARY
  5
630
330
3D
100
AcDbDictionary
280
     1
281
     1
  3
ACAD_XREC_ROUNDTRIP
360
631
  0
DICTIONARY
  5
62E
330
3C
100
AcDbDictionary
280
     1
281
     1
  3
ACAD_XREC_ROUNDTRIP
360
62F
  0
DICTIONARY
  5
632
330
3E
100
AcDbDictionary
280
     1
281
     1
  3
ACAD_XREC_ROUNDTRIP
360
633
  0
DICTIONARY
  5
616
330
2F
100
AcDbDictionary
280
     1
281
     1
  3
ACAD_XREC_ROUNDTRIP
360
617
  0
DICTIONARY
  5
61A
330
31
100
AcDbDictionary
280
     1
281
     1
  3
ACAD_XREC_ROUNDTRIP
360
61B
  0
DICTIONARY
  5
618
330
30
100
AcDbDictionary
280
     1
281
     1
  3
ACAD_XREC_ROUNDTRIP
360
619
  0
DICTIONARY
  5
61C
330
32
100
AcDbDictionary
280
     1
281
     1
  3
ACAD_XREC_ROUNDTRIP
360
61D
  0
DICTIONARY
  5
624
330
36
100
AcDbDictionary
280
     1
281
     1
  3
ACAD_XREC_ROUNDTRIP
360
625
  0
DICTIONARY
  5
62C
330
3A
100
AcDbDictionary
280
     1
281
     1
  3
ACAD_XREC_ROUNDTRIP
360
62D
  0
DICTIONARY
  5
620
330
34
100
AcDbDictionary
280
     1
281
     1
  3
ACAD_XREC_ROUNDTRIP
360
621
  0
DICTIONARY
  5
622
330
35
100
AcDbDictionary
280
     1
281
     1
  3
ACAD_XREC_ROUNDTRIP
360
623
  0
DICTIONARY
  5
62A
330
39
100
AcDbDictionary
280
     1
281
     1
  3
ACAD_XREC_ROUNDTRIP
360
62B
  0
DICTIONARY
  5
60E
330
2B
100
AcDbDictionary
280
     1
281
     1
  3
ACAD_XREC_ROUNDTRIP
360
60F
  0
DICTIONARY
  5
610
330
2C
100
AcDbDictionary
280
     1
281
     1
  3
ACAD_XREC_ROUNDTRIP
360
611
  0
DICTIONARY
  5
612
330
2D
100
AcDbDictionary
280
     1
281
     1
  3
ACAD_XREC_ROUNDTRIP
360
613
  0
DICTIONARY
  5
614
330
2E
100
AcDbDictionary
280
     1
281
     1
  3
ACAD_XREC_ROUNDTRIP
360
615
  0
DICTIONARY
  5
628
330
38
100
AcDbDictionary
280
     1
281
     1
  3
ACAD_XREC_ROUNDTRIP
360
629
  0
DICTIONARY
  5
61E
330
33
100
AcDbDictionary
280
     1
281
     1
  3
ACAD_XREC_ROUNDTRIP
360
61F
  0
DICTIONARY
  5
626
330
37
100
AcDbDictionary
280
     1
281
     1
  3
ACAD_XREC_ROUNDTRIP
360
627
  0
XRECORD
  5
631
102
{ACAD_REACTORS
330
630
102
}
330
630
100
AcDbXrecord
280
     1
102
MATERIAL
148
0.0
149
0.0
149
0.0
 93
        0
 94
      127
282
     0
 72
     1
 77
     1
171
     1
175
     1
179
     1
273
     0
  0
XRECORD
  5
62F
102
{ACAD_REACTORS
330
62E
102
}
330
62E
100
AcDbXrecord
280
     1
102
MATERIAL
148
0.0
149
0.0
149
0.0
 93
        0
 94
      127
282
     0
 72
     1
 77
     1
171
     1
175
     1
179
     1
273
     0
  0
XRECORD
  5
633
102
{ACAD_REACTORS
330
632
102
}
330
632
100
AcDbXrecord
280
     1
102
MATERIAL
148
0.0
149
0.0
149
0.0
 93
        0
 94
      127
282
     0
 72
     1
 77
     1
171
     1
175
     1
179
     1
273
     0
  0
XRECORD
  5
617
102
{ACAD_REACTORS
330
616
102
}
330
616
100
AcDbXrecord
280
     1
102
RTVSPropertyOp0
 70
     1
102
RTVSPropertyOp1
 70
     1
102
RTVSPropertyOp2
 70
     1
102
RTVSPropertyOp3
 70
     1
102
RTVSPropertyOp4
 70
     1
102
RTVSPropertyOp5
 70
     1
102
RTVSPropertyOp6
 70
     1
102
RTVSPropertyOp7
 70
     1
102
RTVSPropertyOp8
 70
     1
102
RTVSPropertyOp9
 70
     1
102
RTVSPropertyOp10
 70
     1
102
RTVSPropertyOp11
 70
     1
102
RTVSPropertyOp12
 70
     1
102
RTVSPropertyOp13
 70
     1
102
RTVSPropertyOp14
 70
     1
102
RTVSPropertyOp15
 70
     1
102
RTVSPropertyOp16
 70
     1
102
RTVSPropertyOp17
 70
     1
102
RTVSPropertyOp18
 70
     1
102
RTVSPropertyOp19
 70
     1
102
RTVSPropertyOp20
 70
     1
102
RTVSPropertyOp21
 70
     1
102
RTVSPropertyOp22
 70
     1
102
RTVSPropertyOp23
 70
     1
102
RTVSPropertyOp24
 70
     1
102
RTVSPropertyOp25
 70
     1
102
RTVSPropertyOp26
 70
     1
102
RTVSPropertyOp27
 70
     1
  0
XRECORD
  5
61B
102
{ACAD_REACTORS
330
61A
102
}
330
61A
100
AcDbXrecord
280
     1
102
RTVSPropertyOp0
 70
     1
102
RTVSPropertyOp1
 70
     1
102
RTVSPropertyOp2
 70
     1
102
RTVSPropertyOp3
 70
     1
102
RTVSPropertyOp4
 70
     1
102
RTVSPropertyOp5
 70
     1
102
RTVSPropertyOp6
 70
     1
102
RTVSPropertyOp7
 70
     1
102
RTVSPropertyOp8
 70
     1
102
RTVSPropertyOp9
 70
     1
102
RTVSPropertyOp10
 70
     1
102
RTVSPropertyOp11
 70
     1
102
RTVSPropertyOp12
 70
     1
102
RTVSPropertyOp13
 70
     1
102
RTVSPropertyOp14
 70
     1
102
RTVSPropertyOp15
 70
     1
102
RTVSPropertyOp16
 70
     1
102
RTVSPropertyOp17
 70
     1
102
RTVSPropertyOp18
 70
     1
102
RTVSPropertyOp19
 70
     1
102
RTVSPropertyOp20
 70
     1
102
RTVSPropertyOp21
 70
     1
102
RTVSPropertyOp22
 70
     1
102
RTVSPropertyOp23
 70
     1
102
RTVSPropertyOp24
 70
     1
102
RTVSPropertyOp25
 70
     1
102
RTVSPropertyOp26
 70
     1
102
RTVSPropertyOp27
 70
     1
  0
XRECORD
  5
619
102
{ACAD_REACTORS
330
618
102
}
330
618
100
AcDbXrecord
280
     1
102
RTVSPropertyOp0
 70
     1
102
RTVSPropertyOp1
 70
     1
102
RTVSPropertyOp2
 70
     1
102
RTVSPropertyOp3
 70
     1
102
RTVSPropertyOp4
 70
     1
102
RTVSPropertyOp5
 70
     1
102
RTVSPropertyOp6
 70
     1
102
RTVSPropertyOp7
 70
     1
102
RTVSPropertyOp8
 70
     1
102
RTVSPropertyOp9
 70
     1
102
RTVSPropertyOp10
 70
     1
102
RTVSPropertyOp11
 70
     1
102
RTVSPropertyOp12
 70
     1
102
RTVSPropertyOp13
 70
     1
102
RTVSPropertyOp14
 70
     1
102
RTVSPropertyOp15
 70
     1
102
RTVSPropertyOp16
 70
     1
102
RTVSPropertyOp17
 70
     1
102
RTVSPropertyOp18
 70
     1
102
RTVSPropertyOp19
 70
     1
102
RTVSPropertyOp20
 70
     1
102
RTVSPropertyOp21
 70
     1
102
RTVSPropertyOp22
 70
     1
102
RTVSPropertyOp23
 70
     1
102
RTVSPropertyOp24
 70
     1
102
RTVSPropertyOp25
 70
     1
102
RTVSPropertyOp26
 70
     1
102
RTVSPropertyOp27
 70
     1
  0
XRECORD
  5
61D
102
{ACAD_REACTORS
330
61C
102
}
330
61C
100
AcDbXrecord
280
     1
102
RTVSPropertyOp0
 70
     1
102
RTVSPropertyOp1
 70
     1
102
RTVSPropertyOp2
 70
     1
102
RTVSPropertyOp3
 70
     1
102
RTVSPropertyOp4
 70
     1
102
RTVSPropertyOp5
 70
     1
102
RTVSPropertyOp6
 70
     1
102
RTVSPropertyOp7
 70
     1
102
RTVSPropertyOp8
 70
     1
102
RTVSPropertyOp9
 70
     1
102
RTVSPropertyOp10
 70
     1
102
RTVSPropertyOp11
 70
     1
102
RTVSPropertyOp12
 70
     1
102
RTVSPropertyOp13
 70
     1
102
RTVSPropertyOp14
 70
     1
102
RTVSPropertyOp15
 70
     1
102
RTVSPropertyOp16
 70
     1
102
RTVSPropertyOp17
 70
     1
102
RTVSPropertyOp18
 70
     1
102
RTVSPropertyOp19
 70
     1
102
RTVSPropertyOp20
 70
     1
102
RTVSPropertyOp21
 70
     1
102
RTVSPropertyOp22
 70
     1
102
RTVSPropertyOp23
 70
     1
102
RTVSPropertyOp24
 70
     1
102
RTVSPropertyOp25
 70
     1
102
RTVSPropertyOp26
 70
     1
102
RTVSPropertyOp27
 70
     1
  0
XRECORD
  5
625
102
{ACAD_REACTORS
330
624
102
}
330
624
100
AcDbXrecord
280
     1
102
RTVSPropertyOp0
 70
     1
102
RTVSPropertyOp1
 70
     1
102
RTVSPropertyOp2
 70
     1
102
RTVSPropertyOp3
 70
     1
102
RTVSPropertyOp4
 70
     1
102
RTVSPropertyOp5
 70
     1
102
RTVSPropertyOp6
 70
     1
102
RTVSPropertyOp7
 70
     1
102
RTVSPropertyOp8
 70
     1
102
RTVSPropertyOp9
 70
     1
102
RTVSPropertyOp10
 70
     1
102
RTVSPropertyOp11
 70
     1
102
RTVSPropertyOp12
 70
     1
102
RTVSPropertyOp13
 70
     1
102
RTVSPropertyOp14
 70
     1
102
RTVSPropertyOp15
 70
     1
102
RTVSPropertyOp16
 70
     1
102
RTVSPropertyOp17
 70
     1
102
RTVSPropertyOp18
 70
     1
102
RTVSPropertyOp19
 70
     1
102
RTVSPropertyOp20
 70
     1
102
RTVSPropertyOp21
 70
     1
102
RTVSPropertyOp22
 70
     1
102
RTVSPropertyOp23
 70
     1
102
RTVSPropertyOp24
 70
     1
102
RTVSPropertyOp25
 70
     1
102
RTVSPropertyOp26
 70
     1
102
RTVSPropertyOp27
 70
     1
  0
XRECORD
  5
62D
102
{ACAD_REACTORS
330
62C
102
}
330
62C
100
AcDbXrecord
280
     1
102
RTVSPropertyOp0
 70
     1
102
RTVSPropertyOp1
 70
     1
102
RTVSPropertyOp2
 70
     1
102
RTVSPropertyOp3
 70
     1
102
RTVSPropertyOp4
 70
     1
102
RTVSPropertyOp5
 70
     1
102
RTVSPropertyOp6
 70
     1
102
RTVSPropertyOp7
 70
     1
102
RTVSPropertyOp8
 70
     1
102
RTVSPropertyOp9
 70
     1
102
RTVSPropertyOp10
 70
     1
102
RTVSPropertyOp11
 70
     1
102
RTVSPropertyOp12
 70
     1
102
RTVSPropertyOp13
 70
     1
102
RTVSPropertyOp14
 70
     1
102
RTVSPropertyOp15
 70
     1
102
RTVSPropertyOp16
 70
     1
102
RTVSPropertyOp17
 70
     1
102
RTVSPropertyOp18
 70
     1
102
RTVSPropertyOp19
 70
     1
102
RTVSPropertyOp20
 70
     1
102
RTVSPropertyOp21
 70
     1
102
RTVSPropertyOp22
 70
     1
102
RTVSPropertyOp23
 70
     1
102
RTVSPropertyOp24
 70
     1
102
RTVSPropertyOp25
 70
     1
102
RTVSPropertyOp26
 70
     1
102
RTVSPropertyOp27
 70
     1
  0
XRECORD
  5
621
102
{ACAD_REACTORS
330
620
102
}
330
620
100
AcDbXrecord
280
     1
102
RTVSPropertyOp0
 70
     1
102
RTVSPropertyOp1
 70
     1
102
RTVSPropertyOp2
 70
     1
102
RTVSPropertyOp3
 70
     1
102
RTVSPropertyOp4
 70
     1
102
RTVSPropertyOp5
 70
     1
102
RTVSPropertyOp6
 70
     1
102
RTVSPropertyOp7
 70
     1
102
RTVSPropertyOp8
 70
     1
102
RTVSPropertyOp9
 70
     1
102
RTVSPropertyOp10
 70
     1
102
RTVSPropertyOp11
 70
     1
102
RTVSPropertyOp12
 70
     1
102
RTVSPropertyOp13
 70
     1
102
RTVSPropertyOp14
 70
     1
102
RTVSPropertyOp15
 70
     1
102
RTVSPropertyOp16
 70
     1
102
RTVSPropertyOp17
 70
     1
102
RTVSPropertyOp18
 70
     1
102
RTVSPropertyOp19
 70
     1
102
RTVSPropertyOp20
 70
     1
102
RTVSPropertyOp21
 70
     1
102
RTVSPropertyOp22
 70
     1
102
RTVSPropertyOp23
 70
     1
102
RTVSPropertyOp24
 70
     1
102
RTVSPropertyOp25
 70
     1
102
RTVSPropertyOp26
 70
     1
102
RTVSPropertyOp27
 70
     1
  0
XRECORD
  5
623
102
{ACAD_REACTORS
330
622
102
}
330
622
100
AcDbXrecord
280
     1
102
RTVSPropertyOp0
 70
     1
102
RTVSPropertyOp1
 70
     1
102
RTVSPropertyOp2
 70
     1
102
RTVSPropertyOp3
 70
     1
102
RTVSPropertyOp4
 70
     1
102
RTVSPropertyOp5
 70
     1
102
RTVSPropertyOp6
 70
     1
102
RTVSPropertyOp7
 70
     1
102
RTVSPropertyOp8
 70
     1
102
RTVSPropertyOp9
 70
     1
102
RTVSPropertyOp10
 70
     1
102
RTVSPropertyOp11
 70
     1
102
RTVSPropertyOp12
 70
     1
102
RTVSPropertyOp13
 70
     1
102
RTVSPropertyOp14
 70
     1
102
RTVSPropertyOp15
 70
     1
102
RTVSPropertyOp16
 70
     1
102
RTVSPropertyOp17
 70
     1
102
RTVSPropertyOp18
 70
     1
102
RTVSPropertyOp19
 70
     1
102
RTVSPropertyOp20
 70
     1
102
RTVSPropertyOp21
 70
     1
102
RTVSPropertyOp22
 70
     1
102
RTVSPropertyOp23
 70
     1
102
RTVSPropertyOp24
 70
     1
102
RTVSPropertyOp25
 70
     1
102
RTVSPropertyOp26
 70
     1
102
RTVSPropertyOp27
 70
     1
  0
XRECORD
  5
62B
102
{ACAD_REACTORS
330
62A
102
}
330
62A
100
AcDbXrecord
280
     1
102
RTVSPropertyOp0
 70
     1
102
RTVSPropertyOp1
 70
     1
102
RTVSPropertyOp2
 70
     1
102
RTVSPropertyOp3
 70
     1
102
RTVSPropertyOp4
 70
     1
102
RTVSPropertyOp5
 70
     1
102
RTVSPropertyOp6
 70
     1
102
RTVSPropertyOp7
 70
     1
102
RTVSPropertyOp8
 70
     1
102
RTVSPropertyOp9
 70
     1
102
RTVSPropertyOp10
 70
     1
102
RTVSPropertyOp11
 70
     1
102
RTVSPropertyOp12
 70
     1
102
RTVSPropertyOp13
 70
     1
102
RTVSPropertyOp14
 70
     1
102
RTVSPropertyOp15
 70
     1
102
RTVSPropertyOp16
 70
     1
102
RTVSPropertyOp17
 70
     1
102
RTVSPropertyOp18
 70
     1
102
RTVSPropertyOp19
 70
     1
102
RTVSPropertyOp20
 70
     1
102
RTVSPropertyOp21
 70
     1
102
RTVSPropertyOp22
 70
     1
102
RTVSPropertyOp23
 70
     1
102
RTVSPropertyOp24
 70
     1
102
RTVSPropertyOp25
 70
     1
102
RTVSPropertyOp26
 70
     1
102
RTVSPropertyOp27
 70
     1
  0
XRECORD
  5
60F
102
{ACAD_REACTORS
330
60E
102
}
330
60E
100
AcDbXrecord
280
     1
102
RTVSPropertyOp0
 70
     1
102
RTVSPropertyOp1
 70
     1
102
RTVSPropertyOp2
 70
     1
102
RTVSPropertyOp3
 70
     1
102
RTVSPropertyOp4
 70
     1
102
RTVSPropertyOp5
 70
     1
102
RTVSPropertyOp6
 70
     1
102
RTVSPropertyOp7
 70
     1
102
RTVSPropertyOp8
 70
     1
102
RTVSPropertyOp9
 70
     1
102
RTVSPropertyOp10
 70
     1
102
RTVSPropertyOp11
 70
     1
102
RTVSPropertyOp12
 70
     1
102
RTVSPropertyOp13
 70
     1
102
RTVSPropertyOp14
 70
     1
102
RTVSPropertyOp15
 70
     1
102
RTVSPropertyOp16
 70
     1
102
RTVSPropertyOp17
 70
     1
102
RTVSPropertyOp18
 70
     1
102
RTVSPropertyOp19
 70
     1
102
RTVSPropertyOp20
 70
     1
102
RTVSPropertyOp21
 70
     1
102
RTVSPropertyOp22
 70
     1
102
RTVSPropertyOp23
 70
     1
102
RTVSPropertyOp24
 70
     1
102
RTVSPropertyOp25
 70
     1
102
RTVSPropertyOp26
 70
     1
102
RTVSPropertyOp27
 70
     1
  0
XRECORD
  5
611
102
{ACAD_REACTORS
330
610
102
}
330
610
100
AcDbXrecord
280
     1
102
RTVSPropertyOp0
 70
     1
102
RTVSPropertyOp1
 70
     1
102
RTVSPropertyOp2
 70
     1
102
RTVSPropertyOp3
 70
     1
102
RTVSPropertyOp4
 70
     1
102
RTVSPropertyOp5
 70
     1
102
RTVSPropertyOp6
 70
     1
102
RTVSPropertyOp7
 70
     1
102
RTVSPropertyOp8
 70
     1
102
RTVSPropertyOp9
 70
     1
102
RTVSPropertyOp10
 70
     1
102
RTVSPropertyOp11
 70
     1
102
RTVSPropertyOp12
 70
     1
102
RTVSPropertyOp13
 70
     1
102
RTVSPropertyOp14
 70
     1
102
RTVSPropertyOp15
 70
     1
102
RTVSPropertyOp16
 70
     1
102
RTVSPropertyOp17
 70
     1
102
RTVSPropertyOp18
 70
     1
102
RTVSPropertyOp19
 70
     1
102
RTVSPropertyOp20
 70
     1
102
RTVSPropertyOp21
 70
     1
102
RTVSPropertyOp22
 70
     1
102
RTVSPropertyOp23
 70
     1
102
RTVSPropertyOp24
 70
     1
102
RTVSPropertyOp25
 70
     1
102
RTVSPropertyOp26
 70
     1
102
RTVSPropertyOp27
 70
     1
  0
XRECORD
  5
613
102
{ACAD_REACTORS
330
612
102
}
330
612
100
AcDbXrecord
280
     1
102
RTVSPropertyOp0
 70
     1
102
RTVSPropertyOp1
 70
     1
102
RTVSPropertyOp2
 70
     1
102
RTVSPropertyOp3
 70
     1
102
RTVSPropertyOp4
 70
     1
102
RTVSPropertyOp5
 70
     1
102
RTVSPropertyOp6
 70
     1
102
RTVSPropertyOp7
 70
     1
102
RTVSPropertyOp8
 70
     1
102
RTVSPropertyOp9
 70
     1
102
RTVSPropertyOp10
 70
     1
102
RTVSPropertyOp11
 70
     1
102
RTVSPropertyOp12
 70
     1
102
RTVSPropertyOp13
 70
     1
102
RTVSPropertyOp14
 70
     1
102
RTVSPropertyOp15
 70
     1
102
RTVSPropertyOp16
 70
     1
102
RTVSPropertyOp17
 70
     1
102
RTVSPropertyOp18
 70
     1
102
RTVSPropertyOp19
 70
     1
102
RTVSPropertyOp20
 70
     1
102
RTVSPropertyOp21
 70
     1
102
RTVSPropertyOp22
 70
     1
102
RTVSPropertyOp23
 70
     1
102
RTVSPropertyOp24
 70
     1
102
RTVSPropertyOp25
 70
     1
102
RTVSPropertyOp26
 70
     1
102
RTVSPropertyOp27
 70
     1
  0
XRECORD
  5
615
102
{ACAD_REACTORS
330
614
102
}
330
614
100
AcDbXrecord
280
     1
102
RTVSPropertyOp0
 70
     1
102
RTVSPropertyOp1
 70
     1
102
RTVSPropertyOp2
 70
     1
102
RTVSPropertyOp3
 70
     1
102
RTVSPropertyOp4
 70
     1
102
RTVSPropertyOp5
 70
     1
102
RTVSPropertyOp6
 70
     1
102
RTVSPropertyOp7
 70
     1
102
RTVSPropertyOp8
 70
     1
102
RTVSPropertyOp9
 70
     1
102
RTVSPropertyOp10
 70
     1
102
RTVSPropertyOp11
 70
     1
102
RTVSPropertyOp12
 70
     1
102
RTVSPropertyOp13
 70
     1
102
RTVSPropertyOp14
 70
     1
102
RTVSPropertyOp15
 70
     1
102
RTVSPropertyOp16
 70
     1
102
RTVSPropertyOp17
 70
     1
102
RTVSPropertyOp18
 70
     1
102
RTVSPropertyOp19
 70
     1
102
RTVSPropertyOp20
 70
     1
102
RTVSPropertyOp21
 70
     1
102
RTVSPropertyOp22
 70
     1
102
RTVSPropertyOp23
 70
     1
102
RTVSPropertyOp24
 70
     1
102
RTVSPropertyOp25
 70
     1
102
RTVSPropertyOp26
 70
     1
102
RTVSPropertyOp27
 70
     1
  0
XRECORD
  5
629
102
{ACAD_REACTORS
330
628
102
}
330
628
100
AcDbXrecord
280
     1
102
RTVSPropertyOp0
 70
     1
102
RTVSPropertyOp1
 70
     1
102
RTVSPropertyOp2
 70
     1
102
RTVSPropertyOp3
 70
     1
102
RTVSPropertyOp4
 70
     1
102
RTVSPropertyOp5
 70
     1
102
RTVSPropertyOp6
 70
     1
102
RTVSPropertyOp7
 70
     1
102
RTVSPropertyOp8
 70
     1
102
RTVSPropertyOp9
 70
     1
102
RTVSPropertyOp10
 70
     1
102
RTVSPropertyOp11
 70
     1
102
RTVSPropertyOp12
 70
     1
102
RTVSPropertyOp13
 70
     1
102
RTVSPropertyOp14
 70
     1
102
RTVSPropertyOp15
 70
     1
102
RTVSPropertyOp16
 70
     1
102
RTVSPropertyOp17
 70
     1
102
RTVSPropertyOp18
 70
     1
102
RTVSPropertyOp19
 70
     1
102
RTVSPropertyOp20
 70
     1
102
RTVSPropertyOp21
 70
     1
102
RTVSPropertyOp22
 70
     1
102
RTVSPropertyOp23
 70
     1
102
RTVSPropertyOp24
 70
     1
102
RTVSPropertyOp25
 70
     1
102
RTVSPropertyOp26
 70
     1
102
RTVSPropertyOp27
 70
     1
  0
XRECORD
  5
61F
102
{ACAD_REACTORS
330
61E
102
}
330
61E
100
AcDbXrecord
280
     1
102
RTVSPropertyOp0
 70
     1
102
RTVSPropertyOp1
 70
     1
102
RTVSPropertyOp2
 70
     1
102
RTVSPropertyOp3
 70
     1
102
RTVSPropertyOp4
 70
     1
102
RTVSPropertyOp5
 70
     1
102
RTVSPropertyOp6
 70
     1
102
RTVSPropertyOp7
 70
     1
102
RTVSPropertyOp8
 70
     1
102
RTVSPropertyOp9
 70
     1
102
RTVSPropertyOp10
 70
     1
102
RTVSPropertyOp11
 70
     1
102
RTVSPropertyOp12
 70
     1
102
RTVSPropertyOp13
 70
     1
102
RTVSPropertyOp14
 70
     1
102
RTVSPropertyOp15
 70
     1
102
RTVSPropertyOp16
 70
     1
102
RTVSPropertyOp17
 70
     1
102
RTVSPropertyOp18
 70
     1
102
RTVSPropertyOp19
 70
     1
102
RTVSPropertyOp20
 70
     1
102
RTVSPropertyOp21
 70
     1
102
RTVSPropertyOp22
 70
     1
102
RTVSPropertyOp23
 70
     1
102
RTVSPropertyOp24
 70
     1
102
RTVSPropertyOp25
 70
     1
102
RTVSPropertyOp26
 70
     1
102
RTVSPropertyOp27
 70
     1
  0
XRECORD
  5
627
102
{ACAD_REACTORS
330
626
102
}
330
626
100
AcDbXrecord
280
     1
102
RTVSPropertyOp0
 70
     1
102
RTVSPropertyOp1
 70
     1
102
RTVSPropertyOp2
 70
     1
102
RTVSPropertyOp3
 70
     1
102
RTVSPropertyOp4
 70
     1
102
RTVSPropertyOp5
 70
     1
102
RTVSPropertyOp6
 70
     1
102
RTVSPropertyOp7
 70
     1
102
RTVSPropertyOp8
 70
     1
102
RTVSPropertyOp9
 70
     1
102
RTVSPropertyOp10
 70
     1
102
RTVSPropertyOp11
 70
     1
102
RTVSPropertyOp12
 70
     1
102
RTVSPropertyOp13
 70
     1
102
RTVSPropertyOp14
 70
     1
102
RTVSPropertyOp15
 70
     1
102
RTVSPropertyOp16
 70
     1
102
RTVSPropertyOp17
 70
     1
102
RTVSPropertyOp18
 70
     1
102
RTVSPropertyOp19
 70
     1
102
RTVSPropertyOp20
 70
     1
102
RTVSPropertyOp21
 70
     1
102
RTVSPropertyOp22
 70
     1
102
RTVSPropertyOp23
 70
     1
102
RTVSPropertyOp24
 70
     1
102
RTVSPropertyOp25
 70
     1
102
RTVSPropertyOp26
 70
     1
102
RTVSPropertyOp27
 70
     1
  0
ENDSEC
  0
EOF
