  0
SECTION
  2
HEADER
  9
$ACADVER
  1
AC1015
  9
$ACADMAINTVER
 70
     6
  9
$DWGCODEPAGE
  3
ANSI_932
  9
$INSBASE
 10
0.0
 20
0.0
 30
0.0
  9
$EXTMIN
 10
21.40466321
 20
94.15776995
 30
0.0
  9
$EXTMAX
 10
286.6745456
 20
273.61421572
 30
0.0
  9
$LIMMIN
 10
21.40466321
 20
94.15776995
  9
$LIMMAX
 10
286.6745456
 20
273.61421572
  9
$ORTHOMODE
 70
     0
  9
$REGENMODE
 70
     1
  9
$FILLMODE
 70
     1
  9
$QTEXTMODE
 70
     0
  9
$MIRRTEXT
 70
     1
  9
$LTSCALE
 40
1.0
  9
$ATTMODE
 70
     1
  9
$TEXTSIZE
 40
0.2
  9
$TRACEWID
 40
0.05
  9
$TEXTSTYLE
  7
Standard
  9
$CLAYER
  8
0
  9
$CELTYPE
  6
ByLayer
  9
$CECOLOR
 62
   256
  9
$CELTSCALE
 40
1.0
  9
$DISPSILH
 70
     0
  9
$DIMSCALE
 40
1.0
  9
$DIMASZ
 40
0.18
  9
$DIMEXO
 40
0.0625
  9
$DIMDLI
 40
0.38
  9
$DIMRND
 40
0.0
  9
$DIMDLE
 40
0.0
  9
$DIMEXE
 40
0.18
  9
$DIMTP
 40
0.0
  9
$DIMTM
 40
0.0
  9
$DIMTXT
 40
0.18
  9
$DIMCEN
 40
0.09
  9
$DIMTSZ
 40
0.0
  9
$DIMTOL
 70
     0
  9
$DIMLIM
 70
     0
  9
$DIMTIH
 70
     1
  9
$DIMTOH
 70
     1
  9
$DIMSE1
 70
     0
  9
$DIMSE2
 70
     0
  9
$DIMTAD
 70
     0
  9
$DIMZIN
 70
     0
  9
$DIMBLK
  1

  9
$DIMASO
 70
     1
  9
$DIMSHO
 70
     1
  9
$DIMPOST
  1

  9
$DIMAPOST
  1

  9
$DIMALT
 70
     0
  9
$DIMALTD
 70
     2
  9
$DIMALTF
 40
25.4
  9
$DIMLFAC
 40
1.0
  9
$DIMTOFL
 70
     0
  9
$DIMTVP
 40
0.0
  9
$DIMTIX
 70
     0
  9
$DIMSOXD
 70
     0
  9
$DIMSAH
 70
     0
  9
$DIMBLK1
  1

  9
$DIMBLK2
  1

  9
$DIMSTYLE
  2
Standard
  9
$DIMCLRD
 70
     0
  9
$DIMCLRE
 70
     0
  9
$DIMCLRT
 70
     0
  9
$DIMTFAC
 40
1.0
  9
$DIMGAP
 40
0.09
  9
$DIMJUST
 70
     0
  9
$DIMSD1
 70
     0
  9
$DIMSD2
 70
     0
  9
$DIMTOLJ
 70
     1
  9
$DIMTZIN
 70
     0
  9
$DIMALTZ
 70
     0
  9
$DIMALTTZ
 70
     0
  9
$DIMUPT
 70
     0
  9
$DIMDEC
 70
     4
  9
$DIMTDEC
 70
     4
  9
$DIMALTU
 70
     2
  9
$DIMALTTD
 70
     2
  9
$DIMTXSTY
  7
Standard
  9
$DIMAUNIT
 70
     0
  9
$DIMADEC
 70
     0
  9
$DIMALTRND
 40
0.0
  9
$DIMAZIN
 70
     0
  9
$DIMDSEP
 70
    46
  9
$DIMATFIT
 70
     3
  9
$DIMFRAC
 70
     0
  9
$DIMLDRBLK
  1

  9
$DIMLUNIT
 70
     2
  9
$DIMLWD
 70
    -2
  9
$DIMLWE
 70
    -2
  9
$DIMTMOVE
 70
     0
  9
$LUNITS
 70
     2
  9
$LUPREC
 70
     4
  9
$SKETCHINC
 40
0.1
  9
$FILLETRAD
 40
0.5
  9
$AUNITS
 70
     0
  9
$AUPREC
 70
     0
  9
$MENU
  1
.
  9
$ELEVATION
 40
0.0
  9
$PELEVATION
 40
0.0
  9
$THICKNESS
 40
0.0
  9
$LIMCHECK
 70
     0
  9
$CHAMFERA
 40
0.5
  9
$CHAMFERB
 40
0.5
  9
$CHAMFERC
 40
1.0
  9
$CHAMFERD
 40
0.0
  9
$SKPOLY
 70
     0
  9
$TDCREATE
 40
2456238.3866411
  9
$TDUCREATE
 40
2456238.0116411
  9
$TDUPDATE
 40
2456238.386641111
  9
$TDUUPDATE
 40
2456238.011641111
  9
$TDINDWG
 40
0.0000000116
  9
$TDUSRTIMER
 40
0.0000000116
  9
$USRTIMER
 70
     1
  9
$ANGBASE
 50
0.0
  9
$ANGDIR
 70
     0
  9
$PDMODE
 70
     0
  9
$PDSIZE
 40
0.0
  9
$PLINEWID
 40
0.0
  9
$SPLFRAME
 70
     0
  9
$SPLINETYPE
 70
     6
  9
$SPLINESEGS
 70
     8
  9
$HANDSEED
  5
264
  9
$SURFTAB1
 70
     6
  9
$SURFTAB2
 70
     6
  9
$SURFTYPE
 70
     6
  9
$SURFU
 70
     6
  9
$SURFV
 70
     6
  9
$UCSBASE
  2

  9
$UCSNAME
  2

  9
$UCSORG
 10
0.0
 20
0.0
 30
0.0
  9
$UCSXDIR
 10
1.0
 20
0.0
 30
0.0
  9
$UCSYDIR
 10
0.0
 20
1.0
 30
0.0
  9
$UCSORTHOREF
  2

  9
$UCSORTHOVIEW
 70
     0
  9
$UCSORGTOP
 10
0.0
 20
0.0
 30
0.0
  9
$UCSORGBOTTOM
 10
0.0
 20
0.0
 30
0.0
  9
$UCSORGLEFT
 10
0.0
 20
0.0
 30
0.0
  9
$UCSORGRIGHT
 10
0.0
 20
0.0
 30
0.0
  9
$UCSORGFRONT
 10
0.0
 20
0.0
 30
0.0
  9
$UCSORGBACK
 10
0.0
 20
0.0
 30
0.0
  9
$PUCSBASE
  2

  9
$PUCSNAME
  2

  9
$PUCSORG
 10
0.0
 20
0.0
 30
0.0
  9
$PUCSXDIR
 10
1.0
 20
0.0
 30
0.0
  9
$PUCSYDIR
 10
0.0
 20
1.0
 30
0.0
  9
$PUCSORTHOREF
  2

  9
$PUCSORTHOVIEW
 70
     0
  9
$PUCSORGTOP
 10
0.0
 20
0.0
 30
0.0
  9
$PUCSORGBOTTOM
 10
0.0
 20
0.0
 30
0.0
  9
$PUCSORGLEFT
 10
0.0
 20
0.0
 30
0.0
  9
$PUCSORGRIGHT
 10
0.0
 20
0.0
 30
0.0
  9
$PUCSORGFRONT
 10
0.0
 20
0.0
 30
0.0
  9
$PUCSORGBACK
 10
0.0
 20
0.0
 30
0.0
  9
$USERI1
 70
     0
  9
$USERI2
 70
     0
  9
$USERI3
 70
     0
  9
$USERI4
 70
     0
  9
$USERI5
 70
     0
  9
$USERR1
 40
0.0
  9
$USERR2
 40
0.0
  9
$USERR3
 40
0.0
  9
$USERR4
 40
0.0
  9
$USERR5
 40
0.0
  9
$WORLDVIEW
 70
     1
  9
$SHADEDGE
 70
     3
  9
$SHADEDIF
 70
    70
  9
$TILEMODE
 70
     1
  9
$MAXACTVP
 70
    64
  9
$PINSBASE
 10
0.0
 20
0.0
 30
0.0
  9
$PLIMCHECK
 70
     0
  9
$PEXTMIN
 10
1.000000000000000E+20
 20
1.000000000000000E+20
 30
1.000000000000000E+20
  9
$PEXTMAX
 10
-1.000000000000000E+20
 20
-1.000000000000000E+20
 30
-1.000000000000000E+20
  9
$PLIMMIN
 10
0.0
 20
0.0
  9
$PLIMMAX
 10
12.0
 20
9.0
  9
$UNITMODE
 70
     0
  9
$VISRETAIN
 70
     1
  9
$PLINEGEN
 70
     0
  9
$PSLTSCALE
 70
     1
  9
$TREEDEPTH
 70
  3020
  9
$CMLSTYLE
  2
Standard
  9
$CMLJUST
 70
     0
  9
$CMLSCALE
 40
1.0
  9
$PROXYGRAPHICS
 70
     1
  9
$MEASUREMENT
 70
     0
  9
$CELWEIGHT
370
    -1
  9
$ENDCAPS
280
     0
  9
$JOINSTYLE
280
     0
  9
$LWDISPLAY
290
     0
  9
$INSUNITS
 70
     4
  9
$HYPERLINKBASE
  1

  9
$STYLESHEET
  1

  9
$XEDIT
290
     1
  9
$CEPSNTYPE
380
     0
  9
$PSTYLEMODE
290
     1
  9
$FINGERPRINTGUID
  2
{AD83D904-31A1-4CBA-95FA-8DDEBCFD8E1B}
  9
$VERSIONGUID
  2
{FAEB1C32-E019-11D5-929B-00C0DF256EC4}
  9
$EXTNAMES
290
     1
  9
$PSVPSCALE
 40
0.0
  9
$OLESTARTUP
290
     0
  0
ENDSEC
  0
SECTION
  2
CLASSES
  0
CLASS
  1
ACDBDICTIONARYWDFLT
  2
AcDbDictionaryWithDefault
  3
ObjectDBX Classes
 90
        0
280
     0
281
     0
  0
CLASS
  1
VISUALSTYLE
  2
AcDbVisualStyle
  3
ObjectDBX Classes
 90
     4095
280
     0
281
     0
  0
CLASS
  1
MATERIAL
  2
AcDbMaterial
  3
ObjectDBX Classes
 90
     1153
280
     0
281
     0
  0
CLASS
  1
SCALE
  2
AcDbScale
  3
ObjectDBX Classes
 90
     1153
280
     0
281
     0
  0
CLASS
  1
DICTIONARYVAR
  2
AcDbDictionaryVar
  3
ObjectDBX Classes
 90
        0
280
     0
281
     0
  0
CLASS
  1
ACDBPLACEHOLDER
  2
AcDbPlaceHolder
  3
ObjectDBX Classes
 90
        0
280
     0
281
     0
  0
CLASS
  1
LAYOUT
  2
AcDbLayout
  3
ObjectDBX Classes
 90
        0
280
     0
281
     0
  0
ENDSEC
  0
SECTION
  2
TABLES
  0
TABLE
  2
VPORT
  5
8
330
0
100
AcDbSymbolTable
 70
     1
  0
VPORT
  5
29
330
8
100
AcDbSymbolTableRecord
100
AcDbViewportTableRecord
  2
*Active
 70
     0
 10
0.0
 20
0.0
 11
1.0
 21
1.0
 12
154.039604405
 22
183.963373787381
 13
0.0
 23
0.0
 14
0.5
 24
0.5
 15
0.5
 25
0.5
 16
0.0
 26
0.0
 36
1.0
 17
0.0
 27
0.0
 37
0.0
 40
183.2034318282572
 41
1.476911634993
 42
50.0
 43
0.0
 44
0.0
 50
0.0
 51
0.0
 71
     0
 72
  1000
 73
     1
 74
     3
 75
     0
 76
     0
 77
     0
 78
     0
281
     0
 65
     1
110
0.0
120
0.0
130
0.0
111
1.0
121
0.0
131
0.0
112
0.0
122
1.0
132
0.0
 79
     0
146
0.0
  0
ENDTAB
  0
TABLE
  2
LTYPE
  5
5
330
0
100
AcDbSymbolTable
 70
     3
  0
LTYPE
  5
14
330
5
100
AcDbSymbolTableRecord
100
AcDbLinetypeTableRecord
  2
ByBlock
 70
     0
  3

 72
    65
 73
     0
 40
0.0
  0
LTYPE
  5
15
330
5
100
AcDbSymbolTableRecord
100
AcDbLinetypeTableRecord
  2
ByLayer
 70
     0
  3

 72
    65
 73
     0
 40
0.0
  0
LTYPE
  5
16
330
5
100
AcDbSymbolTableRecord
100
AcDbLinetypeTableRecord
  2
Continuous
 70
     0
  3
Solid line
 72
    65
 73
     0
 40
0.0
  0
LTYPE
  5
3F
330
5
100
AcDbSymbolTableRecord
100
AcDbLinetypeTableRecord
  2
chain
 70
     0
  3
_____ __ _____ __ _____
 72
    65
 73
     4
 40
18.5
 49
12.0
 74
     4
 75
     0
340
0
 46
1.0
 50
0.0
 44
0.0
 45
0.0
 49
-1.5
 74
     4
 75
     0
340
0
 46
1.0
 50
0.0
 44
0.0
 45
0.0
 49
3.5
 74
     4
 75
     0
340
0
 46
1.0
 50
0.0
 44
0.0
 45
0.0
 49
-1.5
 74
     4
 75
     0
340
0
 46
1.0
 50
0.0
 44
0.0
 45
0.0
  0
LTYPE
  5
40
330
5
100
AcDbSymbolTableRecord
100
AcDbLinetypeTableRecord
  2
dashed dotted
 70
     0
  3
_____  _  _____  _  _____
 72
    65
 73
     4
 40
9.3
 49
6.0
 74
     4
 75
     0
340
0
 46
1.0
 50
0.0
 44
0.0
 45
0.0
 49
-1.5
 74
     4
 75
     0
340
0
 46
1.0
 50
0.0
 44
0.0
 45
0.0
 49
0.25
 74
     4
 75
     0
340
0
 46
1.0
 50
0.0
 44
0.0
 45
0.0
 49
-1.5
 74
     4
 75
     0
340
0
 46
1.0
 50
0.0
 44
0.0
 45
0.0
  0
ENDTAB
  0
TABLE
  2
LAYER
  5
2
330
0
100
AcDbSymbolTable
 70
    12
  0
LAYER
  5
10
330
2
100
AcDbSymbolTableRecord
100
AcDbLayerTableRecord
  2
0
 70
     0
 62
     7
  6
Continuous
370
    -3
390
F
  0
LAYER
  5
41
330
2
100
AcDbSymbolTableRecord
100
AcDbLayerTableRecord
  2
D-TTL
 70
     0
 62
     7
  6
Continuous
370
    -3
390
F
  0
LAYER
  5
42
330
2
100
AcDbSymbolTableRecord
100
AcDbLayerTableRecord
  2
D-TTL-TXT
 70
     0
 62
     7
  6
Continuous
370
    -3
390
F
  0
LAYER
  5
43
330
2
100
AcDbSymbolTableRecord
100
AcDbLayerTableRecord
  2
D-BGD
 70
     0
 62
     7
  6
Continuous
370
    -3
390
F
  0
LAYER
  5
44
330
2
100
AcDbSymbolTableRecord
100
AcDbLayerTableRecord
  2
D-BMK
 70
     0
 62
     5
  6
dashed dotted
370
    -3
390
F
  0
LAYER
  5
45
330
2
100
AcDbSymbolTableRecord
100
AcDbLayerTableRecord
  2
D-STR
 70
     0
 62
     7
  6
Continuous
370
    -3
390
F
  0
LAYER
  5
46
330
2
100
AcDbSymbolTableRecord
100
AcDbLayerTableRecord
  2
D-STR-STR2
 70
     0
 62
   134
  6
Continuous
370
    -3
390
F
  0
LAYER
  5
47
330
2
100
AcDbSymbolTableRecord
100
AcDbLayerTableRecord
  2
D-STR-STR3
 70
     0
 62
     1
  6
Continuous
370
    -3
390
F
  0
LAYER
  5
48
330
2
100
AcDbSymbolTableRecord
100
AcDbLayerTableRecord
  2
D-STR-DIM
 70
     0
 62
     5
  6
Continuous
370
    -3
390
F
  0
LAYER
  5
49
330
2
100
AcDbSymbolTableRecord
100
AcDbLayerTableRecord
  2
D-STR-HTXT
 70
     0
 62
     7
  6
Continuous
370
    -3
390
F
  0
LAYER
  5
4A
330
2
100
AcDbSymbolTableRecord
100
AcDbLayerTableRecord
  2
D-DCR-HCH1
 70
     0
 62
   134
  6
Continuous
370
    -3
390
F
  0
LAYER
  5
109
330
2
100
AcDbSymbolTableRecord
100
AcDbLayerTableRecord
  2
Defpoints
 70
     0
 62
     7
  6
Continuous
290
     0
370
    -3
390
F
  0
ENDTAB
  0
TABLE
  2
STYLE
  5
3
330
0
100
AcDbSymbolTable
 70
     3
  0
STYLE
  5
11
330
3
100
AcDbSymbolTableRecord
100
AcDbTextStyleTableRecord
  2
Standard
 70
     0
 40
0.0
 41
1.0
 50
0.0
 71
     0
 42
0.2
  3
txt
  4

  0
STYLE
  5
4B
330
3
100
AcDbSymbolTableRecord
100
AcDbTextStyleTableRecord
  2
STANDARD-FC
 70
     0
 40
0.0
 41
1.0
 50
0.0
 71
     0
 42
0.2
  3
txt
  4
bigfont
  0
STYLE
  5
4C
330
3
100
AcDbSymbolTableRecord
100
AcDbTextStyleTableRecord
  2
ＭＳ ゴシック
 70
     0
 40
0.0
 41
1.0
 50
0.0
 71
     0
 42
0.2
  3
msgothic.ttc
  4

1001
ACAD
1000
MS Gothic
1071
    32817
  0
ENDTAB
  0
TABLE
  2
VIEW
  5
6
330
0
100
AcDbSymbolTable
 70
     0
  0
ENDTAB
  0
TABLE
  2
UCS
  5
7
330
0
100
AcDbSymbolTable
 70
     0
  0
ENDTAB
  0
TABLE
  2
APPID
  5
9
330
0
100
AcDbSymbolTable
 70
     1
  0
APPID
  5
12
330
9
100
AcDbSymbolTableRecord
100
AcDbRegAppTableRecord
  2
ACAD
 70
     0
  0
ENDTAB
  0
TABLE
  2
DIMSTYLE
  5
A
330
0
100
AcDbSymbolTable
 70
     1
100
AcDbDimStyleTable
  0
DIMSTYLE
105
27
102
{ACAD_REACTORS
330
108
330
116
330
13C
330
1A5
330
1B2
330
1C6
330
1F8
330
205
102
}
330
A
100
AcDbSymbolTableRecord
100
AcDbDimStyleTableRecord
  2
Standard
 70
     0
178
     0
340
11
  0
ENDTAB
  0
TABLE
  2
BLOCK_RECORD
  5
1
330
0
100
AcDbSymbolTable
 70
     9
  0
BLOCK_RECORD
  5
1F
330
1
100
AcDbSymbolTableRecord
100
AcDbBlockTableRecord
  2
*Model_Space
340
22
  0
BLOCK_RECORD
  5
1B
330
1
100
AcDbSymbolTableRecord
100
AcDbBlockTableRecord
  2
*Paper_Space
340
1E
  0
BLOCK_RECORD
  5
23
330
1
100
AcDbSymbolTableRecord
100
AcDbBlockTableRecord
  2
*Paper_Space0
340
26
  0
BLOCK_RECORD
  5
10A
330
1
100
AcDbSymbolTableRecord
100
AcDbBlockTableRecord
  2
*D1
340
0
  0
BLOCK_RECORD
  5
117
330
1
100
AcDbSymbolTableRecord
100
AcDbBlockTableRecord
  2
*D2
340
0
  0
BLOCK_RECORD
  5
13D
330
1
100
AcDbSymbolTableRecord
100
AcDbBlockTableRecord
  2
*D3
340
0
  0
BLOCK_RECORD
  5
1A6
330
1
100
AcDbSymbolTableRecord
100
AcDbBlockTableRecord
  2
*D4
340
0
  0
BLOCK_RECORD
  5
1B3
330
1
100
AcDbSymbolTableRecord
100
AcDbBlockTableRecord
  2
*D5
340
0
  0
BLOCK_RECORD
  5
1C7
330
1
100
AcDbSymbolTableRecord
100
AcDbBlockTableRecord
  2
*D6
340
0
  0
BLOCK_RECORD
  5
1F9
330
1
100
AcDbSymbolTableRecord
100
AcDbBlockTableRecord
  2
*D7
340
0
  0
BLOCK_RECORD
  5
206
330
1
100
AcDbSymbolTableRecord
100
AcDbBlockTableRecord
  2
*D8
340
0
  0
ENDTAB
  0
ENDSEC
  0
SECTION
  2
BLOCKS
  0
BLOCK
  5
20
330
1F
100
AcDbEntity
  8
0
100
AcDbBlockBegin
  2
*Model_Space
 70
     0
 10
0.0
 20
0.0
 30
0.0
  3
*Model_Space
  1

  0
ENDBLK
  5
21
330
1F
100
AcDbEntity
  8
0
100
AcDbBlockEnd
  0
BLOCK
  5
1C
330
1B
100
AcDbEntity
 67
     1
  8
0
100
AcDbBlockBegin
  2
*Paper_Space
 70
     0
 10
0.0
 20
0.0
 30
0.0
  3
*Paper_Space
  1

  0
ENDBLK
  5
1D
330
1B
100
AcDbEntity
 67
     1
  8
0
100
AcDbBlockEnd
  0
BLOCK
  5
24
330
23
100
AcDbEntity
  8
0
100
AcDbBlockBegin
  2
*Paper_Space0
 70
     0
 10
0.0
 20
0.0
 30
0.0
  3
*Paper_Space0
  1

  0
ENDBLK
  5
25
330
23
100
AcDbEntity
  8
0
100
AcDbBlockEnd
  0
BLOCK
  5
114
330
10A
100
AcDbEntity
  8
0
100
AcDbBlockBegin
  2
*D1
 70
     1
 10
0.0
 20
0.0
 30
0.0
  3
*D1
  1

  0
LINE
  5
10B
330
10A
100
AcDbEntity
  8
D-STR-DIM
  6
Continuous
 62
     5
370
    -2
100
AcDbLine
 10
59.71826515000001
 20
98.15776995
 30
0.0
 11
40.20177965000001
 21
98.15776995
 31
0.0
  0
LINE
  5
10C
330
10A
100
AcDbEntity
  8
D-STR-DIM
  6
Continuous
 62
     5
370
    -2
100
AcDbLine
 10
47.23475060000001
 20
128.15776995
 30
0.0
 11
40.20177965000001
 21
128.15776995
 31
0.0
  0
LINE
  5
10D
330
10A
100
AcDbEntity
  8
D-STR-DIM
  6
Continuous
 62
     5
370
    -2
100
AcDbLine
 10
41.20177965
 20
99.15776995
 30
0.0
 11
41.20177965
 21
127.15776995
 31
0.0
  0
SOLID
  5
10E
330
10A
100
AcDbEntity
  8
D-STR-DIM
 62
     5
100
AcDbTrace
 10
41.03511298333333
 20
99.15776995
 30
0.0
 11
41.36844631666666
 21
99.15776995
 31
0.0
 12
41.20177965
 22
98.15776995
 32
0.0
 13
41.20177965
 23
98.15776995
 33
0.0
  0
SOLID
  5
10F
330
10A
100
AcDbEntity
  8
D-STR-DIM
 62
     5
100
AcDbTrace
 10
41.36844631666666
 20
127.15776995
 30
0.0
 11
41.03511298333333
 21
127.15776995
 31
0.0
 12
41.20177965
 22
128.15776995
 32
0.0
 13
41.20177965
 23
128.15776995
 33
0.0
  0
MTEXT
  5
110
330
10A
100
AcDbEntity
  8
D-STR-DIM
 62
     5
370
    13
100
AcDbMText
 10
38.95177965
 20
113.15776995
 30
0.0
 40
2.777777777777778
 41
0.0
 71
     5
 72
     1
  1
\A1;600
  7
ＭＳ ゴシック
 11
6.123233995736766E-17
 21
1.0
 31
0.0
 73
     1
 44
1.0
1001
ACAD
1000
ACAD_MTEXT_DEFINED_HEIGHT_BEGIN
1070
    46
1040
0.2
1000
ACAD_MTEXT_DEFINED_HEIGHT_END
  0
POINT
  5
111
330
10A
100
AcDbEntity
  8
Defpoints
 62
     0
100
AcDbPoint
 10
60.71826515000001
 20
98.15776995
 30
0.0
  0
POINT
  5
112
330
10A
100
AcDbEntity
  8
Defpoints
 62
     0
100
AcDbPoint
 10
48.23475060000001
 20
128.15776995
 30
0.0
  0
POINT
  5
113
330
10A
100
AcDbEntity
  8
Defpoints
 62
     0
100
AcDbPoint
 10
41.20177965
 20
128.15776995
 30
0.0
  0
ENDBLK
  5
115
330
10A
100
AcDbEntity
  8
0
100
AcDbBlockEnd
  0
BLOCK
  5
121
330
117
100
AcDbEntity
  8
0
100
AcDbBlockBegin
  2
*D2
 70
     1
 10
0.0
 20
0.0
 30
0.0
  3
*D2
  1

  0
LINE
  5
118
330
117
100
AcDbEntity
  8
D-STR-DIM
  6
Continuous
 62
     5
370
    -2
100
AcDbLine
 10
47.23475060000001
 20
128.15776995
 30
0.0
 11
40.20177965000001
 21
128.15776995
 31
0.0
  0
LINE
  5
119
330
117
100
AcDbEntity
  8
D-STR-DIM
  6
Continuous
 62
     5
370
    -2
100
AcDbLine
 10
60.21826515000001
 20
168.15776995
 30
0.0
 11
40.20177965000001
 21
168.15776995
 31
0.0
  0
LINE
  5
11A
330
117
100
AcDbEntity
  8
D-STR-DIM
  6
Continuous
 62
     5
370
    -2
100
AcDbLine
 10
41.20177965
 20
129.15776995
 30
0.0
 11
41.20177965
 21
167.15776995
 31
0.0
  0
SOLID
  5
11B
330
117
100
AcDbEntity
  8
D-STR-DIM
 62
     5
100
AcDbTrace
 10
41.03511298333333
 20
129.15776995
 30
0.0
 11
41.36844631666666
 21
129.15776995
 31
0.0
 12
41.20177965
 22
128.15776995
 32
0.0
 13
41.20177965
 23
128.15776995
 33
0.0
  0
SOLID
  5
11C
330
117
100
AcDbEntity
  8
D-STR-DIM
 62
     5
100
AcDbTrace
 10
41.36844631666666
 20
167.15776995
 30
0.0
 11
41.03511298333333
 21
167.15776995
 31
0.0
 12
41.20177965
 22
168.15776995
 32
0.0
 13
41.20177965
 23
168.15776995
 33
0.0
  0
MTEXT
  5
11D
330
117
100
AcDbEntity
  8
D-STR-DIM
 62
     5
370
    13
100
AcDbMText
 10
38.95177965
 20
148.15776995
 30
0.0
 40
2.777777777777778
 41
0.0
 71
     5
 72
     1
  1
\A1;900
  7
ＭＳ ゴシック
 11
6.123233995736766E-17
 21
1.0
 31
0.0
 73
     1
 44
1.0
1001
ACAD
1000
ACAD_MTEXT_DEFINED_HEIGHT_BEGIN
1070
    46
1040
0.2
1000
ACAD_MTEXT_DEFINED_HEIGHT_END
  0
POINT
  5
11E
330
117
100
AcDbEntity
  8
Defpoints
 62
     0
100
AcDbPoint
 10
48.23475060000001
 20
128.15776995
 30
0.0
  0
POINT
  5
11F
330
117
100
AcDbEntity
  8
Defpoints
 62
     0
100
AcDbPoint
 10
61.21826515000001
 20
168.15776995
 30
0.0
  0
POINT
  5
120
330
117
100
AcDbEntity
  8
Defpoints
 62
     0
100
AcDbPoint
 10
41.20177965
 20
168.15776995
 30
0.0
  0
ENDBLK
  5
122
330
117
100
AcDbEntity
  8
0
100
AcDbBlockEnd
  0
BLOCK
  5
147
330
13D
100
AcDbEntity
  8
0
100
AcDbBlockBegin
  2
*D3
 70
     1
 10
0.0
 20
0.0
 30
0.0
  3
*D3
  1

  0
LINE
  5
13E
330
13D
100
AcDbEntity
  8
D-STR-DIM
  6
Continuous
 62
     5
370
    -2
100
AcDbLine
 10
128.46732545
 20
128.15776995
 30
0.0
 11
121.4343545
 21
128.15776995
 31
0.0
  0
LINE
  5
13F
330
13D
100
AcDbEntity
  8
D-STR-DIM
  6
Continuous
 62
     5
370
    -2
100
AcDbLine
 10
141.45083995
 20
168.15776995
 30
0.0
 11
121.4343545
 21
168.15776995
 31
0.0
  0
LINE
  5
140
330
13D
100
AcDbEntity
  8
D-STR-DIM
  6
Continuous
 62
     5
370
    -2
100
AcDbLine
 10
122.4343545
 20
129.15776995
 30
0.0
 11
122.4343545
 21
167.15776995
 31
0.0
  0
SOLID
  5
141
330
13D
100
AcDbEntity
  8
D-STR-DIM
 62
     5
100
AcDbTrace
 10
122.2676878333333
 20
129.15776995
 30
0.0
 11
122.6010211666667
 21
129.15776995
 31
0.0
 12
122.4343545
 22
128.15776995
 32
0.0
 13
122.4343545
 23
128.15776995
 33
0.0
  0
SOLID
  5
142
330
13D
100
AcDbEntity
  8
D-STR-DIM
 62
     5
100
AcDbTrace
 10
122.6010211666667
 20
167.15776995
 30
0.0
 11
122.2676878333333
 21
167.15776995
 31
0.0
 12
122.4343545
 22
168.15776995
 32
0.0
 13
122.4343545
 23
168.15776995
 33
0.0
  0
MTEXT
  5
143
330
13D
100
AcDbEntity
  8
D-STR-DIM
 62
     5
370
    13
100
AcDbMText
 10
120.1843545
 20
148.15776995
 30
0.0
 40
2.777777777777778
 41
0.0
 71
     5
 72
     1
  1
\A1;900
  7
ＭＳ ゴシック
 11
6.123233995736766E-17
 21
1.0
 31
0.0
 73
     1
 44
1.0
1001
ACAD
1000
ACAD_MTEXT_DEFINED_HEIGHT_BEGIN
1070
    46
1040
0.2
1000
ACAD_MTEXT_DEFINED_HEIGHT_END
  0
POINT
  5
144
330
13D
100
AcDbEntity
  8
Defpoints
 62
     0
100
AcDbPoint
 10
129.46732545
 20
128.15776995
 30
0.0
  0
POINT
  5
145
330
13D
100
AcDbEntity
  8
Defpoints
 62
     0
100
AcDbPoint
 10
142.45083995
 20
168.15776995
 30
0.0
  0
POINT
  5
146
330
13D
100
AcDbEntity
  8
Defpoints
 62
     0
100
AcDbPoint
 10
122.4343545
 20
168.15776995
 30
0.0
  0
ENDBLK
  5
148
330
13D
100
AcDbEntity
  8
0
100
AcDbBlockEnd
  0
BLOCK
  5
1B0
330
1A6
100
AcDbEntity
  8
0
100
AcDbBlockBegin
  2
*D4
 70
     1
 10
0.0
 20
0.0
 30
0.0
  3
*D4
  1

  0
LINE
  5
1A7
330
1A6
100
AcDbEntity
  8
D-STR-DIM
  6
Continuous
 62
     5
370
    -2
100
AcDbLine
 10
132.45083995
 20
108.15776995
 30
0.0
 11
121.4343545
 21
108.15776995
 31
0.0
  0
LINE
  5
1A8
330
1A6
100
AcDbEntity
  8
D-STR-DIM
  6
Continuous
 62
     5
370
    -2
100
AcDbLine
 10
132.45083995
 20
113.15776995
 30
0.0
 11
121.4343545
 21
113.15776995
 31
0.0
  0
LINE
  5
1A9
330
1A6
100
AcDbEntity
  8
D-STR-DIM
  6
Continuous
 62
     5
370
    -2
100
AcDbLine
 10
122.4343545
 20
109.15776995
 30
0.0
 11
122.4343545
 21
112.15776995
 31
0.0
  0
SOLID
  5
1AA
330
1A6
100
AcDbEntity
  8
D-STR-DIM
 62
     5
100
AcDbTrace
 10
122.2676878333333
 20
109.15776995
 30
0.0
 11
122.6010211666667
 21
109.15776995
 31
0.0
 12
122.4343545
 22
108.15776995
 32
0.0
 13
122.4343545
 23
108.15776995
 33
0.0
  0
SOLID
  5
1AB
330
1A6
100
AcDbEntity
  8
D-STR-DIM
 62
     5
100
AcDbTrace
 10
122.6010211666667
 20
112.15776995
 30
0.0
 11
122.2676878333333
 21
112.15776995
 31
0.0
 12
122.4343545
 22
113.15776995
 32
0.0
 13
122.4343545
 23
113.15776995
 33
0.0
  0
MTEXT
  5
1AC
330
1A6
100
AcDbEntity
  8
D-STR-DIM
 62
     5
370
    13
100
AcDbMText
 10
120.1843545
 20
110.65776995
 30
0.0
 40
2.777777777777778
 41
0.0
 71
     5
 72
     1
  1
\A1;100
  7
ＭＳ ゴシック
 11
6.123233995736766E-17
 21
1.0
 31
0.0
 73
     1
 44
1.0
1001
ACAD
1000
ACAD_MTEXT_DEFINED_HEIGHT_BEGIN
1070
    46
1040
0.2
1000
ACAD_MTEXT_DEFINED_HEIGHT_END
  0
POINT
  5
1AD
330
1A6
100
AcDbEntity
  8
Defpoints
 62
     0
100
AcDbPoint
 10
133.45083995
 20
108.15776995
 30
0.0
  0
POINT
  5
1AE
330
1A6
100
AcDbEntity
  8
Defpoints
 62
     0
100
AcDbPoint
 10
133.45083995
 20
113.15776995
 30
0.0
  0
POINT
  5
1AF
330
1A6
100
AcDbEntity
  8
Defpoints
 62
     0
100
AcDbPoint
 10
122.4343545
 20
113.15776995
 30
0.0
  0
ENDBLK
  5
1B1
330
1A6
100
AcDbEntity
  8
0
100
AcDbBlockEnd
  0
BLOCK
  5
1BD
330
1B3
100
AcDbEntity
  8
0
100
AcDbBlockBegin
  2
*D5
 70
     1
 10
0.0
 20
0.0
 30
0.0
  3
*D5
  1

  0
LINE
  5
1B4
330
1B3
100
AcDbEntity
  8
D-STR-DIM
  6
Continuous
 62
     5
370
    -2
100
AcDbLine
 10
132.45083995
 20
113.15776995
 30
0.0
 11
121.4343545
 21
113.15776995
 31
0.0
  0
LINE
  5
1B5
330
1B3
100
AcDbEntity
  8
D-STR-DIM
  6
Continuous
 62
     5
370
    -2
100
AcDbLine
 10
128.46732545
 20
128.15776995
 30
0.0
 11
121.4343545
 21
128.15776995
 31
0.0
  0
LINE
  5
1B6
330
1B3
100
AcDbEntity
  8
D-STR-DIM
  6
Continuous
 62
     5
370
    -2
100
AcDbLine
 10
122.4343545
 20
114.15776995
 30
0.0
 11
122.4343545
 21
127.15776995
 31
0.0
  0
SOLID
  5
1B7
330
1B3
100
AcDbEntity
  8
D-STR-DIM
 62
     5
100
AcDbTrace
 10
122.2676878333333
 20
114.15776995
 30
0.0
 11
122.6010211666667
 21
114.15776995
 31
0.0
 12
122.4343545
 22
113.15776995
 32
0.0
 13
122.4343545
 23
113.15776995
 33
0.0
  0
SOLID
  5
1B8
330
1B3
100
AcDbEntity
  8
D-STR-DIM
 62
     5
100
AcDbTrace
 10
122.6010211666667
 20
127.15776995
 30
0.0
 11
122.2676878333333
 21
127.15776995
 31
0.0
 12
122.4343545
 22
128.15776995
 32
0.0
 13
122.4343545
 23
128.15776995
 33
0.0
  0
MTEXT
  5
1B9
330
1B3
100
AcDbEntity
  8
D-STR-DIM
 62
     5
370
    13
100
AcDbMText
 10
120.1843545
 20
120.65776995
 30
0.0
 40
2.777777777777778
 41
0.0
 71
     5
 72
     1
  1
\A1;300
  7
ＭＳ ゴシック
 11
6.123233995736766E-17
 21
1.0
 31
0.0
 73
     1
 44
1.0
1001
ACAD
1000
ACAD_MTEXT_DEFINED_HEIGHT_BEGIN
1070
    46
1040
0.2
1000
ACAD_MTEXT_DEFINED_HEIGHT_END
  0
POINT
  5
1BA
330
1B3
100
AcDbEntity
  8
Defpoints
 62
     0
100
AcDbPoint
 10
133.45083995
 20
113.15776995
 30
0.0
  0
POINT
  5
1BB
330
1B3
100
AcDbEntity
  8
Defpoints
 62
     0
100
AcDbPoint
 10
129.46732545
 20
128.15776995
 30
0.0
  0
POINT
  5
1BC
330
1B3
100
AcDbEntity
  8
Defpoints
 62
     0
100
AcDbPoint
 10
122.4343545
 20
128.15776995
 30
0.0
  0
ENDBLK
  5
1BE
330
1B3
100
AcDbEntity
  8
0
100
AcDbBlockEnd
  0
BLOCK
  5
1D1
330
1C7
100
AcDbEntity
  8
0
100
AcDbBlockBegin
  2
*D6
 70
     1
 10
0.0
 20
0.0
 30
0.0
  3
*D6
  1

  0
LINE
  5
1C8
330
1C7
100
AcDbEntity
  8
D-STR-DIM
  6
Continuous
 62
     5
370
    -2
100
AcDbLine
 10
135.95083995
 20
107.15776995
 30
0.0
 11
135.95083995
 21
94.15776995
 31
0.0
  0
LINE
  5
1C9
330
1C7
100
AcDbEntity
  8
D-STR-DIM
  6
Continuous
 62
     5
370
    -2
100
AcDbLine
 10
150.95083995
 20
107.15776995
 30
0.0
 11
150.95083995
 21
94.15776995
 31
0.0
  0
LINE
  5
1CA
330
1C7
100
AcDbEntity
  8
D-STR-DIM
  6
Continuous
 62
     5
370
    -2
100
AcDbLine
 10
136.95083995
 20
95.15776995
 30
0.0
 11
149.95083995
 21
95.15776995
 31
0.0
  0
SOLID
  5
1CB
330
1C7
100
AcDbEntity
  8
D-STR-DIM
 62
     5
100
AcDbTrace
 10
136.95083995
 20
95.32443661666666
 30
0.0
 11
136.95083995
 21
94.99110328333335
 31
0.0
 12
135.95083995
 22
95.15776995
 32
0.0
 13
135.95083995
 23
95.15776995
 33
0.0
  0
SOLID
  5
1CC
330
1C7
100
AcDbEntity
  8
D-STR-DIM
 62
     5
100
AcDbTrace
 10
149.95083995
 20
94.99110328333335
 30
0.0
 11
149.95083995
 21
95.32443661666666
 31
0.0
 12
150.95083995
 22
95.15776995
 32
0.0
 13
150.95083995
 23
95.15776995
 33
0.0
  0
MTEXT
  5
1CD
330
1C7
100
AcDbEntity
  8
D-STR-DIM
 62
     5
370
    13
100
AcDbMText
 10
143.45083995
 20
97.40776995
 30
0.0
 40
2.777777777777778
 41
0.0
 71
     5
 72
     1
  1
\A1;300
  7
ＭＳ ゴシック
 73
     1
 44
1.0
1001
ACAD
1000
ACAD_MTEXT_DEFINED_HEIGHT_BEGIN
1070
    46
1040
0.2
1000
ACAD_MTEXT_DEFINED_HEIGHT_END
  0
POINT
  5
1CE
330
1C7
100
AcDbEntity
  8
Defpoints
 62
     0
100
AcDbPoint
 10
135.95083995
 20
108.15776995
 30
0.0
  0
POINT
  5
1CF
330
1C7
100
AcDbEntity
  8
Defpoints
 62
     0
100
AcDbPoint
 10
150.95083995
 20
108.15776995
 30
0.0
  0
POINT
  5
1D0
330
1C7
100
AcDbEntity
  8
Defpoints
 62
     0
100
AcDbPoint
 10
150.95083995
 20
95.15776995
 30
0.0
  0
ENDBLK
  5
1D2
330
1C7
100
AcDbEntity
  8
0
100
AcDbBlockEnd
  0
BLOCK
  5
203
330
1F9
100
AcDbEntity
  8
0
100
AcDbBlockBegin
  2
*D7
 70
     1
 10
0.0
 20
0.0
 30
0.0
  3
*D7
  1

  0
LINE
  5
1FA
330
1F9
100
AcDbEntity
  8
D-STR-DIM
  6
Continuous
 62
     5
370
    -2
100
AcDbLine
 10
256.6745456
 20
170.9999856
 30
0.0
 11
256.6745456
 21
180.9999856
 31
0.0
  0
LINE
  5
1FB
330
1F9
100
AcDbEntity
  8
D-STR-DIM
  6
Continuous
 62
     5
370
    -2
100
AcDbLine
 10
286.6745456
 20
170.9999856
 30
0.0
 11
286.6745456
 21
180.9999856
 31
0.0
  0
LINE
  5
1FC
330
1F9
100
AcDbEntity
  8
D-STR-DIM
  6
Continuous
 62
     5
370
    -2
100
AcDbLine
 10
257.6745456
 20
179.9999856
 30
0.0
 11
285.6745456
 21
179.9999856
 31
0.0
  0
SOLID
  5
1FD
330
1F9
100
AcDbEntity
  8
D-STR-DIM
 62
     5
100
AcDbTrace
 10
257.6745456
 20
180.1666522666667
 30
0.0
 11
257.6745456
 21
179.8333189333333
 31
0.0
 12
256.6745456
 22
179.9999856
 32
0.0
 13
256.6745456
 23
179.9999856
 33
0.0
  0
SOLID
  5
1FE
330
1F9
100
AcDbEntity
  8
D-STR-DIM
 62
     5
100
AcDbTrace
 10
285.6745456
 20
179.8333189333333
 30
0.0
 11
285.6745456
 21
180.1666522666667
 31
0.0
 12
286.6745456
 22
179.9999856
 32
0.0
 13
286.6745456
 23
179.9999856
 33
0.0
  0
MTEXT
  5
1FF
330
1F9
100
AcDbEntity
  8
D-STR-DIM
 62
     5
370
    13
100
AcDbMText
 10
271.6745456
 20
182.2499856
 30
0.0
 40
2.777777777777778
 41
0.0
 71
     5
 72
     1
  1
\A1;300
  7
ＭＳ ゴシック
 73
     1
 44
1.0
1001
ACAD
1000
ACAD_MTEXT_DEFINED_HEIGHT_BEGIN
1070
    46
1040
0.2
1000
ACAD_MTEXT_DEFINED_HEIGHT_END
  0
POINT
  5
200
330
1F9
100
AcDbEntity
  8
Defpoints
 62
     0
100
AcDbPoint
 10
256.6745456
 20
169.9999856
 30
0.0
  0
POINT
  5
201
330
1F9
100
AcDbEntity
  8
Defpoints
 62
     0
100
AcDbPoint
 10
286.6745456
 20
169.9999856
 30
0.0
  0
POINT
  5
202
330
1F9
100
AcDbEntity
  8
Defpoints
 62
     0
100
AcDbPoint
 10
286.6745456
 20
179.9999856
 30
0.0
  0
ENDBLK
  5
204
330
1F9
100
AcDbEntity
  8
0
100
AcDbBlockEnd
  0
BLOCK
  5
210
330
206
100
AcDbEntity
  8
0
100
AcDbBlockBegin
  2
*D8
 70
     1
 10
0.0
 20
0.0
 30
0.0
  3
*D8
  1

  0
LINE
  5
207
330
206
100
AcDbEntity
  8
D-STR-DIM
  6
Continuous
 62
     5
370
    -2
100
AcDbLine
 10
255.6745456
 20
169.9999856
 30
0.0
 11
245.6745456
 21
169.9999856
 31
0.0
  0
LINE
  5
208
330
206
100
AcDbEntity
  8
D-STR-DIM
  6
Continuous
 62
     5
370
    -2
100
AcDbLine
 10
255.6745456
 20
129.9999856
 30
0.0
 11
245.6745456
 21
129.9999856
 31
0.0
  0
LINE
  5
209
330
206
100
AcDbEntity
  8
D-STR-DIM
  6
Continuous
 62
     5
370
    -2
100
AcDbLine
 10
246.6745456
 20
168.9999856
 30
0.0
 11
246.6745456
 21
130.9999856
 31
0.0
  0
SOLID
  5
20A
330
206
100
AcDbEntity
  8
D-STR-DIM
 62
     5
100
AcDbTrace
 10
246.8412122666667
 20
168.9999856
 30
0.0
 11
246.5078789333334
 21
168.9999856
 31
0.0
 12
246.6745456
 22
169.9999856
 32
0.0
 13
246.6745456
 23
169.9999856
 33
0.0
  0
SOLID
  5
20B
330
206
100
AcDbEntity
  8
D-STR-DIM
 62
     5
100
AcDbTrace
 10
246.5078789333334
 20
130.9999856
 30
0.0
 11
246.8412122666667
 21
130.9999856
 31
0.0
 12
246.6745456
 22
129.9999856
 32
0.0
 13
246.6745456
 23
129.9999856
 33
0.0
  0
MTEXT
  5
20C
330
206
100
AcDbEntity
  8
D-STR-DIM
 62
     5
370
    13
100
AcDbMText
 10
244.4245456
 20
149.9999856
 30
0.0
 40
2.777777777777778
 41
0.0
 71
     5
 72
     1
  1
\A1;400
  7
ＭＳ ゴシック
 11
6.123233995736766E-17
 21
1.0
 31
0.0
 73
     1
 44
1.0
1001
ACAD
1000
ACAD_MTEXT_DEFINED_HEIGHT_BEGIN
1070
    46
1040
0.2
1000
ACAD_MTEXT_DEFINED_HEIGHT_END
  0
POINT
  5
20D
330
206
100
AcDbEntity
  8
Defpoints
 62
     0
100
AcDbPoint
 10
256.6745456
 20
169.9999856
 30
0.0
  0
POINT
  5
20E
330
206
100
AcDbEntity
  8
Defpoints
 62
     0
100
AcDbPoint
 10
256.6745456
 20
129.9999856
 30
0.0
  0
POINT
  5
20F
330
206
100
AcDbEntity
  8
Defpoints
 62
     0
100
AcDbPoint
 10
246.6745456
 20
129.9999856
 30
0.0
  0
ENDBLK
  5
211
330
206
100
AcDbEntity
  8
0
100
AcDbBlockEnd
  0
ENDSEC
  0
SECTION
  2
ENTITIES
  0
TEXT
  5
4D
330
1F
100
AcDbEntity
  8
D-TTL-TXT
  6
Continuous
 62
     7
370
    13
100
AcDbText
 10
21.40466321
 20
269.3391041128572
 30
0.0
 40
3.968253968253968
  1
別図２２　視線誘導標標準構造図  （第１７条第１項第５号関係）
 41
0.8
  7
ＭＳ ゴシック
 11
21.40466321
 21
268.61421572
 31
0.0
100
AcDbText
 73
     1
  0
LINE
  5
4E
330
1F
100
AcDbEntity
  8
D-STR
  6
Continuous
 62
     7
370
    50
100
AcDbLine
 10
104.54692739
 20
230.06341044
 30
0.0
 11
72.98300110000001
 21
230.06341044
 31
0.0
  0
LINE
  5
4F
330
1F
100
AcDbEntity
  8
D-STR
  6
Continuous
 62
     7
370
    50
100
AcDbLine
 10
72.98300110000001
 20
230.06341044
 30
0.0
 11
62.37639938000001
 21
219.45680872
 31
0.0
  0
LINE
  5
50
330
1F
100
AcDbEntity
  8
D-STR
  6
Continuous
 62
     7
370
    50
100
AcDbLine
 10
62.37639938
 20
203.418852455
 30
0.0
 11
62.37639938
 21
219.45680872
 31
0.0
  0
CIRCLE
  5
51
330
1F
100
AcDbEntity
  8
D-STR
  6
Continuous
 62
     7
370
    50
100
AcDbCircle
 10
39.581050455
 20
232.289001995
 30
0.0
 40
0.2
  0
CIRCLE
  5
52
330
1F
100
AcDbEntity
  8
D-STR
  6
Continuous
 62
     7
370
    50
100
AcDbCircle
 10
42.93089444
 20
238.983300475
 30
0.0
 40
0.2
  0
CIRCLE
  5
53
330
1F
100
AcDbEntity
  8
D-STR
  6
Continuous
 62
     7
370
    50
100
AcDbCircle
 10
47.62766204
 20
244.812147785
 30
0.0
 40
0.2
  0
CIRCLE
  5
54
330
1F
100
AcDbEntity
  8
D-STR
  6
Continuous
 62
     7
370
    50
100
AcDbCircle
 10
53.45650935
 20
249.50891538
 30
0.0
 40
0.2
  0
CIRCLE
  5
55
330
1F
100
AcDbEntity
  8
D-STR
  6
Continuous
 62
     7
370
    50
100
AcDbCircle
 10
60.150807825
 20
252.85875937
 30
0.0
 40
0.2
  0
CIRCLE
  5
56
330
1F
100
AcDbEntity
  8
D-STR
  6
Continuous
 62
     7
370
    50
100
AcDbCircle
 10
67.40434066
 20
254.70844807
 30
0.0
 40
0.2
  0
LINE
  5
57
330
1F
100
AcDbEntity
  8
D-STR
  6
Continuous
 62
     7
370
    50
100
AcDbLine
 10
39.293911975
 20
232.26775363
 30
0.0
 11
39.785074565
 21
232.49216243
 31
0.0
  0
LINE
  5
58
330
1F
100
AcDbEntity
  8
D-STR
  6
Continuous
 62
     7
370
    50
100
AcDbLine
 10
39.377026345
 20
232.08584156
 30
0.0
 11
39.868188935
 21
232.31025036
 31
0.0
  0
LINE
  5
59
330
1F
100
AcDbEntity
  8
D-STR
  6
Continuous
 62
     7
370
    50
100
AcDbLine
 10
39.293911975
 20
232.26775363
 30
0.0
 11
39.377026345
 21
232.08584156
 31
0.0
  0
LINE
  5
5A
330
1F
100
AcDbEntity
  8
D-STR
  6
Continuous
 62
     7
370
    50
100
AcDbLine
 10
39.785074565
 20
232.49216243
 30
0.0
 11
39.868188935
 21
232.31025036
 31
0.0
  0
LINE
  5
5B
330
1F
100
AcDbEntity
  8
D-STR
  6
Continuous
 62
     7
370
    50
100
AcDbLine
 10
42.64580478
 20
239.023597955
 30
0.0
 11
43.17345419
 21
239.1384287
 31
0.0
  0
LINE
  5
5C
330
1F
100
AcDbEntity
  8
D-STR
  6
Continuous
 62
     7
370
    50
100
AcDbLine
 10
42.68833469
 20
238.828172245
 30
0.0
 11
43.21598409500001
 21
238.943002995
 31
0.0
  0
LINE
  5
5D
330
1F
100
AcDbEntity
  8
D-STR
  6
Continuous
 62
     7
370
    50
100
AcDbLine
 10
42.64580478
 20
239.023597955
 30
0.0
 11
42.68833469
 21
238.828172245
 31
0.0
  0
LINE
  5
5E
330
1F
100
AcDbEntity
  8
D-STR
  6
Continuous
 62
     7
370
    50
100
AcDbLine
 10
43.17345419
 20
239.1384287
 30
0.0
 11
43.215984095
 21
238.943002995
 31
0.0
  0
LINE
  5
5F
330
1F
100
AcDbEntity
  8
D-STR
  6
Continuous
 62
     7
370
    50
100
AcDbLine
 10
47.35766203999999
 20
244.912147785
 30
0.0
 11
47.89766203999999
 21
244.912147785
 31
0.0
  0
LINE
  5
60
330
1F
100
AcDbEntity
  8
D-STR
  6
Continuous
 62
     7
370
    50
100
AcDbLine
 10
47.35766203999999
 20
244.712147785
 30
0.0
 11
47.89766203999999
 21
244.712147785
 31
0.0
  0
LINE
  5
61
330
1F
100
AcDbEntity
  8
D-STR
  6
Continuous
 62
     7
370
    50
100
AcDbLine
 10
47.35766203999999
 20
244.912147785
 30
0.0
 11
47.35766203999999
 21
244.712147785
 31
0.0
  0
LINE
  5
62
330
1F
100
AcDbEntity
  8
D-STR
  6
Continuous
 62
     7
370
    50
100
AcDbLine
 10
47.89766204
 20
244.912147785
 30
0.0
 11
47.89766204
 21
244.712147785
 31
0.0
  0
LINE
  5
63
330
1F
100
AcDbEntity
  8
D-STR
  6
Continuous
 62
     7
370
    50
100
AcDbLine
 10
53.213949595
 20
249.66404361
 30
0.0
 11
53.741599005
 21
249.54921286
 31
0.0
  0
LINE
  5
64
330
1F
100
AcDbEntity
  8
D-STR
  6
Continuous
 62
     7
370
    50
100
AcDbLine
 10
53.17141969
 20
249.468617905
 30
0.0
 11
53.6990691
 21
249.353787155
 31
0.0
  0
LINE
  5
65
330
1F
100
AcDbEntity
  8
D-STR
  6
Continuous
 62
     7
370
    50
100
AcDbLine
 10
53.213949595
 20
249.66404361
 30
0.0
 11
53.17141969
 21
249.468617905
 31
0.0
  0
LINE
  5
66
330
1F
100
AcDbEntity
  8
D-STR
  6
Continuous
 62
     7
370
    50
100
AcDbLine
 10
53.741599005
 20
249.54921286
 30
0.0
 11
53.6990691
 21
249.353787155
 31
0.0
  0
LINE
  5
67
330
1F
100
AcDbEntity
  8
D-STR
  6
Continuous
 62
     7
370
    50
100
AcDbLine
 10
59.946783715
 20
253.061919805
 30
0.0
 11
60.437946305
 21
252.837511
 31
0.0
  0
LINE
  5
68
330
1F
100
AcDbEntity
  8
D-STR
  6
Continuous
 62
     7
370
    50
100
AcDbLine
 10
59.863669345
 20
252.880007735
 30
0.0
 11
60.354831935
 21
252.65559893
 31
0.0
  0
LINE
  5
69
330
1F
100
AcDbEntity
  8
D-STR
  6
Continuous
 62
     7
370
    50
100
AcDbLine
 10
59.946783715
 20
253.061919805
 30
0.0
 11
59.863669345
 21
252.880007735
 31
0.0
  0
LINE
  5
6A
330
1F
100
AcDbEntity
  8
D-STR
  6
Continuous
 62
     7
370
    50
100
AcDbLine
 10
60.437946305
 20
252.837511
 30
0.0
 11
60.354831935
 21
252.65559893
 31
0.0
  0
LINE
  5
6B
330
1F
100
AcDbEntity
  8
D-STR
  6
Continuous
 62
     7
370
    50
100
AcDbLine
 10
67.24818485
 20
254.95034756
 30
0.0
 11
67.680393405
 21
254.62662582
 31
0.0
  0
LINE
  5
6C
330
1F
100
AcDbEntity
  8
D-STR
  6
Continuous
 62
     7
370
    50
100
AcDbLine
 10
67.12828791
 20
254.790270315
 30
0.0
 11
67.560496465
 21
254.466548575
 31
0.0
  0
LINE
  5
6D
330
1F
100
AcDbEntity
  8
D-STR
  6
Continuous
 62
     7
370
    50
100
AcDbLine
 10
67.24818485
 20
254.95034756
 30
0.0
 11
67.12828791
 21
254.790270315
 31
0.0
  0
LINE
  5
6E
330
1F
100
AcDbEntity
  8
D-STR
  6
Continuous
 62
     7
370
    50
100
AcDbLine
 10
67.680393405
 20
254.62662582
 30
0.0
 11
67.560496465
 21
254.466548575
 31
0.0
  0
LINE
  5
6F
330
1F
100
AcDbEntity
  8
D-STR
  6
Continuous
 62
     7
370
    50
100
AcDbLine
 10
152.37639938
 20
203.418852455
 30
0.0
 11
152.37639938
 21
255.06341044
 31
0.0
  0
LINE
  5
70
330
1F
100
AcDbEntity
  8
D-STR
  6
Continuous
 62
     7
370
    50
100
AcDbLine
 10
127.37639938
 20
230.06341044
 30
0.0
 11
127.37639938
 21
255.06341044
 31
0.0
  0
LINE
  5
71
330
1F
100
AcDbEntity
  8
D-STR
  6
Continuous
 62
     7
370
    50
100
AcDbLine
 10
127.37639938
 20
230.06341044
 30
0.0
 11
117.37639938
 21
230.06341044
 31
0.0
  0
LINE
  5
72
330
1F
100
AcDbEntity
  8
D-STR
  6
Continuous
 62
     7
370
    50
100
AcDbLine
 10
117.37639938
 20
203.418852455
 30
0.0
 11
117.37639938
 21
230.06341044
 31
0.0
  0
LINE
  5
73
330
1F
100
AcDbEntity
  8
D-STR
  6
Continuous
 62
     7
370
    50
100
AcDbLine
 10
104.54692739
 20
255.06341044
 30
0.0
 11
37.37639938000001
 21
255.06341044
 31
0.0
  0
LINE
  5
74
330
1F
100
AcDbEntity
  8
D-STR
  6
Continuous
 62
     7
370
    50
100
AcDbLine
 10
37.37639938
 20
203.418852455
 30
0.0
 11
37.37639938
 21
255.06341044
 31
0.0
  0
ARC
  5
75
330
1F
100
AcDbEntity
  8
D-STR-STR3
  6
Continuous
 62
     1
370
    25
100
AcDbCircle
 10
72.37639938000001
 20
220.06341044
 30
0.0
 40
32.125
100
AcDbArc
 50
90.0
 51
180.0
  0
ARC
  5
76
330
1F
100
AcDbEntity
  8
D-STR-STR3
  6
Continuous
 62
     1
370
    25
100
AcDbCircle
 10
72.37639938000001
 20
220.06341044
 30
0.0
 40
32.875
100
AcDbArc
 50
90.0
 51
180.0
  0
LINE
  5
77
330
1F
100
AcDbEntity
  8
D-STR-STR3
  6
Continuous
 62
     1
370
    25
100
AcDbLine
 10
103.94032567
 20
252.93841044
 30
0.0
 11
72.37639938000001
 21
252.93841044
 31
0.0
  0
LINE
  5
78
330
1F
100
AcDbEntity
  8
D-STR-STR3
  6
Continuous
 62
     1
370
    25
100
AcDbLine
 10
103.94032567
 20
252.18841044
 30
0.0
 11
72.37639938000001
 21
252.18841044
 31
0.0
  0
LINE
  5
79
330
1F
100
AcDbEntity
  8
D-STR-STR3
  6
Continuous
 62
     1
370
    25
100
AcDbLine
 10
40.25139938
 20
204.025454175
 30
0.0
 11
40.25139938
 21
220.06341044
 31
0.0
  0
LINE
  5
7A
330
1F
100
AcDbEntity
  8
D-STR-STR3
  6
Continuous
 62
     1
370
    25
100
AcDbLine
 10
39.50139938
 20
204.025454175
 30
0.0
 11
39.50139938
 21
220.06341044
 31
0.0
  0
LINE
  5
7B
330
1F
100
AcDbEntity
  8
D-STR-STR3
  6
Continuous
 62
     1
370
    25
100
AcDbLine
 10
129.50139938
 20
229.49401841
 30
0.0
 11
129.50139938
 21
255.06341044
 31
0.0
  0
LINE
  5
7C
330
1F
100
AcDbEntity
  8
D-STR-STR3
  6
Continuous
 62
     1
370
    25
100
AcDbLine
 10
119.50139938
 20
212.173510335
 30
0.0
 11
129.50139938
 21
229.49401841
 31
0.0
  0
LINE
  5
7D
330
1F
100
AcDbEntity
  8
D-STR-STR3
  6
Continuous
 62
     1
370
    25
100
AcDbLine
 10
119.50139938
 20
203.418852455
 30
0.0
 11
119.50139938
 21
212.173510335
 31
0.0
  0
LINE
  5
7E
330
1F
100
AcDbEntity
  8
D-STR-STR3
  6
Continuous
 62
     1
370
    25
100
AcDbLine
 10
120.25139938
 20
203.418852455
 30
0.0
 11
120.25139938
 21
211.97254844
 31
0.0
  0
LINE
  5
7F
330
1F
100
AcDbEntity
  8
D-STR-STR3
  6
Continuous
 62
     1
370
    25
100
AcDbLine
 10
120.25139938
 20
211.97254844
 30
0.0
 11
130.25139938
 21
229.293056515
 31
0.0
  0
LINE
  5
80
330
1F
100
AcDbEntity
  8
D-STR-STR3
  6
Continuous
 62
     1
370
    25
100
AcDbLine
 10
130.25139938
 20
229.293056515
 30
0.0
 11
130.25139938
 21
255.06341044
 31
0.0
  0
CIRCLE
  5
81
330
1F
100
AcDbEntity
  8
D-STR
  6
Continuous
 62
     7
370
    50
100
AcDbCircle
 10
118.62639938
 20
214.907965875
 30
0.0
 40
0.2
  0
CIRCLE
  5
82
330
1F
100
AcDbEntity
  8
D-STR
  6
Continuous
 62
     7
370
    50
100
AcDbCircle
 10
122.37639938
 20
221.403156405
 30
0.0
 40
0.2
  0
CIRCLE
  5
83
330
1F
100
AcDbEntity
  8
D-STR
  6
Continuous
 62
     7
370
    50
100
AcDbCircle
 10
126.12639938
 20
227.898346935
 30
0.0
 40
0.2
  0
LINE
  5
84
330
1F
100
AcDbEntity
  8
D-STR
  6
Continuous
 62
     7
370
    50
100
AcDbLine
 10
118.3397175
 20
214.934677315
 30
0.0
 11
118.86131745
 21
215.0744396
 31
0.0
  0
LINE
  5
85
330
1F
100
AcDbEntity
  8
D-STR
  6
Continuous
 62
     7
370
    50
100
AcDbLine
 10
118.39148131
 20
214.74149215
 30
0.0
 11
118.913081255
 21
214.881254435
 31
0.0
  0
LINE
  5
86
330
1F
100
AcDbEntity
  8
D-STR
  6
Continuous
 62
     7
370
    50
100
AcDbLine
 10
118.3397175
 20
214.934677315
 30
0.0
 11
118.39148131
 21
214.74149215
 31
0.0
  0
LINE
  5
87
330
1F
100
AcDbEntity
  8
D-STR
  6
Continuous
 62
     7
370
    50
100
AcDbLine
 10
118.86131745
 20
215.0744396
 30
0.0
 11
118.913081255
 21
214.881254435
 31
0.0
  0
LINE
  5
88
330
1F
100
AcDbEntity
  8
D-STR
  6
Continuous
 62
     7
370
    50
100
AcDbLine
 10
122.0897175
 20
221.429867845
 30
0.0
 11
122.61131745
 21
221.56963013
 31
0.0
  0
LINE
  5
89
330
1F
100
AcDbEntity
  8
D-STR
  6
Continuous
 62
     7
370
    50
100
AcDbLine
 10
122.0897175
 20
221.429867845
 30
0.0
 11
122.14148131
 21
221.23668268
 31
0.0
  0
LINE
  5
8A
330
1F
100
AcDbEntity
  8
D-STR
  6
Continuous
 62
     7
370
    50
100
AcDbLine
 10
122.14148131
 20
221.23668268
 30
0.0
 11
122.663081255
 21
221.376444965
 31
0.0
  0
LINE
  5
8B
330
1F
100
AcDbEntity
  8
D-STR
  6
Continuous
 62
     7
370
    50
100
AcDbLine
 10
122.61131745
 20
221.56963013
 30
0.0
 11
122.663081255
 21
221.376444965
 31
0.0
  0
LINE
  5
8C
330
1F
100
AcDbEntity
  8
D-STR
  6
Continuous
 62
     7
370
    50
100
AcDbLine
 10
125.8397175
 20
227.925058375
 30
0.0
 11
126.36131745
 21
228.06482066
 31
0.0
  0
LINE
  5
8D
330
1F
100
AcDbEntity
  8
D-STR
  6
Continuous
 62
     7
370
    50
100
AcDbLine
 10
125.8397175
 20
227.925058375
 30
0.0
 11
125.89148131
 21
227.73187321
 31
0.0
  0
LINE
  5
8E
330
1F
100
AcDbEntity
  8
D-STR
  6
Continuous
 62
     7
370
    50
100
AcDbLine
 10
125.89148131
 20
227.73187321
 30
0.0
 11
126.413081255
 21
227.87163549
 31
0.0
  0
LINE
  5
8F
330
1F
100
AcDbEntity
  8
D-STR
  6
Continuous
 62
     7
370
    50
100
AcDbLine
 10
126.36131745
 20
228.06482066
 30
0.0
 11
126.413081255
 21
227.87163549
 31
0.0
  0
LINE
  5
90
330
1F
100
AcDbEntity
  8
D-STR-HTXT
  6
Continuous
 62
     7
370
    13
100
AcDbLine
 10
48.42996152547648
 20
244.2152260685211
 30
0.0
 11
53.95134538999999
 21
240.107241465
 31
0.0
  0
LINE
  5
91
330
1F
100
AcDbEntity
  8
D-STR-HTXT
  6
Continuous
 62
     7
370
    13
100
AcDbLine
 10
47.62766204
 20
244.812147785
 30
0.0
 11
48.33047457273
 21
244.0815094876084
 31
0.0
  0
LINE
  5
92
330
1F
100
AcDbEntity
  8
D-STR-HTXT
  6
Continuous
 62
     7
370
    13
100
AcDbLine
 10
47.62766204
 20
244.812147785
 30
0.0
 11
48.52944847822296
 21
244.3489426494338
 31
0.0
  0
LINE
  5
93
330
1F
100
AcDbEntity
  8
D-STR-HTXT
  6
Continuous
 62
     7
370
    13
100
AcDbLine
 10
48.33047457273
 20
244.0815094876084
 30
0.0
 11
48.52944847822296
 21
244.3489426494338
 31
0.0
  0
LINE
  5
94
330
1F
100
AcDbEntity
  8
D-STR-HTXT
  6
Continuous
 62
     7
370
    13
100
AcDbLine
 10
48.189912066184
 20
244.2276371470867
 30
0.0
 11
48.35037196327929
 21
244.1082528037909
 31
0.0
  0
LINE
  5
95
330
1F
100
AcDbEntity
  8
D-STR-HTXT
  6
Continuous
 62
     7
370
    13
100
AcDbLine
 10
48.37026935382859
 20
244.1349961199735
 30
0.0
 11
48.049349559638
 21
244.373764806565
 31
0.0
  0
LINE
  5
96
330
1F
100
AcDbEntity
  8
D-STR-HTXT
  6
Continuous
 62
     7
370
    13
100
AcDbLine
 10
47.90878705309202
 20
244.5198924660434
 30
0.0
 11
48.39016674437789
 21
244.161739436156
 31
0.0
  0
LINE
  5
97
330
1F
100
AcDbEntity
  8
D-STR-HTXT
  6
Continuous
 62
     7
370
    13
100
AcDbLine
 10
48.41006413492719
 20
244.1884827523386
 30
0.0
 11
47.76822454654602
 21
244.6660201255217
 31
0.0
  0
LINE
  5
98
330
1F
100
AcDbEntity
  8
D-STR-HTXT
  6
Continuous
 62
     7
370
    13
100
AcDbLine
 10
47.62766204000003
 20
244.812147785
 30
0.0
 11
48.42996152547649
 21
244.2152260685211
 31
0.0
  0
LINE
  5
99
330
1F
100
AcDbEntity
  8
D-STR-HTXT
  6
Continuous
 62
     7
370
    13
100
AcDbLine
 10
48.44985891602578
 20
244.2419693847037
 30
0.0
 11
47.80801932764462
 21
244.7195067578868
 31
0.0
  0
LINE
  5
9A
330
1F
100
AcDbEntity
  8
D-STR-HTXT
  6
Continuous
 62
     7
370
    13
100
AcDbLine
 10
47.98837661528921
 20
244.6268657307736
 30
0.0
 11
48.46975630657509
 21
244.2687127008862
 31
0.0
  0
LINE
  5
9B
330
1F
100
AcDbEntity
  8
D-STR-HTXT
  6
Continuous
 62
     7
370
    13
100
AcDbLine
 10
48.48965369712438
 20
244.2954560170688
 30
0.0
 11
48.16873390293379
 21
244.5342247036604
 31
0.0
  0
LINE
  5
9C
330
1F
100
AcDbEntity
  8
D-STR-HTXT
  6
Continuous
 62
     7
370
    13
100
AcDbLine
 10
48.34909119057838
 20
244.4415836765471
 30
0.0
 11
48.50955108767368
 21
244.3221993332513
 31
0.0
  0
LINE
  5
9D
330
1F
100
AcDbEntity
  8
D-STR-HTXT
  6
Continuous
 62
     7
370
    13
100
AcDbLine
 10
53.95134539
 20
240.107241465
 30
0.0
 11
87.25134539000001
 21
240.107241465
 31
0.0
  0
TEXT
  5
9E
330
1F
100
AcDbEntity
  8
D-STR-HTXT
  6
Continuous
 62
     7
370
    13
100
AcDbText
 10
58.12912316777778
 20
241.11466334
 30
0.0
 40
2.777777777777778
  1
視線誘導標
 41
0.8
  7
ＭＳ ゴシック
 72
     1
 11
65.35134539
 21
240.607241465
 31
0.0
100
AcDbText
 73
     1
  0
TEXT
  5
9F
330
1F
100
AcDbEntity
  8
D-STR-HTXT
  6
Continuous
 62
     7
370
    13
100
AcDbText
 10
59.04578983444445
 20
236.61466334
 30
0.0
 40
2.777777777777778
  1
または線形誘導標
 41
0.8
  7
ＭＳ ゴシック
 72
     1
 11
70.60134539
 21
236.107241465
 31
0.0
100
AcDbText
 73
     1
  0
LINE
  5
A0
330
1F
100
AcDbEntity
  8
D-STR-HTXT
  6
Continuous
 62
     7
370
    13
100
AcDbLine
 10
123.2029766580954
 20
220.8403331615777
 30
0.0
 11
129.35001435
 21
216.654764815
 31
0.0
  0
LINE
  5
A1
330
1F
100
AcDbEntity
  8
D-STR-HTXT
  6
Continuous
 62
     7
370
    13
100
AcDbLine
 10
122.37639938
 20
221.403156405
 30
0.0
 11
123.1091727841917
 21
220.7025702818952
 31
0.0
  0
LINE
  5
A2
330
1F
100
AcDbEntity
  8
D-STR-HTXT
  6
Continuous
 62
     7
370
    13
100
AcDbLine
 10
122.37639938
 20
221.403156405
 30
0.0
 11
123.2967805319991
 21
220.9780960412603
 31
0.0
  0
LINE
  5
A3
330
1F
100
AcDbEntity
  8
D-STR-HTXT
  6
Continuous
 62
     7
370
    13
100
AcDbLine
 10
123.1091727841917
 20
220.7025702818952
 30
0.0
 11
123.2967805319991
 21
220.9780960412603
 31
0.0
  0
LINE
  5
A4
330
1F
100
AcDbEntity
  8
D-STR-HTXT
  6
Continuous
 62
     7
370
    13
100
AcDbLine
 10
122.9626181033534
 20
220.8426875065161
 30
0.0
 11
123.1279335589725
 21
220.7301228578317
 31
0.0
  0
LINE
  5
A5
330
1F
100
AcDbEntity
  8
D-STR-HTXT
  6
Continuous
 62
     7
370
    13
100
AcDbLine
 10
123.1466943337532
 20
220.7576754337682
 30
0.0
 11
122.816063422515
 21
220.9828047311371
 31
0.0
  0
LINE
  5
A6
330
1F
100
AcDbEntity
  8
D-STR-HTXT
  6
Continuous
 62
     7
370
    13
100
AcDbLine
 10
122.6695087416767
 20
221.122921955758
 30
0.0
 11
123.1654551085339
 21
220.7852280097047
 31
0.0
  0
LINE
  5
A7
330
1F
100
AcDbEntity
  8
D-STR-HTXT
  6
Continuous
 62
     7
370
    13
100
AcDbLine
 10
123.1842158833147
 20
220.8127805856412
 30
0.0
 11
122.5229540608383
 21
221.263039180379
 31
0.0
  0
LINE
  5
A8
330
1F
100
AcDbEntity
  8
D-STR-HTXT
  6
Continuous
 62
     7
370
    13
100
AcDbLine
 10
122.37639938
 20
221.403156405
 30
0.0
 11
123.2029766580954
 21
220.8403331615778
 31
0.0
  0
LINE
  5
A9
330
1F
100
AcDbEntity
  8
D-STR-HTXT
  6
Continuous
 62
     7
370
    13
100
AcDbLine
 10
123.2217374328762
 20
220.8678857375143
 30
0.0
 11
122.5604756103998
 21
221.3181443322521
 31
0.0
  0
LINE
  5
AA
330
1F
100
AcDbEntity
  8
D-STR-HTXT
  6
Continuous
 62
     7
370
    13
100
AcDbLine
 10
122.7445518407996
 20
221.2331322595041
 30
0.0
 11
123.2404982076569
 21
220.8954383134508
 31
0.0
  0
LINE
  5
AB
330
1F
100
AcDbEntity
  8
D-STR-HTXT
  6
Continuous
 62
     7
370
    13
100
AcDbLine
 10
123.2592589824376
 20
220.9229908893873
 30
0.0
 11
122.9286280711995
 21
221.1481201867562
 31
0.0
  0
LINE
  5
AC
330
1F
100
AcDbEntity
  8
D-STR-HTXT
  6
Continuous
 62
     7
370
    13
100
AcDbLine
 10
123.1127043015993
 20
221.0631081140083
 30
0.0
 11
123.2780197572184
 21
220.9505434653238
 31
0.0
  0
LINE
  5
AD
330
1F
100
AcDbEntity
  8
D-STR-HTXT
  6
Continuous
 62
     7
370
    13
100
AcDbLine
 10
129.35001435
 20
216.654764815
 30
0.0
 11
162.65001435
 21
216.654764815
 31
0.0
  0
TEXT
  5
AE
330
1F
100
AcDbEntity
  8
D-STR-HTXT
  6
Continuous
 62
     7
370
    13
100
AcDbText
 10
133.5277921277778
 20
217.66218669
 30
0.0
 40
2.777777777777778
  1
視線誘導標
 41
0.8
  7
ＭＳ ゴシック
 72
     1
 11
140.75001435
 21
217.154764815
 31
0.0
100
AcDbText
 73
     1
  0
TEXT
  5
AF
330
1F
100
AcDbEntity
  8
D-STR-HTXT
  6
Continuous
 62
     7
370
    13
100
AcDbText
 10
134.4444587944445
 20
213.16218669
 30
0.0
 40
2.777777777777778
  1
または線形誘導標
 41
0.8
  7
ＭＳ ゴシック
 72
     1
 11
146.00001435
 21
212.654764815
 31
0.0
100
AcDbText
 73
     1
  0
LINE
  5
B0
330
1F
100
AcDbEntity
  8
D-STR-HTXT
  6
Continuous
 62
     7
370
    13
100
AcDbLine
 10
43.92573400380996
 20
239.0847610204271
 30
0.0
 11
53.95134539
 21
240.107241465
 31
0.0
  0
LINE
  5
B1
330
1F
100
AcDbEntity
  8
D-STR-HTXT
  6
Continuous
 62
     7
370
    13
100
AcDbLine
 10
42.93089444
 20
238.983300475
 30
0.0
 11
43.94264409471447
 21
238.9189544264588
 31
0.0
  0
LINE
  5
B2
330
1F
100
AcDbEntity
  8
D-STR-HTXT
  6
Continuous
 62
     7
370
    13
100
AcDbLine
 10
42.93089444
 20
238.983300475
 30
0.0
 11
43.90882391290544
 21
239.2505676143954
 31
0.0
  0
LINE
  5
B3
330
1F
100
AcDbEntity
  8
D-STR-HTXT
  6
Continuous
 62
     7
370
    13
100
AcDbLine
 10
43.94264409471447
 20
238.9189544264588
 30
0.0
 11
43.90882391290544
 21
239.2505676143954
 31
0.0
  0
LINE
  5
B4
330
1F
100
AcDbEntity
  8
D-STR-HTXT
  6
Continuous
 62
     7
370
    13
100
AcDbLine
 10
43.74029416377158
 20
238.931823636167
 30
0.0
 11
43.93926207653357
 21
238.9521157452525
 31
0.0
  0
LINE
  5
B5
330
1F
100
AcDbEntity
  8
D-STR-HTXT
  6
Continuous
 62
     7
370
    13
100
AcDbLine
 10
43.93588005835267
 20
238.9852770640461
 30
0.0
 11
43.53794423282869
 21
238.9446928458753
 31
0.0
  0
LINE
  5
B6
330
1F
100
AcDbEntity
  8
D-STR-HTXT
  6
Continuous
 62
     7
370
    13
100
AcDbLine
 10
43.33559430188579
 20
238.9575620555835
 30
0.0
 11
43.93249804017177
 21
239.0184383828398
 31
0.0
  0
LINE
  5
B7
330
1F
100
AcDbEntity
  8
D-STR-HTXT
  6
Continuous
 62
     7
370
    13
100
AcDbLine
 10
43.92911602199086
 20
239.0515997016334
 30
0.0
 11
43.13324437094289
 21
238.9704312652918
 31
0.0
  0
LINE
  5
B8
330
1F
100
AcDbEntity
  8
D-STR-HTXT
  6
Continuous
 62
     7
370
    13
100
AcDbLine
 10
42.93089444
 20
238.983300475
 30
0.0
 11
43.92573400380996
 21
239.0847610204271
 31
0.0
  0
LINE
  5
B9
330
1F
100
AcDbEntity
  8
D-STR-HTXT
  6
Continuous
 62
     7
370
    13
100
AcDbLine
 10
43.92235198562906
 20
239.1179223392208
 30
0.0
 11
43.12648033458109
 21
239.0367539028791
 31
0.0
  0
LINE
  5
BA
330
1F
100
AcDbEntity
  8
D-STR-HTXT
  6
Continuous
 62
     7
370
    13
100
AcDbLine
 10
43.32206622916217
 20
239.0902073307582
 30
0.0
 11
43.91896996744815
 21
239.1510836580144
 31
0.0
  0
LINE
  5
BB
330
1F
100
AcDbEntity
  8
D-STR-HTXT
  6
Continuous
 62
     7
370
    13
100
AcDbLine
 10
43.91558794926725
 20
239.1842449768081
 30
0.0
 11
43.51765212374327
 21
239.1436607586373
 31
0.0
  0
LINE
  5
BC
330
1F
100
AcDbEntity
  8
D-STR-HTXT
  6
Continuous
 62
     7
370
    13
100
AcDbLine
 10
43.71323801832435
 20
239.1971141865163
 30
0.0
 11
43.91220593108634
 21
239.2174062956018
 31
0.0
  0
LINE
  5
BD
330
1F
100
AcDbEntity
  8
D-STR-HTXT
  6
Continuous
 62
     7
370
    13
100
AcDbLine
 10
53.95134539
 20
240.107241465
 30
0.0
 11
59.95134539
 21
240.107241465
 31
0.0
  0
LINE
  5
BE
330
1F
100
AcDbEntity
  8
D-STR-HTXT
  6
Continuous
 62
     7
370
    13
100
AcDbLine
 10
119.6133906741266
 20
215.0687395834176
 30
0.0
 11
129.35001435
 21
216.654764815
 31
0.0
  0
LINE
  5
BF
330
1F
100
AcDbEntity
  8
D-STR-HTXT
  6
Continuous
 62
     7
370
    13
100
AcDbLine
 10
118.62639938
 20
214.907965875
 30
0.0
 11
119.6401862921962
 21
214.9042410343965
 31
0.0
  0
LINE
  5
C0
330
1F
100
AcDbEntity
  8
D-STR-HTXT
  6
Continuous
 62
     7
370
    13
100
AcDbLine
 10
118.62639938
 20
214.907965875
 30
0.0
 11
119.586595056057
 21
215.2332381324387
 31
0.0
  0
LINE
  5
C1
330
1F
100
AcDbEntity
  8
D-STR-HTXT
  6
Continuous
 62
     7
370
    13
100
AcDbLine
 10
119.6401862921962
 20
214.9042410343965
 30
0.0
 11
119.586595056057
 21
215.2332381324387
 31
0.0
  0
LINE
  5
C2
330
1F
100
AcDbEntity
  8
D-STR-HTXT
  6
Continuous
 62
     7
370
    13
100
AcDbLine
 10
119.4374289097569
 20
214.9049860025172
 30
0.0
 11
119.6348271685822
 21
214.9371407442007
 31
0.0
  0
LINE
  5
C3
330
1F
100
AcDbEntity
  8
D-STR-HTXT
  6
Continuous
 62
     7
370
    13
100
AcDbLine
 10
119.6294680449683
 20
214.970040454005
 30
0.0
 11
119.2346715273177
 21
214.9057309706379
 31
0.0
  0
LINE
  5
C4
330
1F
100
AcDbEntity
  8
D-STR-HTXT
  6
Continuous
 62
     7
370
    13
100
AcDbLine
 10
119.0319141448785
 20
214.9064759387586
 30
0.0
 11
119.6241089213544
 21
215.0029401638092
 31
0.0
  0
LINE
  5
C5
330
1F
100
AcDbEntity
  8
D-STR-HTXT
  6
Continuous
 62
     7
370
    13
100
AcDbLine
 10
119.6187497977405
 20
215.0358398736134
 30
0.0
 11
118.8291567624392
 21
214.9072209068793
 31
0.0
  0
LINE
  5
C6
330
1F
100
AcDbEntity
  8
D-STR-HTXT
  6
Continuous
 62
     7
370
    13
100
AcDbLine
 10
118.62639938
 20
214.907965875
 30
0.0
 11
119.6133906741265
 21
215.0687395834176
 31
0.0
  0
LINE
  5
C7
330
1F
100
AcDbEntity
  8
D-STR-HTXT
  6
Continuous
 62
     7
370
    13
100
AcDbLine
 10
119.6080315505126
 20
215.1016392932218
 30
0.0
 11
118.8184385152114
 21
214.9730203264877
 31
0.0
  0
LINE
  5
C8
330
1F
100
AcDbEntity
  8
D-STR-HTXT
  6
Continuous
 62
     7
370
    13
100
AcDbLine
 10
119.0104776504228
 20
215.0380747779755
 30
0.0
 11
119.6026724268987
 21
215.134539003026
 31
0.0
  0
LINE
  5
C9
330
1F
100
AcDbEntity
  8
D-STR-HTXT
  6
Continuous
 62
     7
370
    13
100
AcDbLine
 10
119.5973133032848
 20
215.1674387128303
 30
0.0
 11
119.2025167856342
 21
215.1031292294632
 31
0.0
  0
LINE
  5
CA
330
1F
100
AcDbEntity
  8
D-STR-HTXT
  6
Continuous
 62
     7
370
    13
100
AcDbLine
 10
119.3945559208456
 20
215.168183680951
 30
0.0
 11
119.5919541796709
 21
215.2003384226345
 31
0.0
  0
LINE
  5
CB
330
1F
100
AcDbEntity
  8
D-STR-HTXT
  6
Continuous
 62
     7
370
    13
100
AcDbLine
 10
129.35001435
 20
216.654764815
 30
0.0
 11
135.35001435
 21
216.654764815
 31
0.0
  0
LINE
  5
CC
330
1F
100
AcDbEntity
  8
D-BMK
  6
dashed dotted
 62
     5
370
    13
100
AcDbLine
 10
62.21826515000001
 20
98.15776995
 30
0.0
 11
62.21826515000001
 21
174.15776995
 31
0.0
  0
LINE
  5
CD
330
1F
100
AcDbEntity
  8
D-BMK
  6
dashed dotted
 62
     5
370
    13
100
AcDbLine
 10
59.21826515000001
 20
171.15776995
 30
0.0
 11
65.21826515000001
 21
171.15776995
 31
0.0
  0
CIRCLE
  5
CE
330
1F
100
AcDbEntity
  8
D-STR
  6
Continuous
 62
     7
370
    50
100
AcDbCircle
 10
62.21826515000001
 20
171.15776995
 30
0.0
 40
2.7
  0
CIRCLE
  5
CF
330
1F
100
AcDbEntity
  8
D-STR
  6
Continuous
 62
     7
370
    50
100
AcDbCircle
 10
62.21826515000001
 20
171.15776995
 30
0.0
 40
3.0
  0
LINE
  5
D0
330
1F
100
AcDbEntity
  8
D-STR
  6
Continuous
 62
     7
370
    50
100
AcDbLine
 10
61.21826515000001
 20
168.15776995
 30
0.0
 11
63.21826515000001
 21
168.15776995
 31
0.0
  0
LINE
  5
D1
330
1F
100
AcDbEntity
  8
D-STR
  6
Continuous
 62
     7
370
    50
100
AcDbLine
 10
61.21826515000001
 20
167.65776995
 30
0.0
 11
61.21826515000001
 21
168.15776995
 31
0.0
  0
LINE
  5
D2
330
1F
100
AcDbEntity
  8
D-STR
  6
Continuous
 62
     7
370
    50
100
AcDbLine
 10
63.21826515000001
 20
167.65776995
 30
0.0
 11
63.21826515000001
 21
168.15776995
 31
0.0
  0
TEXT
  5
D3
330
1F
100
AcDbEntity
  8
D-TTL-TXT
  6
Continuous
 62
     7
370
    13
100
AcDbText
 10
58.192941
 20
179.096827125
 30
0.0
 40
2.777777777777778
  1
土中用
 41
0.8000000000000002
  7
ＭＳ ゴシック
 11
58.192941
 21
178.58940525
 31
0.0
100
AcDbText
 73
     1
  0
LINE
  5
D4
330
1F
100
AcDbEntity
  8
D-STR
  6
Continuous
 62
     7
370
    50
100
AcDbLine
 10
60.71826515000001
 20
167.65776995
 30
0.0
 11
63.71826515000001
 21
167.65776995
 31
0.0
  0
LINE
  5
D5
330
1F
100
AcDbEntity
  8
D-STR
  6
Continuous
 62
     7
370
    50
100
AcDbLine
 10
60.71826515000001
 20
98.15776995
 30
0.0
 11
60.71826515000001
 21
167.65776995
 31
0.0
  0
LINE
  5
D6
330
1F
100
AcDbEntity
  8
D-STR
  6
Continuous
 62
     7
370
    50
100
AcDbLine
 10
63.71826515000001
 20
98.15776995
 30
0.0
 11
60.71826515000001
 21
98.15776995
 31
0.0
  0
LINE
  5
D7
330
1F
100
AcDbEntity
  8
D-STR
  6
Continuous
 62
     7
370
    50
100
AcDbLine
 10
63.71826515000001
 20
98.15776995
 30
0.0
 11
63.71826515000001
 21
167.65776995
 31
0.0
  0
LINE
  5
D8
330
1F
100
AcDbEntity
  8
D-STR-STR2
  6
Continuous
 62
   134
370
    13
100
AcDbLine
 10
49.7130762
 20
127.25776995
 30
0.0
 11
50.6130762
 21
128.15776995
 31
0.0
  0
LINE
  5
D9
330
1F
100
AcDbEntity
  8
D-STR-STR2
  6
Continuous
 62
   134
370
    13
100
AcDbLine
 10
50.16307620000001
 20
127.25776995
 30
0.0
 11
51.0630762
 21
128.15776995
 31
0.0
  0
LINE
  5
DA
330
1F
100
AcDbEntity
  8
D-STR-STR2
  6
Continuous
 62
   134
370
    13
100
AcDbLine
 10
50.6130762
 20
127.25776995
 30
0.0
 11
51.5130762
 21
128.15776995
 31
0.0
  0
LINE
  5
DB
330
1F
100
AcDbEntity
  8
D-STR-STR2
  6
Continuous
 62
   134
370
    13
100
AcDbLine
 10
51.28807620000001
 20
127.93276995
 30
0.0
 11
51.73807620000001
 21
127.48276995
 31
0.0
  0
LINE
  5
DC
330
1F
100
AcDbEntity
  8
D-STR-STR2
  6
Continuous
 62
   134
370
    13
100
AcDbLine
 10
51.0630762
 20
127.70776995
 30
0.0
 11
51.51307620000001
 21
127.25776995
 31
0.0
  0
LINE
  5
DD
330
1F
100
AcDbEntity
  8
D-STR-STR2
  6
Continuous
 62
   134
370
    13
100
AcDbLine
 10
51.5130762
 20
127.25776995
 30
0.0
 11
52.4130762
 21
128.15776995
 31
0.0
  0
LINE
  5
DE
330
1F
100
AcDbEntity
  8
D-STR-STR2
  6
Continuous
 62
   134
370
    13
100
AcDbLine
 10
51.9630762
 20
127.25776995
 30
0.0
 11
52.8630762
 21
128.15776995
 31
0.0
  0
LINE
  5
DF
330
1F
100
AcDbEntity
  8
D-STR-STR2
  6
Continuous
 62
   134
370
    13
100
AcDbLine
 10
52.41307620000001
 20
127.25776995
 30
0.0
 11
53.3130762
 21
128.15776995
 31
0.0
  0
LINE
  5
E0
330
1F
100
AcDbEntity
  8
D-STR-STR2
  6
Continuous
 62
   134
370
    13
100
AcDbLine
 10
53.0880762
 20
127.93276995
 30
0.0
 11
53.53807620000001
 21
127.48276995
 31
0.0
  0
LINE
  5
E1
330
1F
100
AcDbEntity
  8
D-STR-STR2
  6
Continuous
 62
   134
370
    13
100
AcDbLine
 10
52.8630762
 20
127.70776995
 30
0.0
 11
53.3130762
 21
127.25776995
 31
0.0
  0
LINE
  5
E2
330
1F
100
AcDbEntity
  8
D-STR-STR2
  6
Continuous
 62
   134
370
    13
100
AcDbLine
 10
53.3130762
 20
127.25776995
 30
0.0
 11
54.2130762
 21
128.15776995
 31
0.0
  0
LINE
  5
E3
330
1F
100
AcDbEntity
  8
D-STR-STR2
  6
Continuous
 62
   134
370
    13
100
AcDbLine
 10
53.7630762
 20
127.25776995
 30
0.0
 11
54.6630762
 21
128.15776995
 31
0.0
  0
LINE
  5
E4
330
1F
100
AcDbEntity
  8
D-STR-STR2
  6
Continuous
 62
   134
370
    13
100
AcDbLine
 10
54.2130762
 20
127.25776995
 30
0.0
 11
55.1130762
 21
128.15776995
 31
0.0
  0
LINE
  5
E5
330
1F
100
AcDbEntity
  8
D-STR-STR2
  6
Continuous
 62
   134
370
    13
100
AcDbLine
 10
54.8880762
 20
127.93276995
 30
0.0
 11
55.3380762
 21
127.48276995
 31
0.0
  0
LINE
  5
E6
330
1F
100
AcDbEntity
  8
D-STR-STR2
  6
Continuous
 62
   134
370
    13
100
AcDbLine
 10
54.66307620000001
 20
127.70776995
 30
0.0
 11
55.11307620000001
 21
127.25776995
 31
0.0
  0
LINE
  5
E7
330
1F
100
AcDbEntity
  8
D-STR-STR2
  6
Continuous
 62
   134
370
    13
100
AcDbLine
 10
55.1130762
 20
127.25776995
 30
0.0
 11
56.0130762
 21
128.15776995
 31
0.0
  0
LINE
  5
E8
330
1F
100
AcDbEntity
  8
D-STR-STR2
  6
Continuous
 62
   134
370
    13
100
AcDbLine
 10
55.5630762
 20
127.25776995
 30
0.0
 11
56.4630762
 21
128.15776995
 31
0.0
  0
LINE
  5
E9
330
1F
100
AcDbEntity
  8
D-STR-STR2
  6
Continuous
 62
   134
370
    13
100
AcDbLine
 10
56.0130762
 20
127.25776995
 30
0.0
 11
56.9130762
 21
128.15776995
 31
0.0
  0
LINE
  5
EA
330
1F
100
AcDbEntity
  8
D-STR-STR2
  6
Continuous
 62
   134
370
    13
100
AcDbLine
 10
56.91307620000001
 20
128.15776995
 30
0.0
 11
57.8130762
 21
127.25776995
 31
0.0
  0
LINE
  5
EB
330
1F
100
AcDbEntity
  8
D-STR-STR2
  6
Continuous
 62
   134
370
    13
100
AcDbLine
 10
56.6880762
 20
127.93276995
 30
0.0
 11
57.3630762
 21
127.25776995
 31
0.0
  0
LINE
  5
EC
330
1F
100
AcDbEntity
  8
D-STR-STR2
  6
Continuous
 62
   134
370
    13
100
AcDbLine
 10
56.4630762
 20
127.70776995
 30
0.0
 11
56.91307620000001
 21
127.25776995
 31
0.0
  0
LINE
  5
ED
330
1F
100
AcDbEntity
  8
D-STR-STR2
  6
Continuous
 62
   134
370
    13
100
AcDbLine
 10
51.5130762
 20
128.15776995
 30
0.0
 11
51.9630762
 21
127.70776995
 31
0.0
  0
LINE
  5
EE
330
1F
100
AcDbEntity
  8
D-STR-STR2
  6
Continuous
 62
   134
370
    13
100
AcDbLine
 10
53.3130762
 20
128.15776995
 30
0.0
 11
53.76307620000001
 21
127.70776995
 31
0.0
  0
LINE
  5
EF
330
1F
100
AcDbEntity
  8
D-STR-STR2
  6
Continuous
 62
   134
370
    13
100
AcDbLine
 10
55.1130762
 20
128.15776995
 30
0.0
 11
55.5630762
 21
127.70776995
 31
0.0
  0
LINE
  5
F0
330
1F
100
AcDbEntity
  8
D-STR-STR2
  6
Continuous
 62
   134
370
    13
100
AcDbLine
 10
74.72345405
 20
127.25776995
 30
0.0
 11
73.82345405
 21
128.15776995
 31
0.0
  0
LINE
  5
F1
330
1F
100
AcDbEntity
  8
D-STR-STR2
  6
Continuous
 62
   134
370
    13
100
AcDbLine
 10
74.27345405
 20
127.25776995
 30
0.0
 11
73.37345404999999
 21
128.15776995
 31
0.0
  0
LINE
  5
F2
330
1F
100
AcDbEntity
  8
D-STR-STR2
  6
Continuous
 62
   134
370
    13
100
AcDbLine
 10
73.82345405
 20
127.25776995
 30
0.0
 11
72.92345404999999
 21
128.15776995
 31
0.0
  0
LINE
  5
F3
330
1F
100
AcDbEntity
  8
D-STR-STR2
  6
Continuous
 62
   134
370
    13
100
AcDbLine
 10
73.14845405
 20
127.93276995
 30
0.0
 11
72.69845405
 21
127.48276995
 31
0.0
  0
LINE
  5
F4
330
1F
100
AcDbEntity
  8
D-STR-STR2
  6
Continuous
 62
   134
370
    13
100
AcDbLine
 10
73.37345405
 20
127.70776995
 30
0.0
 11
72.92345405
 21
127.25776995
 31
0.0
  0
LINE
  5
F5
330
1F
100
AcDbEntity
  8
D-STR-STR2
  6
Continuous
 62
   134
370
    13
100
AcDbLine
 10
72.92345405
 20
127.25776995
 30
0.0
 11
72.02345405
 21
128.15776995
 31
0.0
  0
LINE
  5
F6
330
1F
100
AcDbEntity
  8
D-STR-STR2
  6
Continuous
 62
   134
370
    13
100
AcDbLine
 10
72.47345405
 20
127.25776995
 30
0.0
 11
71.57345405
 21
128.15776995
 31
0.0
  0
LINE
  5
F7
330
1F
100
AcDbEntity
  8
D-STR-STR2
  6
Continuous
 62
   134
370
    13
100
AcDbLine
 10
72.02345405
 20
127.25776995
 30
0.0
 11
71.12345404999999
 21
128.15776995
 31
0.0
  0
LINE
  5
F8
330
1F
100
AcDbEntity
  8
D-STR-STR2
  6
Continuous
 62
   134
370
    13
100
AcDbLine
 10
71.34845405
 20
127.93276995
 30
0.0
 11
70.89845405
 21
127.48276995
 31
0.0
  0
LINE
  5
F9
330
1F
100
AcDbEntity
  8
D-STR-STR2
  6
Continuous
 62
   134
370
    13
100
AcDbLine
 10
71.57345405
 20
127.70776995
 30
0.0
 11
71.12345404999999
 21
127.25776995
 31
0.0
  0
LINE
  5
FA
330
1F
100
AcDbEntity
  8
D-STR-STR2
  6
Continuous
 62
   134
370
    13
100
AcDbLine
 10
71.12345405
 20
127.25776995
 30
0.0
 11
70.22345405
 21
128.15776995
 31
0.0
  0
LINE
  5
FB
330
1F
100
AcDbEntity
  8
D-STR-STR2
  6
Continuous
 62
   134
370
    13
100
AcDbLine
 10
70.67345405
 20
127.25776995
 30
0.0
 11
69.77345405
 21
128.15776995
 31
0.0
  0
LINE
  5
FC
330
1F
100
AcDbEntity
  8
D-STR-STR2
  6
Continuous
 62
   134
370
    13
100
AcDbLine
 10
70.22345405
 20
127.25776995
 30
0.0
 11
69.32345405
 21
128.15776995
 31
0.0
  0
LINE
  5
FD
330
1F
100
AcDbEntity
  8
D-STR-STR2
  6
Continuous
 62
   134
370
    13
100
AcDbLine
 10
69.54845405
 20
127.93276995
 30
0.0
 11
69.09845405
 21
127.48276995
 31
0.0
  0
LINE
  5
FE
330
1F
100
AcDbEntity
  8
D-STR-STR2
  6
Continuous
 62
   134
370
    13
100
AcDbLine
 10
69.77345405
 20
127.70776995
 30
0.0
 11
69.32345405
 21
127.25776995
 31
0.0
  0
LINE
  5
FF
330
1F
100
AcDbEntity
  8
D-STR-STR2
  6
Continuous
 62
   134
370
    13
100
AcDbLine
 10
69.32345405
 20
127.25776995
 30
0.0
 11
68.42345404999999
 21
128.15776995
 31
0.0
  0
LINE
  5
100
330
1F
100
AcDbEntity
  8
D-STR-STR2
  6
Continuous
 62
   134
370
    13
100
AcDbLine
 10
68.87345405
 20
127.25776995
 30
0.0
 11
67.97345405
 21
128.15776995
 31
0.0
  0
LINE
  5
101
330
1F
100
AcDbEntity
  8
D-STR-STR2
  6
Continuous
 62
   134
370
    13
100
AcDbLine
 10
68.42345405
 20
127.25776995
 30
0.0
 11
67.52345405
 21
128.15776995
 31
0.0
  0
LINE
  5
102
330
1F
100
AcDbEntity
  8
D-STR-STR2
  6
Continuous
 62
   134
370
    13
100
AcDbLine
 10
67.52345405
 20
128.15776995
 30
0.0
 11
66.62345404999999
 21
127.25776995
 31
0.0
  0
LINE
  5
103
330
1F
100
AcDbEntity
  8
D-STR-STR2
  6
Continuous
 62
   134
370
    13
100
AcDbLine
 10
67.74845405
 20
127.93276995
 30
0.0
 11
67.07345405000001
 21
127.25776995
 31
0.0
  0
LINE
  5
104
330
1F
100
AcDbEntity
  8
D-STR-STR2
  6
Continuous
 62
   134
370
    13
100
AcDbLine
 10
67.97345405
 20
127.70776995
 30
0.0
 11
67.52345405
 21
127.25776995
 31
0.0
  0
LINE
  5
105
330
1F
100
AcDbEntity
  8
D-STR-STR2
  6
Continuous
 62
   134
370
    13
100
AcDbLine
 10
72.92345405
 20
128.15776995
 30
0.0
 11
72.47345405
 21
127.70776995
 31
0.0
  0
LINE
  5
106
330
1F
100
AcDbEntity
  8
D-STR-STR2
  6
Continuous
 62
   134
370
    13
100
AcDbLine
 10
71.12345405
 20
128.15776995
 30
0.0
 11
70.67345405
 21
127.70776995
 31
0.0
  0
LINE
  5
107
330
1F
100
AcDbEntity
  8
D-STR-STR2
  6
Continuous
 62
   134
370
    13
100
AcDbLine
 10
69.32345405
 20
128.15776995
 30
0.0
 11
68.87345404999999
 21
127.70776995
 31
0.0
  0
DIMENSION
  5
108
330
1F
100
AcDbEntity
  8
D-STR-DIM
  6
Continuous
 62
     5
370
    13
100
AcDbDimension
  2
*D1
 10
41.20177965
 20
128.15776995
 30
0.0
 11
38.95177965
 21
113.15776995
 31
0.0
 70
   160
  1
600
 71
     5
 42
30.00000000000002
 53
90.0
  3
Standard
100
AcDbAlignedDimension
 13
60.71826515000001
 23
98.15776995
 33
0.0
 14
48.23475060000001
 24
128.15776995
 34
0.0
 50
90.0
100
AcDbRotatedDimension
1001
ACAD
1000
DSTYLE
1002
{
1070
   271
1070
     2
1070
   178
1070
     5
1070
   177
1070
     5
1070
   176
1070
     5
1070
   289
1070
     3
1070
    77
1070
     1
1070
   174
1070
     1
1070
   172
1070
     1
1070
    73
1070
     1
1070
    74
1070
     0
1070
   173
1070
     1
1070
   279
1070
     2
1070
    44
1040
0.9999999999999929
1070
    42
1040
1.0
1070
   147
1040
0.0
1070
   140
1040
2.777777777777778
1070
    41
1040
1.0
1070
   340
1005
4C
1002
}
  0
DIMENSION
  5
116
330
1F
100
AcDbEntity
  8
D-STR-DIM
  6
Continuous
 62
     5
370
    13
100
AcDbDimension
  2
*D2
 10
41.20177965
 20
168.15776995
 30
0.0
 11
38.95177965
 21
148.15776995
 31
0.0
 70
   160
  1
900
 71
     5
 42
40.0
 53
90.0
  3
Standard
100
AcDbAlignedDimension
 13
48.23475060000001
 23
128.15776995
 33
0.0
 14
61.21826515000001
 24
168.15776995
 34
0.0
 50
90.0
100
AcDbRotatedDimension
1001
ACAD
1000
DSTYLE
1002
{
1070
   271
1070
     2
1070
   178
1070
     5
1070
   177
1070
     5
1070
   176
1070
     5
1070
   289
1070
     3
1070
    77
1070
     1
1070
   174
1070
     1
1070
   172
1070
     1
1070
    73
1070
     1
1070
    74
1070
     0
1070
   173
1070
     1
1070
   279
1070
     2
1070
    44
1040
0.9999999999999929
1070
    42
1040
1.0
1070
   147
1040
0.0
1070
   140
1040
2.777777777777778
1070
    41
1040
1.0
1070
   340
1005
4C
1002
}
  0
LINE
  5
123
330
1F
100
AcDbEntity
  8
D-STR-HTXT
  6
Continuous
 62
     7
370
    13
100
AcDbLine
 10
64.52031838609594
 20
147.3445346016856
 30
0.0
 11
73.76438995
 21
140.46089515
 31
0.0
  0
LINE
  5
124
330
1F
100
AcDbEntity
  8
D-STR-HTXT
  6
Continuous
 62
     7
370
    13
100
AcDbLine
 10
63.71826515000001
 20
147.94178715
 30
0.0
 11
64.42077629471021
 21
147.2108590623363
 31
0.0
  0
LINE
  5
125
330
1F
100
AcDbEntity
  8
D-STR-HTXT
  6
Continuous
 62
     7
370
    13
100
AcDbLine
 10
63.71826515000001
 20
147.94178715
 30
0.0
 11
64.61986047748165
 21
147.478210141035
 31
0.0
  0
LINE
  5
126
330
1F
100
AcDbEntity
  8
D-STR-HTXT
  6
Continuous
 62
     7
370
    13
100
AcDbLine
 10
64.42077629471021
 20
147.2108590623363
 30
0.0
 11
64.61986047748165
 21
147.478210141035
 31
0.0
  0
LINE
  5
127
330
1F
100
AcDbEntity
  8
D-STR-HTXT
  6
Continuous
 62
     7
370
    13
100
AcDbLine
 10
64.28027406576817
 20
147.3570446798691
 30
0.0
 11
64.44068471298735
 21
147.2375941702062
 31
0.0
  0
LINE
  5
128
330
1F
100
AcDbEntity
  8
D-STR-HTXT
  6
Continuous
 62
     7
370
    13
100
AcDbLine
 10
64.4605931312645
 20
147.2643292780761
 30
0.0
 11
64.13977183682613
 21
147.5032302974018
 31
0.0
  0
LINE
  5
129
330
1F
100
AcDbEntity
  8
D-STR-HTXT
  6
Continuous
 62
     7
370
    13
100
AcDbLine
 10
63.99926960788409
 20
147.6494159149346
 30
0.0
 11
64.48050154954164
 21
147.2910643859459
 31
0.0
  0
LINE
  5
12A
330
1F
100
AcDbEntity
  8
D-STR-HTXT
  6
Continuous
 62
     7
370
    13
100
AcDbLine
 10
64.5004099678188
 20
147.3177994938158
 30
0.0
 11
63.85876737894205
 21
147.7956015324673
 31
0.0
  0
LINE
  5
12B
330
1F
100
AcDbEntity
  8
D-STR-HTXT
  6
Continuous
 62
     7
370
    13
100
AcDbLine
 10
63.71826515000001
 20
147.94178715
 30
0.0
 11
64.52031838609594
 21
147.3445346016857
 31
0.0
  0
LINE
  5
12C
330
1F
100
AcDbEntity
  8
D-STR-HTXT
  6
Continuous
 62
     7
370
    13
100
AcDbLine
 10
64.54022680437308
 20
147.3712697095555
 30
0.0
 11
63.89858421549634
 21
147.849071748207
 31
0.0
  0
LINE
  5
12D
330
1F
100
AcDbEntity
  8
D-STR-HTXT
  6
Continuous
 62
     7
370
    13
100
AcDbLine
 10
64.07890328099268
 20
147.756356346414
 30
0.0
 11
64.56013522265023
 21
147.3980048174254
 31
0.0
  0
LINE
  5
12E
330
1F
100
AcDbEntity
  8
D-STR-HTXT
  6
Continuous
 62
     7
370
    13
100
AcDbLine
 10
64.58004364092737
 20
147.4247399252953
 30
0.0
 11
64.259222346489
 21
147.663640944621
 31
0.0
  0
LINE
  5
12F
330
1F
100
AcDbEntity
  8
D-STR-HTXT
  6
Continuous
 62
     7
370
    13
100
AcDbLine
 10
64.43954141198535
 20
147.570925542828
 30
0.0
 11
64.59995205920453
 21
147.4514750331651
 31
0.0
  0
LINE
  5
130
330
1F
100
AcDbEntity
  8
D-STR-HTXT
  6
Continuous
 62
     7
370
    13
100
AcDbLine
 10
73.76438995
 20
140.46089515
 30
0.0
 11
93.76438995000001
 21
140.46089515
 31
0.0
  0
TEXT
  5
131
330
1F
100
AcDbEntity
  8
D-STR-HTXT
  6
Continuous
 62
     7
370
    13
100
AcDbText
 10
77.98661217222221
 20
141.468317025
 30
0.0
 40
2.777777777777778
  1
支柱φ60
 41
0.8000000000000002
  7
ＭＳ ゴシック
 72
     1
 11
83.76438995
 21
140.96089515
 31
0.0
100
AcDbText
 73
     1
  0
LINE
  5
132
330
1F
100
AcDbEntity
  8
D-BMK
  6
dashed dotted
 62
     5
370
    13
100
AcDbLine
 10
143.45083995
 20
113.15776995
 30
0.0
 11
143.45083995
 21
174.15776995
 31
0.0
  0
LINE
  5
133
330
1F
100
AcDbEntity
  8
D-BMK
  6
dashed dotted
 62
     5
370
    13
100
AcDbLine
 10
140.45083995
 20
171.15776995
 30
0.0
 11
146.45083995
 21
171.15776995
 31
0.0
  0
CIRCLE
  5
134
330
1F
100
AcDbEntity
  8
D-STR
  6
Continuous
 62
     7
370
    50
100
AcDbCircle
 10
143.45083995
 20
171.15776995
 30
0.0
 40
2.7
  0
CIRCLE
  5
135
330
1F
100
AcDbEntity
  8
D-STR
  6
Continuous
 62
     7
370
    50
100
AcDbCircle
 10
143.45083995
 20
171.15776995
 30
0.0
 40
3.0
  0
LINE
  5
136
330
1F
100
AcDbEntity
  8
D-STR
  6
Continuous
 62
     7
370
    50
100
AcDbLine
 10
142.45083995
 20
168.15776995
 30
0.0
 11
144.45083995
 21
168.15776995
 31
0.0
  0
LINE
  5
137
330
1F
100
AcDbEntity
  8
D-STR
  6
Continuous
 62
     7
370
    50
100
AcDbLine
 10
142.45083995
 20
167.65776995
 30
0.0
 11
142.45083995
 21
168.15776995
 31
0.0
  0
LINE
  5
138
330
1F
100
AcDbEntity
  8
D-STR
  6
Continuous
 62
     7
370
    50
100
AcDbLine
 10
144.45083995
 20
167.65776995
 30
0.0
 11
144.45083995
 21
168.15776995
 31
0.0
  0
LINE
  5
139
330
1F
100
AcDbEntity
  8
D-STR
  6
Continuous
 62
     7
370
    50
100
AcDbLine
 10
141.95083995
 20
167.65776995
 30
0.0
 11
144.95083995
 21
167.65776995
 31
0.0
  0
LINE
  5
13A
330
1F
100
AcDbEntity
  8
D-STR
  6
Continuous
 62
     7
370
    50
100
AcDbLine
 10
141.95083995
 20
113.15776995
 30
0.0
 11
141.95083995
 21
167.65776995
 31
0.0
  0
LINE
  5
13B
330
1F
100
AcDbEntity
  8
D-STR
  6
Continuous
 62
     7
370
    50
100
AcDbLine
 10
144.95083995
 20
113.15776995
 30
0.0
 11
144.95083995
 21
167.65776995
 31
0.0
  0
DIMENSION
  5
13C
330
1F
100
AcDbEntity
  8
D-STR-DIM
  6
Continuous
 62
     5
370
    13
100
AcDbDimension
  2
*D3
 10
122.4343545
 20
168.15776995
 30
0.0
 11
120.1843545
 21
148.15776995
 31
0.0
 70
   160
  1
900
 71
     5
 42
40.0
 53
90.0
  3
Standard
100
AcDbAlignedDimension
 13
129.46732545
 23
128.15776995
 33
0.0
 14
142.45083995
 24
168.15776995
 34
0.0
 50
90.0
100
AcDbRotatedDimension
1001
ACAD
1000
DSTYLE
1002
{
1070
   271
1070
     2
1070
   178
1070
     5
1070
   177
1070
     5
1070
   176
1070
     5
1070
   289
1070
     3
1070
    77
1070
     1
1070
   174
1070
     1
1070
   172
1070
     1
1070
    73
1070
     1
1070
    74
1070
     0
1070
   173
1070
     1
1070
   279
1070
     2
1070
    44
1040
1.0
1070
    42
1040
1.0
1070
   147
1040
0.0
1070
   140
1040
2.777777777777778
1070
    41
1040
1.0
1070
   340
1005
4C
1002
}
  0
LINE
  5
149
330
1F
100
AcDbEntity
  8
D-STR-HTXT
  6
Continuous
 62
     7
370
    13
100
AcDbLine
 10
146.4243537419562
 20
168.4839053379401
 30
0.0
 11
153.69576995
 21
161.3948455
 31
0.0
  0
LINE
  5
14A
330
1F
100
AcDbEntity
  8
D-STR-HTXT
  6
Continuous
 62
     7
370
    13
100
AcDbLine
 10
145.7083255
 20
169.18197665
 30
0.0
 11
146.3080085232796
 21
168.3645672976141
 31
0.0
  0
LINE
  5
14B
330
1F
100
AcDbEntity
  8
D-STR-HTXT
  6
Continuous
 62
     7
370
    13
100
AcDbLine
 10
145.7083255
 20
169.18197665
 30
0.0
 11
146.5406989606329
 21
168.6032433782662
 31
0.0
  0
LINE
  5
14C
330
1F
100
AcDbEntity
  8
D-STR-HTXT
  6
Continuous
 62
     7
370
    13
100
AcDbLine
 10
146.3080085232796
 20
168.3645672976141
 30
0.0
 11
146.5406989606329
 21
168.6032433782662
 31
0.0
  0
LINE
  5
14D
330
1F
100
AcDbEntity
  8
D-STR-HTXT
  6
Continuous
 62
     7
370
    13
100
AcDbLine
 10
146.1880719186236
 20
168.5280491680913
 30
0.0
 11
146.3312775670149
 21
168.3884349056793
 31
0.0
  0
LINE
  5
14E
330
1F
100
AcDbEntity
  8
D-STR-HTXT
  6
Continuous
 62
     7
370
    13
100
AcDbLine
 10
146.3545466107502
 20
168.4123025137445
 30
0.0
 11
146.0681353139677
 21
168.6915310385685
 31
0.0
  0
LINE
  5
14F
330
1F
100
AcDbEntity
  8
D-STR-HTXT
  6
Continuous
 62
     7
370
    13
100
AcDbLine
 10
145.9481987093118
 20
168.8550129090457
 30
0.0
 11
146.3778156544855
 21
168.4361701218097
 31
0.0
  0
LINE
  5
150
330
1F
100
AcDbEntity
  8
D-STR-HTXT
  6
Continuous
 62
     7
370
    13
100
AcDbLine
 10
146.4010846982209
 20
168.4600377298749
 30
0.0
 11
145.8282621046559
 21
169.0184947795229
 31
0.0
  0
LINE
  5
151
330
1F
100
AcDbEntity
  8
D-STR-HTXT
  6
Continuous
 62
     7
370
    13
100
AcDbLine
 10
145.7083255
 20
169.18197665
 30
0.0
 11
146.4243537419562
 21
168.4839053379401
 31
0.0
  0
LINE
  5
152
330
1F
100
AcDbEntity
  8
D-STR-HTXT
  6
Continuous
 62
     7
370
    13
100
AcDbLine
 10
146.4476227856916
 20
168.5077729460053
 30
0.0
 11
145.8748001921266
 21
169.0662299956533
 31
0.0
  0
LINE
  5
153
330
1F
100
AcDbEntity
  8
D-STR-HTXT
  6
Continuous
 62
     7
370
    13
100
AcDbLine
 10
146.0412748842531
 20
168.9504833413065
 30
0.0
 11
146.4708918294269
 21
168.5316405540705
 31
0.0
  0
LINE
  5
154
330
1F
100
AcDbEntity
  8
D-STR-HTXT
  6
Continuous
 62
     7
370
    13
100
AcDbLine
 10
146.4941608731622
 20
168.5555081621357
 30
0.0
 11
146.2077495763797
 21
168.8347366869597
 31
0.0
  0
LINE
  5
155
330
1F
100
AcDbEntity
  8
D-STR-HTXT
  6
Continuous
 62
     7
370
    13
100
AcDbLine
 10
146.3742242685063
 20
168.7189900326129
 30
0.0
 11
146.5174299168975
 21
168.579375770201
 31
0.0
  0
LINE
  5
156
330
1F
100
AcDbEntity
  8
D-STR-HTXT
  6
Continuous
 62
     7
370
    13
100
AcDbLine
 10
153.69576995
 20
161.3948455
 30
0.0
 11
188.0366888
 21
161.3948455
 31
0.0
  0
TEXT
  5
157
330
1F
100
AcDbEntity
  8
D-STR-HTXT
  6
Continuous
 62
     7
370
    13
100
AcDbText
 10
155.8935367555555
 20
162.402267375
 30
0.0
 40
2.777777777777778
  1
反射器(φ100～φ300)
 41
0.8000000000000002
  7
ＭＳ ゴシック
 72
     1
 11
170.3379812
 21
161.8948455
 31
0.0
100
AcDbText
 73
     1
  0
LINE
  5
158
330
1F
100
AcDbEntity
  8
D-STR-HTXT
  6
Continuous
 62
     7
370
    13
100
AcDbLine
 10
145.7528931875199
 20
147.3445346035979
 30
0.0
 11
154.9969648
 21
140.46089515
 31
0.0
  0
LINE
  5
159
330
1F
100
AcDbEntity
  8
D-STR-HTXT
  6
Continuous
 62
     7
370
    13
100
AcDbLine
 10
144.95083995
 20
147.94178715
 30
0.0
 11
145.6533510964529
 21
147.2108590640112
 31
0.0
  0
LINE
  5
15A
330
1F
100
AcDbEntity
  8
D-STR-HTXT
  6
Continuous
 62
     7
370
    13
100
AcDbLine
 10
144.95083995
 20
147.94178715
 30
0.0
 11
145.8524352785869
 21
147.4782101431845
 31
0.0
  0
LINE
  5
15B
330
1F
100
AcDbEntity
  8
D-STR-HTXT
  6
Continuous
 62
     7
370
    13
100
AcDbLine
 10
145.6533510964529
 20
147.2108590640112
 30
0.0
 11
145.8524352785869
 21
147.4782101431845
 31
0.0
  0
LINE
  5
15C
330
1F
100
AcDbEntity
  8
D-STR-HTXT
  6
Continuous
 62
     7
370
    13
100
AcDbLine
 10
145.5128488671623
 20
147.357044681209
 30
0.0
 11
145.6732595146663
 21
147.2375941719285
 31
0.0
  0
LINE
  5
15D
330
1F
100
AcDbEntity
  8
D-STR-HTXT
  6
Continuous
 62
     7
370
    13
100
AcDbLine
 10
145.6931679328797
 20
147.2643292798459
 30
0.0
 11
145.3723466378717
 21
147.5032302984068
 31
0.0
  0
LINE
  5
15E
330
1F
100
AcDbEntity
  8
D-STR-HTXT
  6
Continuous
 62
     7
370
    13
100
AcDbLine
 10
145.2318444085812
 20
147.6494159156045
 30
0.0
 11
145.7130763510931
 21
147.2910643877632
 31
0.0
  0
LINE
  5
15F
330
1F
100
AcDbEntity
  8
D-STR-HTXT
  6
Continuous
 62
     7
370
    13
100
AcDbLine
 10
145.7329847693065
 20
147.3177994956805
 30
0.0
 11
145.0913421792906
 21
147.7956015328023
 31
0.0
  0
LINE
  5
160
330
1F
100
AcDbEntity
  8
D-STR-HTXT
  6
Continuous
 62
     7
370
    13
100
AcDbLine
 10
144.95083995
 20
147.94178715
 30
0.0
 11
145.7528931875199
 21
147.3445346035979
 31
0.0
  0
LINE
  5
161
330
1F
100
AcDbEntity
  8
D-STR-HTXT
  6
Continuous
 62
     7
370
    13
100
AcDbLine
 10
145.7728016057333
 20
147.3712697115152
 30
0.0
 11
145.1311590157174
 21
147.8490717486369
 31
0.0
  0
LINE
  5
162
330
1F
100
AcDbEntity
  8
D-STR-HTXT
  6
Continuous
 62
     7
370
    13
100
AcDbLine
 10
145.3114780814348
 20
147.7563563472739
 30
0.0
 11
145.7927100239467
 21
147.3980048194325
 31
0.0
  0
LINE
  5
163
330
1F
100
AcDbEntity
  8
D-STR-HTXT
  6
Continuous
 62
     7
370
    13
100
AcDbLine
 10
145.8126184421601
 20
147.4247399273499
 30
0.0
 11
145.4917971471522
 21
147.6636409459107
 31
0.0
  0
LINE
  5
164
330
1F
100
AcDbEntity
  8
D-STR-HTXT
  6
Continuous
 62
     7
370
    13
100
AcDbLine
 10
145.6721162128696
 20
147.5709255445476
 30
0.0
 11
145.8325268603735
 21
147.4514750352672
 31
0.0
  0
LINE
  5
165
330
1F
100
AcDbEntity
  8
D-STR-HTXT
  6
Continuous
 62
     7
370
    13
100
AcDbLine
 10
154.9969648
 20
140.46089515
 30
0.0
 11
174.9969648
 21
140.46089515
 31
0.0
  0
TEXT
  5
166
330
1F
100
AcDbEntity
  8
D-STR-HTXT
  6
Continuous
 62
     7
370
    13
100
AcDbText
 10
159.2191870222222
 20
141.468317025
 30
0.0
 40
2.777777777777778
  1
支柱φ60
 41
0.8000000000000002
  7
ＭＳ ゴシック
 72
     1
 11
164.9969648
 21
140.96089515
 31
0.0
100
AcDbText
 73
     1
  0
TEXT
  5
167
330
1F
100
AcDbEntity
  8
D-TTL-TXT
  6
Continuous
 62
     7
370
    13
100
AcDbText
 10
131.327328
 20
179.249623125
 30
0.0
 40
2.777777777777778
  1
コンクリート用
 41
0.8000000000000002
  7
ＭＳ ゴシック
 11
131.327328
 21
178.74220125
 31
0.0
100
AcDbText
 73
     1
  0
LINE
  5
168
330
1F
100
AcDbEntity
  8
D-STR
  6
Continuous
 62
     7
370
    50
100
AcDbLine
 10
76.82188575
 20
128.15776995
 30
0.0
 11
48.23475060000001
 21
128.15776995
 31
0.0
  0
LINE
  5
169
330
1F
100
AcDbEntity
  8
D-STR
  6
Continuous
 62
     7
370
    50
100
AcDbLine
 10
150.95083995
 20
128.15776995
 30
0.0
 11
135.95083995
 21
128.15776995
 31
0.0
  0
LINE
  5
16A
330
1F
100
AcDbEntity
  8
D-STR
  6
Continuous
 62
     7
370
    50
100
AcDbLine
 10
135.95083995
 20
113.15776995
 30
0.0
 11
135.95083995
 21
128.15776995
 31
0.0
  0
LINE
  5
16B
330
1F
100
AcDbEntity
  8
D-STR
  6
Continuous
 62
     7
370
    50
100
AcDbLine
 10
150.95083995
 20
113.15776995
 30
0.0
 11
150.95083995
 21
128.15776995
 31
0.0
  0
LINE
  5
16C
330
1F
100
AcDbEntity
  8
D-STR
  6
Continuous
 62
     7
370
    50
100
AcDbLine
 10
153.45083995
 20
113.15776995
 30
0.0
 11
133.45083995
 21
113.15776995
 31
0.0
  0
LINE
  5
16D
330
1F
100
AcDbEntity
  8
D-BGD
  6
Continuous
 62
     7
370
    13
100
AcDbLine
 10
166.197545
 20
128.15776995
 30
0.0
 11
150.95083995
 21
128.15776995
 31
0.0
  0
LINE
  5
16E
330
1F
100
AcDbEntity
  8
D-BGD
  6
Continuous
 62
     7
370
    13
100
AcDbLine
 10
135.95083995
 20
128.15776995
 30
0.0
 11
129.92143175
 21
128.15776995
 31
0.0
  0
LINE
  5
16F
330
1F
100
AcDbEntity
  8
D-STR-STR2
  6
Continuous
 62
   134
370
    13
100
AcDbLine
 10
152.4291656
 20
127.25776995
 30
0.0
 11
153.3291656
 21
128.15776995
 31
0.0
  0
LINE
  5
170
330
1F
100
AcDbEntity
  8
D-STR-STR2
  6
Continuous
 62
   134
370
    13
100
AcDbLine
 10
152.8791656
 20
127.25776995
 30
0.0
 11
153.7791656
 21
128.15776995
 31
0.0
  0
LINE
  5
171
330
1F
100
AcDbEntity
  8
D-STR-STR2
  6
Continuous
 62
   134
370
    13
100
AcDbLine
 10
153.3291656
 20
127.25776995
 30
0.0
 11
154.2291656
 21
128.15776995
 31
0.0
  0
LINE
  5
172
330
1F
100
AcDbEntity
  8
D-STR-STR2
  6
Continuous
 62
   134
370
    13
100
AcDbLine
 10
154.0041656
 20
127.93276995
 30
0.0
 11
154.4541656
 21
127.48276995
 31
0.0
  0
LINE
  5
173
330
1F
100
AcDbEntity
  8
D-STR-STR2
  6
Continuous
 62
   134
370
    13
100
AcDbLine
 10
153.7791656
 20
127.70776995
 30
0.0
 11
154.2291656
 21
127.25776995
 31
0.0
  0
LINE
  5
174
330
1F
100
AcDbEntity
  8
D-STR-STR2
  6
Continuous
 62
   134
370
    13
100
AcDbLine
 10
154.2291656
 20
127.25776995
 30
0.0
 11
155.1291656
 21
128.15776995
 31
0.0
  0
LINE
  5
175
330
1F
100
AcDbEntity
  8
D-STR-STR2
  6
Continuous
 62
   134
370
    13
100
AcDbLine
 10
154.6791656
 20
127.25776995
 30
0.0
 11
155.5791656
 21
128.15776995
 31
0.0
  0
LINE
  5
176
330
1F
100
AcDbEntity
  8
D-STR-STR2
  6
Continuous
 62
   134
370
    13
100
AcDbLine
 10
155.1291656
 20
127.25776995
 30
0.0
 11
156.0291656
 21
128.15776995
 31
0.0
  0
LINE
  5
177
330
1F
100
AcDbEntity
  8
D-STR-STR2
  6
Continuous
 62
   134
370
    13
100
AcDbLine
 10
155.8041656
 20
127.93276995
 30
0.0
 11
156.2541656
 21
127.48276995
 31
0.0
  0
LINE
  5
178
330
1F
100
AcDbEntity
  8
D-STR-STR2
  6
Continuous
 62
   134
370
    13
100
AcDbLine
 10
155.5791656
 20
127.70776995
 30
0.0
 11
156.0291656
 21
127.25776995
 31
0.0
  0
LINE
  5
179
330
1F
100
AcDbEntity
  8
D-STR-STR2
  6
Continuous
 62
   134
370
    13
100
AcDbLine
 10
156.0291656
 20
127.25776995
 30
0.0
 11
156.9291656
 21
128.15776995
 31
0.0
  0
LINE
  5
17A
330
1F
100
AcDbEntity
  8
D-STR-STR2
  6
Continuous
 62
   134
370
    13
100
AcDbLine
 10
156.4791656
 20
127.25776995
 30
0.0
 11
157.3791656
 21
128.15776995
 31
0.0
  0
LINE
  5
17B
330
1F
100
AcDbEntity
  8
D-STR-STR2
  6
Continuous
 62
   134
370
    13
100
AcDbLine
 10
156.9291656
 20
127.25776995
 30
0.0
 11
157.8291656
 21
128.15776995
 31
0.0
  0
LINE
  5
17C
330
1F
100
AcDbEntity
  8
D-STR-STR2
  6
Continuous
 62
   134
370
    13
100
AcDbLine
 10
157.6041656
 20
127.93276995
 30
0.0
 11
158.0541656
 21
127.48276995
 31
0.0
  0
LINE
  5
17D
330
1F
100
AcDbEntity
  8
D-STR-STR2
  6
Continuous
 62
   134
370
    13
100
AcDbLine
 10
157.3791656
 20
127.70776995
 30
0.0
 11
157.8291656
 21
127.25776995
 31
0.0
  0
LINE
  5
17E
330
1F
100
AcDbEntity
  8
D-STR-STR2
  6
Continuous
 62
   134
370
    13
100
AcDbLine
 10
157.8291656
 20
127.25776995
 30
0.0
 11
158.7291656
 21
128.15776995
 31
0.0
  0
LINE
  5
17F
330
1F
100
AcDbEntity
  8
D-STR-STR2
  6
Continuous
 62
   134
370
    13
100
AcDbLine
 10
158.2791656
 20
127.25776995
 30
0.0
 11
159.1791656
 21
128.15776995
 31
0.0
  0
LINE
  5
180
330
1F
100
AcDbEntity
  8
D-STR-STR2
  6
Continuous
 62
   134
370
    13
100
AcDbLine
 10
158.7291656
 20
127.25776995
 30
0.0
 11
159.6291656
 21
128.15776995
 31
0.0
  0
LINE
  5
181
330
1F
100
AcDbEntity
  8
D-STR-STR2
  6
Continuous
 62
   134
370
    13
100
AcDbLine
 10
159.6291656
 20
128.15776995
 30
0.0
 11
160.5291656
 21
127.25776995
 31
0.0
  0
LINE
  5
182
330
1F
100
AcDbEntity
  8
D-STR-STR2
  6
Continuous
 62
   134
370
    13
100
AcDbLine
 10
159.4041656
 20
127.93276995
 30
0.0
 11
160.0791656
 21
127.25776995
 31
0.0
  0
LINE
  5
183
330
1F
100
AcDbEntity
  8
D-STR-STR2
  6
Continuous
 62
   134
370
    13
100
AcDbLine
 10
159.1791656
 20
127.70776995
 30
0.0
 11
159.6291656
 21
127.25776995
 31
0.0
  0
LINE
  5
184
330
1F
100
AcDbEntity
  8
D-STR-STR2
  6
Continuous
 62
   134
370
    13
100
AcDbLine
 10
154.2291656
 20
128.15776995
 30
0.0
 11
154.6791656
 21
127.70776995
 31
0.0
  0
LINE
  5
185
330
1F
100
AcDbEntity
  8
D-STR-STR2
  6
Continuous
 62
   134
370
    13
100
AcDbLine
 10
156.0291656
 20
128.15776995
 30
0.0
 11
156.4791656
 21
127.70776995
 31
0.0
  0
LINE
  5
186
330
1F
100
AcDbEntity
  8
D-STR-STR2
  6
Continuous
 62
   134
370
    13
100
AcDbLine
 10
157.8291656
 20
128.15776995
 30
0.0
 11
158.2791656
 21
127.70776995
 31
0.0
  0
LINE
  5
187
330
1F
100
AcDbEntity
  8
D-STR-STR2
  6
Continuous
 62
   134
370
    13
100
AcDbLine
 10
130.55083995
 20
127.25776995
 30
0.0
 11
131.45083995
 21
128.15776995
 31
0.0
  0
LINE
  5
188
330
1F
100
AcDbEntity
  8
D-STR-STR2
  6
Continuous
 62
   134
370
    13
100
AcDbLine
 10
131.00083995
 20
127.25776995
 30
0.0
 11
131.90083995
 21
128.15776995
 31
0.0
  0
LINE
  5
189
330
1F
100
AcDbEntity
  8
D-STR-STR2
  6
Continuous
 62
   134
370
    13
100
AcDbLine
 10
131.45083995
 20
127.25776995
 30
0.0
 11
132.35083995
 21
128.15776995
 31
0.0
  0
LINE
  5
18A
330
1F
100
AcDbEntity
  8
D-STR-STR2
  6
Continuous
 62
   134
370
    13
100
AcDbLine
 10
132.12583995
 20
127.93276995
 30
0.0
 11
132.57583995
 21
127.48276995
 31
0.0
  0
LINE
  5
18B
330
1F
100
AcDbEntity
  8
D-STR-STR2
  6
Continuous
 62
   134
370
    13
100
AcDbLine
 10
131.90083995
 20
127.70776995
 30
0.0
 11
132.35083995
 21
127.25776995
 31
0.0
  0
LINE
  5
18C
330
1F
100
AcDbEntity
  8
D-STR-STR2
  6
Continuous
 62
   134
370
    13
100
AcDbLine
 10
132.35083995
 20
127.25776995
 30
0.0
 11
133.25083995
 21
128.15776995
 31
0.0
  0
LINE
  5
18D
330
1F
100
AcDbEntity
  8
D-STR-STR2
  6
Continuous
 62
   134
370
    13
100
AcDbLine
 10
132.80083995
 20
127.25776995
 30
0.0
 11
133.70083995
 21
128.15776995
 31
0.0
  0
LINE
  5
18E
330
1F
100
AcDbEntity
  8
D-STR-STR2
  6
Continuous
 62
   134
370
    13
100
AcDbLine
 10
133.25083995
 20
127.25776995
 30
0.0
 11
134.15083995
 21
128.15776995
 31
0.0
  0
LINE
  5
18F
330
1F
100
AcDbEntity
  8
D-STR-STR2
  6
Continuous
 62
   134
370
    13
100
AcDbLine
 10
133.92583995
 20
127.93276995
 30
0.0
 11
134.37583995
 21
127.48276995
 31
0.0
  0
LINE
  5
190
330
1F
100
AcDbEntity
  8
D-STR-STR2
  6
Continuous
 62
   134
370
    13
100
AcDbLine
 10
133.70083995
 20
127.70776995
 30
0.0
 11
134.15083995
 21
127.25776995
 31
0.0
  0
LINE
  5
191
330
1F
100
AcDbEntity
  8
D-STR-STR2
  6
Continuous
 62
   134
370
    13
100
AcDbLine
 10
134.15083995
 20
127.25776995
 30
0.0
 11
135.05083995
 21
128.15776995
 31
0.0
  0
LINE
  5
192
330
1F
100
AcDbEntity
  8
D-STR-STR2
  6
Continuous
 62
   134
370
    13
100
AcDbLine
 10
134.60083995
 20
127.25776995
 30
0.0
 11
135.50083995
 21
128.15776995
 31
0.0
  0
LINE
  5
193
330
1F
100
AcDbEntity
  8
D-STR-STR2
  6
Continuous
 62
   134
370
    13
100
AcDbLine
 10
135.05083995
 20
127.25776995
 30
0.0
 11
135.95083995
 21
128.15776995
 31
0.0
  0
LINE
  5
194
330
1F
100
AcDbEntity
  8
D-STR-STR2
  6
Continuous
 62
   134
370
    13
100
AcDbLine
 10
132.35083995
 20
128.15776995
 30
0.0
 11
132.80083995
 21
127.70776995
 31
0.0
  0
LINE
  5
195
330
1F
100
AcDbEntity
  8
D-STR-STR2
  6
Continuous
 62
   134
370
    13
100
AcDbLine
 10
134.15083995
 20
128.15776995
 30
0.0
 11
134.60083995
 21
127.70776995
 31
0.0
  0
LINE
  5
196
330
1F
100
AcDbEntity
  8
D-DCR-HCH1
  6
Continuous
 62
   134
370
    13
100
AcDbLine
 10
141.95083995
 20
126.22883775
 30
0.0
 11
135.95083995
 21
120.22883775
 31
0.0
  0
LINE
  5
197
330
1F
100
AcDbEntity
  8
D-DCR-HCH1
  6
Continuous
 62
   134
370
    13
100
AcDbLine
 10
141.95083995
 20
126.93594455
 30
0.0
 11
135.95083995
 21
120.93594455
 31
0.0
  0
LINE
  5
198
330
1F
100
AcDbEntity
  8
D-DCR-HCH1
  6
Continuous
 62
   134
370
    13
100
AcDbLine
 10
136.80870435
 20
128.15776995
 30
0.0
 11
135.95083995
 21
127.29990555
 31
0.0
  0
LINE
  5
199
330
1F
100
AcDbEntity
  8
D-DCR-HCH1
  6
Continuous
 62
   134
370
    13
100
AcDbLine
 10
136.10159755
 20
128.15776995
 30
0.0
 11
135.95083995
 21
128.00701235
 31
0.0
  0
LINE
  5
19A
330
1F
100
AcDbEntity
  8
D-DCR-HCH1
  6
Continuous
 62
   134
370
    13
100
AcDbLine
 10
150.95083995
 20
121.0867021
 30
0.0
 11
144.95083995
 21
115.0867021
 31
0.0
  0
LINE
  5
19B
330
1F
100
AcDbEntity
  8
D-DCR-HCH1
  6
Continuous
 62
   134
370
    13
100
AcDbLine
 10
150.95083995
 20
121.7938089
 30
0.0
 11
144.95083995
 21
115.7938089
 31
0.0
  0
LINE
  5
19C
330
1F
100
AcDbEntity
  8
D-DCR-HCH1
  6
Continuous
 62
   134
370
    13
100
AcDbLine
 10
150.95083995
 20
114.0156343
 30
0.0
 11
150.0929756
 21
113.15776995
 31
0.0
  0
LINE
  5
19D
330
1F
100
AcDbEntity
  8
D-DCR-HCH1
  6
Continuous
 62
   134
370
    13
100
AcDbLine
 10
150.95083995
 20
114.7227411
 30
0.0
 11
149.3858688
 21
113.15776995
 31
0.0
  0
LINE
  5
19E
330
1F
100
AcDbEntity
  8
D-DCR-HCH1
  6
Continuous
 62
   134
370
    13
100
AcDbLine
 10
150.2437332
 20
128.15776995
 30
0.0
 11
144.95083995
 21
122.8648767
 31
0.0
  0
LINE
  5
19F
330
1F
100
AcDbEntity
  8
D-DCR-HCH1
  6
Continuous
 62
   134
370
    13
100
AcDbLine
 10
141.95083995
 20
119.8648767
 30
0.0
 11
135.95083995
 21
113.8648767
 31
0.0
  0
LINE
  5
1A0
330
1F
100
AcDbEntity
  8
D-DCR-HCH1
  6
Continuous
 62
   134
370
    13
100
AcDbLine
 10
150.95083995
 20
128.15776995
 30
0.0
 11
144.95083995
 21
122.15776995
 31
0.0
  0
LINE
  5
1A1
330
1F
100
AcDbEntity
  8
D-DCR-HCH1
  6
Continuous
 62
   134
370
    13
100
AcDbLine
 10
141.95083995
 20
119.15776995
 30
0.0
 11
135.95083995
 21
113.15776995
 31
0.0
  0
LINE
  5
1A2
330
1F
100
AcDbEntity
  8
D-STR
  6
Continuous
 62
     7
370
    50
100
AcDbLine
 10
133.45083995
 20
108.15776995
 30
0.0
 11
133.45083995
 21
113.15776995
 31
0.0
  0
LINE
  5
1A3
330
1F
100
AcDbEntity
  8
D-STR
  6
Continuous
 62
     7
370
    50
100
AcDbLine
 10
153.45083995
 20
108.15776995
 30
0.0
 11
133.45083995
 21
108.15776995
 31
0.0
  0
LINE
  5
1A4
330
1F
100
AcDbEntity
  8
D-STR
  6
Continuous
 62
     7
370
    50
100
AcDbLine
 10
153.45083995
 20
108.15776995
 30
0.0
 11
153.45083995
 21
113.15776995
 31
0.0
  0
DIMENSION
  5
1A5
330
1F
100
AcDbEntity
  8
D-STR-DIM
  6
Continuous
 62
     5
370
    13
100
AcDbDimension
  2
*D4
 10
122.4343545
 20
113.15776995
 30
0.0
 11
120.1843545
 21
110.65776995
 31
0.0
 70
   160
  1
100
 71
     5
 42
5.0
 53
90.0
  3
Standard
100
AcDbAlignedDimension
 13
133.45083995
 23
108.15776995
 33
0.0
 14
133.45083995
 24
113.15776995
 34
0.0
 50
90.0
100
AcDbRotatedDimension
1001
ACAD
1000
DSTYLE
1002
{
1070
   271
1070
     2
1070
   178
1070
     5
1070
   177
1070
     5
1070
   176
1070
     5
1070
   289
1070
     3
1070
    77
1070
     1
1070
   174
1070
     1
1070
   172
1070
     1
1070
    73
1070
     1
1070
    74
1070
     0
1070
   173
1070
     1
1070
   279
1070
     2
1070
    44
1040
0.9999999999999858
1070
    42
1040
1.0
1070
   147
1040
0.0
1070
   140
1040
2.777777777777778
1070
    41
1040
0.9999999999999749
1070
   340
1005
4C
1002
}
  0
DIMENSION
  5
1B2
330
1F
100
AcDbEntity
  8
D-STR-DIM
  6
Continuous
 62
     5
370
    13
100
AcDbDimension
  2
*D5
 10
122.4343545
 20
128.15776995
 30
0.0
 11
120.1843545
 21
120.65776995
 31
0.0
 70
   160
  1
300
 71
     5
 42
15.0
 53
90.0
  3
Standard
100
AcDbAlignedDimension
 13
133.45083995
 23
113.15776995
 33
0.0
 14
129.46732545
 24
128.15776995
 34
0.0
 50
90.0
100
AcDbRotatedDimension
1001
ACAD
1000
DSTYLE
1002
{
1070
   271
1070
     2
1070
   178
1070
     5
1070
   177
1070
     5
1070
   176
1070
     5
1070
   289
1070
     3
1070
    77
1070
     1
1070
   174
1070
     1
1070
   172
1070
     1
1070
    73
1070
     1
1070
    74
1070
     0
1070
   173
1070
     1
1070
   279
1070
     2
1070
    44
1040
0.9999999999999858
1070
    42
1040
1.0
1070
   147
1040
0.0
1070
   140
1040
2.777777777777778
1070
    41
1040
0.9999999999999749
1070
   340
1005
4C
1002
}
  0
ELLIPSE
  5
1BF
330
1F
100
AcDbEntity
  8
D-STR-STR2
  6
Continuous
 62
   134
370
    13
100
AcDbEllipse
 10
134.77117525
 20
110.65776995
 30
0.0
 11
0.4341204441673199
 21
2.462019382530514
 31
0.0
210
0.0
220
0.0
230
1.0
 40
0.5
 41
0.0
 42
6.283185307179586
  0
ELLIPSE
  5
1C0
330
1F
100
AcDbEntity
  8
D-STR-STR2
  6
Continuous
 62
   134
370
    13
100
AcDbEllipse
 10
137.3290334
 20
110.65776995
 30
0.0
 11
0.4341204441673199
 21
2.462019382530514
 31
0.0
210
0.0
220
0.0
230
1.0
 40
0.5
 41
0.0
 42
6.283185307179586
  0
ELLIPSE
  5
1C1
330
1F
100
AcDbEntity
  8
D-STR-STR2
  6
Continuous
 62
   134
370
    13
100
AcDbEllipse
 10
139.8868915
 20
110.65776995
 30
0.0
 11
0.4341204441673199
 21
2.462019382530514
 31
0.0
210
0.0
220
0.0
230
1.0
 40
0.5
 41
0.0
 42
6.283185307179586
  0
ELLIPSE
  5
1C2
330
1F
100
AcDbEntity
  8
D-STR-STR2
  6
Continuous
 62
   134
370
    13
100
AcDbEllipse
 10
142.4447496
 20
110.65776995
 30
0.0
 11
0.4341204441673199
 21
2.462019382530514
 31
0.0
210
0.0
220
0.0
230
1.0
 40
0.5
 41
0.0
 42
6.283185307179586
  0
ELLIPSE
  5
1C3
330
1F
100
AcDbEntity
  8
D-STR-STR2
  6
Continuous
 62
   134
370
    13
100
AcDbEllipse
 10
145.0026077
 20
110.65776995
 30
0.0
 11
0.4341204441673199
 21
2.462019382530514
 31
0.0
210
0.0
220
0.0
230
1.0
 40
0.5
 41
0.0
 42
6.283185307179586
  0
ELLIPSE
  5
1C4
330
1F
100
AcDbEntity
  8
D-STR-STR2
  6
Continuous
 62
   134
370
    13
100
AcDbEllipse
 10
147.5604658
 20
110.65776995
 30
0.0
 11
0.4341204441673199
 21
2.462019382530514
 31
0.0
210
0.0
220
0.0
230
1.0
 40
0.5
 41
0.0
 42
6.283185307179586
  0
ELLIPSE
  5
1C5
330
1F
100
AcDbEntity
  8
D-STR-STR2
  6
Continuous
 62
   134
370
    13
100
AcDbEllipse
 10
150.1183239
 20
110.65776995
 30
0.0
 11
0.4341204441673199
 21
2.462019382530514
 31
0.0
210
0.0
220
0.0
230
1.0
 40
0.5
 41
0.0
 42
6.283185307179586
  0
DIMENSION
  5
1C6
330
1F
100
AcDbEntity
  8
D-STR-DIM
  6
Continuous
 62
     5
370
    13
100
AcDbDimension
  2
*D6
 10
150.95083995
 20
95.15776995
 30
0.0
 11
143.45083995
 21
97.40776995
 31
0.0
 70
   160
  1
300
 71
     5
 42
15.0
  3
Standard
100
AcDbAlignedDimension
 13
135.95083995
 23
108.15776995
 33
0.0
 14
150.95083995
 24
108.15776995
 34
0.0
100
AcDbRotatedDimension
1001
ACAD
1000
DSTYLE
1002
{
1070
   271
1070
     2
1070
   178
1070
     5
1070
   177
1070
     5
1070
   176
1070
     5
1070
   289
1070
     3
1070
    77
1070
     1
1070
   174
1070
     1
1070
   172
1070
     1
1070
    73
1070
     0
1070
    74
1070
     0
1070
   173
1070
     1
1070
   279
1070
     2
1070
    44
1040
1.0
1070
    42
1040
1.0
1070
   147
1040
0.0
1070
   140
1040
2.777777777777778
1070
    41
1040
0.9999999999999749
1070
   340
1005
4C
1002
}
  0
LINE
  5
1D3
330
1F
100
AcDbEntity
  8
D-STR-HTXT
  6
Continuous
 62
     7
370
    13
100
AcDbLine
 10
65.19177889414041
 20
168.4839053401805
 30
0.0
 11
72.46319514999999
 21
161.3948455
 31
0.0
  0
LINE
  5
1D4
330
1F
100
AcDbEntity
  8
D-STR-HTXT
  6
Continuous
 62
     7
370
    13
100
AcDbLine
 10
64.47575065
 20
169.18197665
 30
0.0
 11
65.07543367583716
 21
168.3645672994904
 31
0.0
  0
LINE
  5
1D5
330
1F
100
AcDbEntity
  8
D-STR-HTXT
  6
Continuous
 62
     7
370
    13
100
AcDbLine
 10
64.47575065
 20
169.18197665
 30
0.0
 11
65.30812411244366
 21
168.6032433808706
 31
0.0
  0
LINE
  5
1D6
330
1F
100
AcDbEntity
  8
D-STR-HTXT
  6
Continuous
 62
     7
370
    13
100
AcDbLine
 10
65.07543367583716
 20
168.3645672994904
 30
0.0
 11
65.30812411244366
 21
168.6032433808706
 31
0.0
  0
LINE
  5
1D7
330
1F
100
AcDbEntity
  8
D-STR-HTXT
  6
Continuous
 62
     7
370
    13
100
AcDbLine
 10
64.95549707066972
 20
168.5280491695924
 30
0.0
 11
65.09870271949781
 21
168.3884349076284
 31
0.0
  0
LINE
  5
1D8
330
1F
100
AcDbEntity
  8
D-STR-HTXT
  6
Continuous
 62
     7
370
    13
100
AcDbLine
 10
65.12197176315846
 20
168.4123025157665
 30
0.0
 11
64.83556046550228
 21
168.6915310396943
 31
0.0
  0
LINE
  5
1D9
330
1F
100
AcDbEntity
  8
D-STR-HTXT
  6
Continuous
 62
     7
370
    13
100
AcDbLine
 10
64.71562386033487
 20
168.8550129097962
 30
0.0
 11
65.14524080681912
 21
168.4361701239045
 31
0.0
  0
LINE
  5
1DA
330
1F
100
AcDbEntity
  8
D-STR-HTXT
  6
Continuous
 62
     7
370
    13
100
AcDbLine
 10
65.16850985047977
 20
168.4600377320425
 30
0.0
 11
64.59568725516743
 21
169.0184947798981
 31
0.0
  0
LINE
  5
1DB
330
1F
100
AcDbEntity
  8
D-STR-HTXT
  6
Continuous
 62
     7
370
    13
100
AcDbLine
 10
64.47575065
 20
169.18197665
 30
0.0
 11
65.19177889414041
 21
168.4839053401805
 31
0.0
  0
LINE
  5
1DC
330
1F
100
AcDbEntity
  8
D-STR-HTXT
  6
Continuous
 62
     7
370
    13
100
AcDbLine
 10
65.21504793780106
 20
168.5077729483185
 30
0.0
 11
64.64222534248873
 21
169.0662299961741
 31
0.0
  0
LINE
  5
1DD
330
1F
100
AcDbEntity
  8
D-STR-HTXT
  6
Continuous
 62
     7
370
    13
100
AcDbLine
 10
64.80870003497748
 20
168.9504833423482
 30
0.0
 11
65.23831698146172
 21
168.5316405564565
 31
0.0
  0
LINE
  5
1DE
330
1F
100
AcDbEntity
  8
D-STR-HTXT
  6
Continuous
 62
     7
370
    13
100
AcDbLine
 10
65.26158602512237
 20
168.5555081645946
 30
0.0
 11
64.9751747274662
 21
168.8347366885224
 31
0.0
  0
LINE
  5
1DF
330
1F
100
AcDbEntity
  8
D-STR-HTXT
  6
Continuous
 62
     7
370
    13
100
AcDbLine
 10
65.14164941995493
 20
168.7189900346965
 30
0.0
 11
65.28485506878302
 21
168.5793757727326
 31
0.0
  0
LINE
  5
1E0
330
1F
100
AcDbEntity
  8
D-STR-HTXT
  6
Continuous
 62
     7
370
    13
100
AcDbLine
 10
72.46319515
 20
161.3948455
 30
0.0
 11
106.80411395
 21
161.3948455
 31
0.0
  0
TEXT
  5
1E1
330
1F
100
AcDbEntity
  8
D-STR-HTXT
  6
Continuous
 62
     7
370
    13
100
AcDbText
 10
74.66096190555557
 20
162.402267375
 30
0.0
 40
2.777777777777778
  1
反射器(φ100～φ300)
 41
0.8000000000000002
  7
ＭＳ ゴシック
 72
     1
 11
89.10540635000001
 21
161.8948455
 31
0.0
100
AcDbText
 73
     1
  0
LINE
  5
1E2
330
1F
100
AcDbEntity
  8
D-STR
  6
Continuous
 62
     7
370
    50
100
AcDbLine
 10
256.6745456
 20
169.9999856
 30
0.0
 11
256.6745456
 21
129.9999856
 31
0.0
  0
LINE
  5
1E3
330
1F
100
AcDbEntity
  8
D-STR
  6
Continuous
 62
     7
370
    50
100
AcDbLine
 10
286.6745456
 20
169.9999856
 30
0.0
 11
256.6745456
 21
169.9999856
 31
0.0
  0
LINE
  5
1E4
330
1F
100
AcDbEntity
  8
D-STR
  6
Continuous
 62
     7
370
    50
100
AcDbLine
 10
286.6745456
 20
169.9999856
 30
0.0
 11
286.6745456
 21
129.9999856
 31
0.0
  0
LINE
  5
1E5
330
1F
100
AcDbEntity
  8
D-STR
  6
Continuous
 62
     7
370
    50
100
AcDbLine
 10
286.6745456
 20
129.9999856
 30
0.0
 11
256.6745456
 21
129.9999856
 31
0.0
  0
LINE
  5
1E6
330
1F
100
AcDbEntity
  8
D-STR
  6
Continuous
 62
     7
370
    50
100
AcDbLine
 10
271.6745456
 20
169.9999856
 30
0.0
 11
286.6745456
 21
149.9999856
 31
0.0
  0
LINE
  5
1E7
330
1F
100
AcDbEntity
  8
D-STR
  6
Continuous
 62
     7
370
    50
100
AcDbLine
 10
286.6745456
 20
149.9999856
 30
0.0
 11
271.6745456
 21
129.9999856
 31
0.0
  0
LINE
  5
1E8
330
1F
100
AcDbEntity
  8
D-STR
  6
Continuous
 62
     7
370
    50
100
AcDbLine
 10
261.6745456
 20
169.9999856
 30
0.0
 11
276.6745456
 21
149.9999856
 31
0.0
  0
LINE
  5
1E9
330
1F
100
AcDbEntity
  8
D-STR
  6
Continuous
 62
     7
370
    50
100
AcDbLine
 10
276.6745456
 20
149.9999856
 30
0.0
 11
261.6745456
 21
129.9999856
 31
0.0
  0
HATCH
  5
1EA
330
1F
100
AcDbEntity
  8
D-STR-STR2
  6
Continuous
 62
   134
370
    13
100
AcDbHatch
 10
0.0
 20
0.0
 30
0.0
210
0.0
220
0.0
230
1.0
  2
SOLID
 70
     1
 71
     0
 91
        1
 92
        3
 72
     0
 73
     1
 93
        6
 10
261.6745456
 20
169.9999856
 10
271.6745456
 20
169.9999856
 10
286.6745456
 20
149.9999856
 10
271.6745456
 20
129.9999856
 10
261.6745456
 20
129.9999856
 10
276.6745456
 20
149.9999856
 97
        0
 75
     0
 76
     1
 98
        0
  0
POLYLINE
  5
1EB
330
1F
100
AcDbEntity
  8
D-STR-STR2
  6
Continuous
 62
     7
370
    13
100
AcDb3dPolyline
 66
     1
 10
0.0
 20
0.0
 30
0.0
 70
     8
  0
VERTEX
  5
1EC
330
1EB
100
AcDbEntity
  8
D-STR-STR2
  6
Continuous
 62
     7
100
AcDbVertex
100
AcDb3dPolylineVertex
 10
261.6745456
 20
169.9999856
 30
0.0
 70
    32
  0
VERTEX
  5
1ED
330
1EB
100
AcDbEntity
  8
D-STR-STR2
  6
Continuous
 62
     7
100
AcDbVertex
100
AcDb3dPolylineVertex
 10
271.6745456
 20
169.9999856
 30
0.0
 70
    32
  0
VERTEX
  5
1EE
330
1EB
100
AcDbEntity
  8
D-STR-STR2
  6
Continuous
 62
     7
100
AcDbVertex
100
AcDb3dPolylineVertex
 10
286.6745456
 20
149.9999856
 30
0.0
 70
    32
  0
VERTEX
  5
1EF
330
1EB
100
AcDbEntity
  8
D-STR-STR2
  6
Continuous
 62
     7
100
AcDbVertex
100
AcDb3dPolylineVertex
 10
271.6745456
 20
129.9999856
 30
0.0
 70
    32
  0
VERTEX
  5
1F0
330
1EB
100
AcDbEntity
  8
D-STR-STR2
  6
Continuous
 62
     7
100
AcDbVertex
100
AcDb3dPolylineVertex
 10
261.6745456
 20
129.9999856
 30
0.0
 70
    32
  0
VERTEX
  5
1F1
330
1EB
100
AcDbEntity
  8
D-STR-STR2
  6
Continuous
 62
     7
100
AcDbVertex
100
AcDb3dPolylineVertex
 10
276.6745456
 20
149.9999856
 30
0.0
 70
    32
  0
VERTEX
  5
1F2
330
1EB
100
AcDbEntity
  8
D-STR-STR2
  6
Continuous
 62
     7
100
AcDbVertex
100
AcDb3dPolylineVertex
 10
261.6745456
 20
169.9999856
 30
0.0
 70
    32
  0
SEQEND
  5
1F3
330
1EB
100
AcDbEntity
  8
D-STR-STR2
  6
Continuous
 62
     7
370
    13
  0
LINE
  5
1F4
330
1F
100
AcDbEntity
  8
D-BMK
  6
dashed dotted
 62
     5
370
    13
100
AcDbLine
 10
271.6745456
 20
102.3270594
 30
0.0
 11
271.6745456
 21
129.9999856
 31
0.0
  0
LINE
  5
1F5
330
1F
100
AcDbEntity
  8
D-STR
  6
Continuous
 62
     7
370
    50
100
AcDbLine
 10
268.6595456
 20
102.3270594
 30
0.0
 11
268.6595456
 21
129.9999856
 31
0.0
  0
LINE
  5
1F6
330
1F
100
AcDbEntity
  8
D-STR
  6
Continuous
 62
     7
370
    50
100
AcDbLine
 10
274.6895456
 20
102.3270594
 30
0.0
 11
274.6895456
 21
129.9999856
 31
0.0
  0
TEXT
  5
1F7
330
1F
100
AcDbEntity
  8
D-TTL-TXT
  6
Continuous
 62
     7
370
    13
100
AcDbText
 10
263.4632337
 20
188.427835675
 30
0.0
 40
2.777777777777778
  1
線形誘導標 
 41
0.8000000000000002
  7
ＭＳ ゴシック
 11
263.4632337
 21
187.9204138
 31
0.0
100
AcDbText
 73
     1
  0
DIMENSION
  5
1F8
330
1F
100
AcDbEntity
  8
D-STR-DIM
  6
Continuous
 62
     5
370
    13
100
AcDbDimension
  2
*D7
 10
286.6745456
 20
179.9999856
 30
0.0
 11
271.6745456
 21
182.2499856
 31
0.0
 70
   160
  1
300
 71
     5
 42
30.0
  3
Standard
100
AcDbAlignedDimension
 13
256.6745456
 23
169.9999856
 33
0.0
 14
286.6745456
 24
169.9999856
 34
0.0
100
AcDbRotatedDimension
1001
ACAD
1000
DSTYLE
1002
{
1070
   271
1070
     2
1070
   178
1070
     5
1070
   177
1070
     5
1070
   176
1070
     5
1070
   289
1070
     3
1070
    77
1070
     1
1070
   174
1070
     1
1070
   172
1070
     1
1070
    73
1070
     0
1070
    74
1070
     0
1070
   173
1070
     1
1070
   279
1070
     2
1070
    44
1040
1.0
1070
    42
1040
1.0
1070
   147
1040
0.0
1070
   140
1040
2.777777777777778
1070
    41
1040
0.9999999999999749
1070
   340
1005
4C
1002
}
  0
DIMENSION
  5
205
330
1F
100
AcDbEntity
  8
D-STR-DIM
  6
Continuous
 62
     5
370
    13
100
AcDbDimension
  2
*D8
 10
246.6745456
 20
129.9999856
 30
0.0
 11
244.4245456
 21
149.9999856
 31
0.0
 70
   160
  1
400
 71
     5
 42
40.0
 53
90.0
  3
Standard
100
AcDbAlignedDimension
 13
256.6745456
 23
169.9999856
 33
0.0
 14
256.6745456
 24
129.9999856
 34
0.0
 50
270.0
100
AcDbRotatedDimension
1001
ACAD
1000
DSTYLE
1002
{
1070
   271
1070
     2
1070
   178
1070
     5
1070
   177
1070
     5
1070
   176
1070
     5
1070
   289
1070
     3
1070
    77
1070
     1
1070
   174
1070
     1
1070
   172
1070
     1
1070
    73
1070
     1
1070
    74
1070
     0
1070
   173
1070
     1
1070
   279
1070
     2
1070
    44
1040
0.9999999999999716
1070
    42
1040
1.0
1070
   147
1040
0.0
1070
   140
1040
2.777777777777778
1070
    41
1040
0.9999999999999749
1070
   340
1005
4C
1002
}
  0
LINE
  5
212
330
1F
100
AcDbEntity
  8
D-TTL
  6
Continuous
 62
     7
370
    13
100
AcDbLine
 10
149.6630085155437
 20
128.90776995
 30
0.0
 11
146.1583231072438
 21
128.90776995
 31
0.0
  0
LINE
  5
213
330
1F
100
AcDbEntity
  8
D-TTL
  6
Continuous
 62
     7
370
    13
100
AcDbLine
 10
149.6630085155437
 20
128.90776995
 30
0.0
 11
148.6630085155437
 21
129.20776995
 31
0.0
  0
LINE
  5
214
330
1F
100
AcDbEntity
  8
D-TTL
  6
Continuous
 62
     7
370
    13
100
AcDbLine
 10
140.2615508329615
 20
128.90776995
 30
0.0
 11
136.9237552060092
 21
128.90776995
 31
0.0
  0
LINE
  5
215
330
1F
100
AcDbEntity
  8
D-TTL
  6
Continuous
 62
     7
370
    13
100
AcDbLine
 10
136.9237552060092
 20
128.90776995
 30
0.0
 11
137.9237552060092
 21
129.20776995
 31
0.0
  0
ENDSEC
  0
SECTION
  2
OBJECTS
  0
DICTIONARY
  5
C
330
0
100
AcDbDictionary
281
     1
  3
ACAD_GROUP
350
D
  3
ACAD_LAYOUT
350
1A
  3
ACAD_MATERIAL
350
3B
  3
ACAD_MLEADERSTYLE
350
23A
  3
ACAD_MLINESTYLE
350
17
  3
ACAD_PLOTSETTINGS
350
19
  3
ACAD_PLOTSTYLENAME
350
E
  3
ACAD_SCALELIST
350
216
  3
ACAD_VISUALSTYLE
350
2A
  3
AcDbVariableDictionary
350
238
  0
DICTIONARY
  5
D
102
{ACAD_REACTORS
330
C
102
}
330
C
100
AcDbDictionary
281
     1
  0
DICTIONARY
  5
1A
102
{ACAD_REACTORS
330
C
102
}
330
C
100
AcDbDictionary
281
     1
  3
Layout1
350
1E
  3
Layout2
350
26
  3
Model
350
22
  0
DICTIONARY
  5
3B
102
{ACAD_REACTORS
330
C
102
}
330
C
100
AcDbDictionary
281
     1
  3
ByBlock
350
3D
  3
ByLayer
350
3C
  3
Global
350
3E
  0
DICTIONARY
  5
23A
102
{ACAD_REACTORS
330
C
102
}
330
C
100
AcDbDictionary
281
     1
  0
DICTIONARY
  5
17
102
{ACAD_REACTORS
330
C
102
}
330
C
100
AcDbDictionary
281
     1
  3
Standard
350
18
  0
DICTIONARY
  5
19
102
{ACAD_REACTORS
330
C
102
}
330
C
100
AcDbDictionary
281
     1
  0
ACDBDICTIONARYWDFLT
  5
E
102
{ACAD_REACTORS
330
C
102
}
330
C
100
AcDbDictionary
281
     1
  3
Normal
350
F
100
AcDbDictionaryWithDefault
340
F
  0
DICTIONARY
  5
216
102
{ACAD_REACTORS
330
C
102
}
330
C
100
AcDbDictionary
281
     1
  3
A0
350
217
  3
A1
350
218
  3
A2
350
219
  3
A3
350
21A
  3
A4
350
21B
  3
A5
350
21C
  3
A6
350
21D
  3
A7
350
21E
  3
A8
350
21F
  3
A9
350
220
  3
B0
350
221
  3
B1
350
222
  3
B2
350
223
  3
B3
350
224
  3
B4
350
225
  3
B5
350
226
  3
B6
350
227
  3
B7
350
228
  3
B8
350
229
  3
B9
350
22A
  3
C0
350
22B
  3
C1
350
22C
  3
C2
350
22D
  3
C3
350
22E
  3
C4
350
22F
  3
C5
350
230
  3
C6
350
231
  3
C7
350
232
  3
C8
350
233
  3
C9
350
234
  3
D0
350
235
  3
D1
350
236
  3
D2
350
237
  0
DICTIONARY
  5
2A
102
{ACAD_REACTORS
330
C
102
}
330
C
100
AcDbDictionary
281
     1
  3
2dWireframe
350
2F
  3
3D Hidden
350
31
  3
3dWireframe
350
30
  3
Basic
350
32
  3
Brighten
350
36
  3
ColorChange
350
3A
  3
Conceptual
350
34
  3
Dim
350
35
  3
Facepattern
350
39
  3
Flat
350
2B
  3
FlatWithEdges
350
2C
  3
Gouraud
350
2D
  3
GouraudWithEdges
350
2E
  3
Linepattern
350
38
  3
Realistic
350
33
  3
Thicken
350
37
  0
DICTIONARY
  5
238
102
{ACAD_REACTORS
330
C
102
}
330
C
100
AcDbDictionary
281
     1
  3
CANNOSCALE
350
23B
  3
DIMASSOC
350
23C
  3
HIDETEXT
350
23D
  0
LAYOUT
  5
1E
102
{ACAD_REACTORS
330
1A
102
}
330
1A
100
AcDbPlotSettings
  1

  2
none_device
  4

  6

 40
0.0
 41
0.0
 42
0.0
 43
0.0
 44
0.0
 45
0.0
 46
0.0
 47
0.0
 48
0.0
 49
0.0
140
0.0
141
0.0
142
1.0
143
1.0
 70
   688
 72
     0
 73
     0
 74
     5
  7

 75
    16
147
1.0
148
0.0
149
0.0
100
AcDbLayout
  1
Layout1
 70
     1
 71
     1
 10
0.0
 20
0.0
 11
12.0
 21
9.0
 12
0.0
 22
0.0
 32
0.0
 14
1.000000000000000E+20
 24
1.000000000000000E+20
 34
1.000000000000000E+20
 15
-1.000000000000000E+20
 25
-1.000000000000000E+20
 35
-1.000000000000000E+20
146
0.0
 13
0.0
 23
0.0
 33
0.0
 16
1.0
 26
0.0
 36
0.0
 17
0.0
 27
1.0
 37
0.0
 76
     0
330
1B
  0
LAYOUT
  5
26
102
{ACAD_REACTORS
330
1A
102
}
330
1A
100
AcDbPlotSettings
  1

  2
none_device
  4

  6

 40
0.0
 41
0.0
 42
0.0
 43
0.0
 44
0.0
 45
0.0
 46
0.0
 47
0.0
 48
0.0
 49
0.0
140
0.0
141
0.0
142
1.0
143
1.0
 70
   688
 72
     0
 73
     0
 74
     5
  7

 75
    16
147
1.0
148
0.0
149
0.0
100
AcDbLayout
  1
Layout2
 70
     1
 71
     2
 10
0.0
 20
0.0
 11
0.0
 21
0.0
 12
0.0
 22
0.0
 32
0.0
 14
0.0
 24
0.0
 34
0.0
 15
0.0
 25
0.0
 35
0.0
146
0.0
 13
0.0
 23
0.0
 33
0.0
 16
1.0
 26
0.0
 36
0.0
 17
0.0
 27
1.0
 37
0.0
 76
     0
330
23
  0
LAYOUT
  5
22
102
{ACAD_REACTORS
330
1A
102
}
330
1A
100
AcDbPlotSettings
  1

  2
none_device
  4

  6

 40
0.0
 41
0.0
 42
0.0
 43
0.0
 44
0.0
 45
0.0
 46
0.0
 47
0.0
 48
0.0
 49
0.0
140
0.0
141
0.0
142
1.0
143
1.0
 70
  1712
 72
     0
 73
     0
 74
     0
  7

 75
     0
147
1.0
148
0.0
149
0.0
100
AcDbLayout
  1
Model
 70
     1
 71
     0
 10
21.40466321
 20
94.15776995
 11
286.6745456
 21
273.61421572
 12
0.0
 22
0.0
 32
0.0
 14
21.40466321
 24
94.15776995
 34
0.0
 15
286.6745456
 25
273.61421572
 35
0.0
146
0.0
 13
0.0
 23
0.0
 33
0.0
 16
1.0
 26
0.0
 36
0.0
 17
0.0
 27
1.0
 37
0.0
 76
     0
330
1F
331
29
  0
MATERIAL
  5
3D
102
{ACAD_REACTORS
330
3B
102
}
102
{ACAD_XDICTIONARY
360
260
102
}
330
3B
100
AcDbMaterial
  1
ByBlock
  0
MATERIAL
  5
3C
102
{ACAD_REACTORS
330
3B
102
}
102
{ACAD_XDICTIONARY
360
25E
102
}
330
3B
100
AcDbMaterial
  1
ByLayer
  0
MATERIAL
  5
3E
102
{ACAD_REACTORS
330
3B
102
}
102
{ACAD_XDICTIONARY
360
262
102
}
330
3B
100
AcDbMaterial
  1
Global
  0
MLINESTYLE
  5
18
102
{ACAD_REACTORS
330
17
102
}
330
17
100
AcDbMlineStyle
  2
Standard
 70
     0
  3

 62
   256
 51
90.0
 52
90.0
 71
     2
 49
0.5
 62
   256
  6
BYLAYER
 49
-0.5
 62
   256
  6
BYLAYER
  0
ACDBPLACEHOLDER
  5
F
102
{ACAD_REACTORS
330
E
102
}
330
E
  0
SCALE
  5
217
102
{ACAD_REACTORS
330
216
102
}
330
216
100
AcDbScale
 70
     0
300
1:1
140
1.0
141
1.0
290
     1
  0
SCALE
  5
218
102
{ACAD_REACTORS
330
216
102
}
330
216
100
AcDbScale
 70
     0
300
1:2
140
1.0
141
2.0
290
     0
  0
SCALE
  5
219
102
{ACAD_REACTORS
330
216
102
}
330
216
100
AcDbScale
 70
     0
300
1:4
140
1.0
141
4.0
290
     0
  0
SCALE
  5
21A
102
{ACAD_REACTORS
330
216
102
}
330
216
100
AcDbScale
 70
     0
300
1:5
140
1.0
141
5.0
290
     0
  0
SCALE
  5
21B
102
{ACAD_REACTORS
330
216
102
}
330
216
100
AcDbScale
 70
     0
300
1:8
140
1.0
141
8.0
290
     0
  0
SCALE
  5
21C
102
{ACAD_REACTORS
330
216
102
}
330
216
100
AcDbScale
 70
     0
300
1:10
140
1.0
141
10.0
290
     0
  0
SCALE
  5
21D
102
{ACAD_REACTORS
330
216
102
}
330
216
100
AcDbScale
 70
     0
300
1:16
140
1.0
141
16.0
290
     0
  0
SCALE
  5
21E
102
{ACAD_REACTORS
330
216
102
}
330
216
100
AcDbScale
 70
     0
300
1:20
140
1.0
141
20.0
290
     0
  0
SCALE
  5
21F
102
{ACAD_REACTORS
330
216
102
}
330
216
100
AcDbScale
 70
     0
300
1:30
140
1.0
141
30.0
290
     0
  0
SCALE
  5
220
102
{ACAD_REACTORS
330
216
102
}
330
216
100
AcDbScale
 70
     0
300
1:40
140
1.0
141
40.0
290
     0
  0
SCALE
  5
221
102
{ACAD_REACTORS
330
216
102
}
330
216
100
AcDbScale
 70
     0
300
1:50
140
1.0
141
50.0
290
     0
  0
SCALE
  5
222
102
{ACAD_REACTORS
330
216
102
}
330
216
100
AcDbScale
 70
     0
300
1:100
140
1.0
141
100.0
290
     0
  0
SCALE
  5
223
102
{ACAD_REACTORS
330
216
102
}
330
216
100
AcDbScale
 70
     0
300
2:1
140
2.0
141
1.0
290
     0
  0
SCALE
  5
224
102
{ACAD_REACTORS
330
216
102
}
330
216
100
AcDbScale
 70
     0
300
4:1
140
4.0
141
1.0
290
     0
  0
SCALE
  5
225
102
{ACAD_REACTORS
330
216
102
}
330
216
100
AcDbScale
 70
     0
300
8:1
140
8.0
141
1.0
290
     0
  0
SCALE
  5
226
102
{ACAD_REACTORS
330
216
102
}
330
216
100
AcDbScale
 70
     0
300
10:1
140
10.0
141
1.0
290
     0
  0
SCALE
  5
227
102
{ACAD_REACTORS
330
216
102
}
330
216
100
AcDbScale
 70
     0
300
100:1
140
100.0
141
1.0
290
     0
  0
SCALE
  5
228
102
{ACAD_REACTORS
330
216
102
}
330
216
100
AcDbScale
 70
     0
300
1/128" = 1'-0"
140
0.0078125
141
12.0
290
     0
  0
SCALE
  5
229
102
{ACAD_REACTORS
330
216
102
}
330
216
100
AcDbScale
 70
     0
300
1/64" = 1'-0"
140
0.015625
141
12.0
290
     0
  0
SCALE
  5
22A
102
{ACAD_REACTORS
330
216
102
}
330
216
100
AcDbScale
 70
     0
300
1/32" = 1'-0"
140
0.03125
141
12.0
290
     0
  0
SCALE
  5
22B
102
{ACAD_REACTORS
330
216
102
}
330
216
100
AcDbScale
 70
     0
300
1/16" = 1'-0"
140
0.0625
141
12.0
290
     0
  0
SCALE
  5
22C
102
{ACAD_REACTORS
330
216
102
}
330
216
100
AcDbScale
 70
     0
300
3/32" = 1'-0"
140
0.09375
141
12.0
290
     0
  0
SCALE
  5
22D
102
{ACAD_REACTORS
330
216
102
}
330
216
100
AcDbScale
 70
     0
300
1/8" = 1'-0"
140
0.125
141
12.0
290
     0
  0
SCALE
  5
22E
102
{ACAD_REACTORS
330
216
102
}
330
216
100
AcDbScale
 70
     0
300
3/16" = 1'-0"
140
0.1875
141
12.0
290
     0
  0
SCALE
  5
22F
102
{ACAD_REACTORS
330
216
102
}
330
216
100
AcDbScale
 70
     0
300
1/4" = 1'-0"
140
0.25
141
12.0
290
     0
  0
SCALE
  5
230
102
{ACAD_REACTORS
330
216
102
}
330
216
100
AcDbScale
 70
     0
300
3/8" = 1'-0"
140
0.375
141
12.0
290
     0
  0
SCALE
  5
231
102
{ACAD_REACTORS
330
216
102
}
330
216
100
AcDbScale
 70
     0
300
1/2" = 1'-0"
140
0.5
141
12.0
290
     0
  0
SCALE
  5
232
102
{ACAD_REACTORS
330
216
102
}
330
216
100
AcDbScale
 70
     0
300
3/4" = 1'-0"
140
0.75
141
12.0
290
     0
  0
SCALE
  5
233
102
{ACAD_REACTORS
330
216
102
}
330
216
100
AcDbScale
 70
     0
300
1" = 1'-0"
140
1.0
141
12.0
290
     0
  0
SCALE
  5
234
102
{ACAD_REACTORS
330
216
102
}
330
216
100
AcDbScale
 70
     0
300
1-1/2" = 1'-0"
140
1.5
141
12.0
290
     0
  0
SCALE
  5
235
102
{ACAD_REACTORS
330
216
102
}
330
216
100
AcDbScale
 70
     0
300
3" = 1'-0"
140
3.0
141
12.0
290
     0
  0
SCALE
  5
236
102
{ACAD_REACTORS
330
216
102
}
330
216
100
AcDbScale
 70
     0
300
6" = 1'-0"
140
6.0
141
12.0
290
     0
  0
SCALE
  5
237
102
{ACAD_REACTORS
330
216
102
}
330
216
100
AcDbScale
 70
     0
300
1'-0" = 1'-0"
140
12.0
141
12.0
290
     0
  0
VISUALSTYLE
  5
2F
102
{ACAD_REACTORS
330
2A
102
}
102
{ACAD_XDICTIONARY
360
246
102
}
330
2A
100
AcDbVisualStyle
  2
2dWireframe
 70
     4
 71
     0
 72
     2
 73
     0
 90
        0
 40
-0.6
 41
-30.0
 62
     5
 63
     7
 74
     1
 91
        4
 64
     7
 65
   257
 75
     1
175
     1
 42
1.0
 92
        0
 66
   257
 43
1.0
 76
     1
 77
     6
 78
     2
 67
     7
 79
     5
170
     0
171
     0
290
     0
174
     0
 93
        1
 44
0.0
173
     0
291
     0
 45
0.0
1001
ACAD
1000
AcDbSavedByObjectVersion
1070
     0
  0
VISUALSTYLE
  5
31
102
{ACAD_REACTORS
330
2A
102
}
102
{ACAD_XDICTIONARY
360
24A
102
}
330
2A
100
AcDbVisualStyle
  2
3D Hidden
 70
     6
 71
     1
 72
     2
 73
     2
 90
        0
 40
-0.6
 41
-30.0
 62
     5
 63
     7
 74
     2
 91
        2
 64
     7
 65
   257
 75
     2
175
     1
 42
40.0
 92
        0
 66
   257
 43
1.0
 76
     1
 77
     6
 78
     2
 67
     7
 79
     3
170
     0
171
     0
290
     0
174
     0
 93
        1
 44
0.0
173
     0
291
     0
 45
0.0
1001
ACAD
1000
AcDbSavedByObjectVersion
1070
     0
  0
VISUALSTYLE
  5
30
102
{ACAD_REACTORS
330
2A
102
}
102
{ACAD_XDICTIONARY
360
248
102
}
330
2A
100
AcDbVisualStyle
  2
3dWireframe
 70
     5
 71
     0
 72
     2
 73
     0
 90
        0
 40
-0.6
 41
-30.0
 62
     5
 63
     7
 74
     1
 91
        4
 64
     7
 65
   257
 75
     1
175
     1
 42
1.0
 92
        0
 66
   257
 43
1.0
 76
     1
 77
     6
 78
     2
 67
     7
 79
     5
170
     0
171
     0
290
     0
174
     0
 93
        1
 44
0.0
173
     0
291
     0
 45
0.0
1001
ACAD
1000
AcDbSavedByObjectVersion
1070
     0
  0
VISUALSTYLE
  5
32
102
{ACAD_REACTORS
330
2A
102
}
102
{ACAD_XDICTIONARY
360
24C
102
}
330
2A
100
AcDbVisualStyle
  2
Basic
 70
     7
 71
     1
 72
     0
 73
     1
 90
        0
 40
-0.6
 41
-30.0
 62
     5
 63
     7
 74
     0
 91
        4
 64
     7
 65
   257
 75
     1
175
     1
 42
1.0
 92
        8
 66
     7
 43
1.0
 76
     1
 77
     6
 78
     2
 67
     7
 79
     5
170
     0
171
     0
290
     0
174
     0
 93
        1
 44
0.0
173
     0
291
     1
 45
0.0
1001
ACAD
1000
AcDbSavedByObjectVersion
1070
     0
  0
VISUALSTYLE
  5
36
102
{ACAD_REACTORS
330
2A
102
}
102
{ACAD_XDICTIONARY
360
254
102
}
330
2A
100
AcDbVisualStyle
  2
Brighten
 70
    12
 71
     2
 72
     2
 73
     0
 90
        0
 40
-0.6
 41
-30.0
 62
     5
 63
     7
 74
     1
 91
        4
 64
     7
 65
   257
 75
     1
175
     1
 42
1.0
 92
        8
 66
     7
 43
1.0
 76
     1
 77
     6
 78
     2
 67
     7
 79
     5
170
     0
171
     0
290
     0
174
     0
 93
        1
 44
50.0
173
     0
291
     1
 45
0.0
1001
ACAD
1000
AcDbSavedByObjectVersion
1070
     0
  0
VISUALSTYLE
  5
3A
102
{ACAD_REACTORS
330
2A
102
}
102
{ACAD_XDICTIONARY
360
25C
102
}
330
2A
100
AcDbVisualStyle
  2
ColorChange
 70
    16
 71
     2
 72
     2
 73
     3
 90
        0
 40
-0.6
 41
-30.0
 62
     5
 63
     8
 74
     1
 91
        4
 64
     7
 65
   257
 75
     1
175
     1
 42
1.0
 92
        8
 66
     8
 43
1.0
 76
     1
 77
     6
 78
     2
 67
     7
 79
     5
170
     0
171
     0
290
     0
174
     0
 93
        1
 44
0.0
173
     0
291
     1
 45
0.0
1001
ACAD
1000
AcDbSavedByObjectVersion
1070
     0
  0
VISUALSTYLE
  5
34
102
{ACAD_REACTORS
330
2A
102
}
102
{ACAD_XDICTIONARY
360
250
102
}
330
2A
100
AcDbVisualStyle
  2
Conceptual
 70
     9
 71
     3
 72
     2
 73
     0
 90
        0
 40
-0.6
 41
-30.0
 62
     5
 63
     7
 74
     2
 91
        2
 64
     7
 65
   257
 75
     1
175
     1
 42
40.0
 92
        8
 66
     7
 43
1.0
 76
     1
 77
     6
 78
     2
 67
     7
 79
     3
170
     0
171
     0
290
     0
174
     0
 93
        1
 44
0.0
173
     0
291
     0
 45
0.0
1001
ACAD
1000
AcDbSavedByObjectVersion
1070
     0
  0
VISUALSTYLE
  5
35
102
{ACAD_REACTORS
330
2A
102
}
102
{ACAD_XDICTIONARY
360
252
102
}
330
2A
100
AcDbVisualStyle
  2
Dim
 70
    11
 71
     2
 72
     2
 73
     0
 90
        0
 40
-0.6
 41
-30.0
 62
     5
 63
     7
 74
     1
 91
        4
 64
     7
 65
   257
 75
     1
175
     1
 42
1.0
 92
        8
 66
     7
 43
1.0
 76
     1
 77
     6
 78
     2
 67
     7
 79
     5
170
     0
171
     0
290
     0
174
     0
 93
        1
 44
-50.0
173
     0
291
     1
 45
0.0
1001
ACAD
1000
AcDbSavedByObjectVersion
1070
     0
  0
VISUALSTYLE
  5
39
102
{ACAD_REACTORS
330
2A
102
}
102
{ACAD_XDICTIONARY
360
25A
102
}
330
2A
100
AcDbVisualStyle
  2
Facepattern
 70
    15
 71
     2
 72
     2
 73
     0
 90
        0
 40
-0.6
 41
-30.0
 62
     5
 63
     7
 74
     1
 91
        4
 64
     7
 65
   257
 75
     1
175
     1
 42
1.0
 92
        8
 66
     7
 43
1.0
 76
     1
 77
     6
 78
     2
 67
     7
 79
     5
170
     0
171
     0
290
     0
174
     0
 93
        1
 44
0.0
173
     0
291
     1
 45
0.0
1001
ACAD
1000
AcDbSavedByObjectVersion
1070
     0
  0
VISUALSTYLE
  5
2B
102
{ACAD_REACTORS
330
2A
102
}
102
{ACAD_XDICTIONARY
360
23E
102
}
330
2A
100
AcDbVisualStyle
  2
Flat
 70
     0
 71
     2
 72
     1
 73
     1
 90
        2
 40
-0.6
 41
30.0
 62
     5
 63
     7
 74
     0
 91
        4
 64
     7
 65
   257
 75
     1
175
     1
 42
1.0
 92
        8
 66
     7
 43
1.0
 76
     1
 77
     6
 78
     2
 67
     7
 79
     5
170
     0
171
     0
290
     0
174
     0
 93
       13
 44
0.0
173
     0
291
     1
 45
0.0
1001
ACAD
1000
AcDbSavedByObjectVersion
1070
     0
  0
VISUALSTYLE
  5
2C
102
{ACAD_REACTORS
330
2A
102
}
102
{ACAD_XDICTIONARY
360
240
102
}
330
2A
100
AcDbVisualStyle
  2
FlatWithEdges
 70
     1
 71
     2
 72
     1
 73
     1
 90
        2
 40
-0.6
 41
30.0
 62
     5
 63
     7
 74
     1
 91
        4
 64
     7
 65
   257
 75
     1
175
     1
 42
1.0
 92
        0
 66
   257
 43
1.0
 76
     1
 77
     6
 78
     2
 67
     7
 79
     5
170
     0
171
     0
290
     0
174
     0
 93
       13
 44
0.0
173
     0
291
     1
 45
0.0
1001
ACAD
1000
AcDbSavedByObjectVersion
1070
     0
  0
VISUALSTYLE
  5
2D
102
{ACAD_REACTORS
330
2A
102
}
102
{ACAD_XDICTIONARY
360
242
102
}
330
2A
100
AcDbVisualStyle
  2
Gouraud
 70
     2
 71
     2
 72
     2
 73
     1
 90
        2
 40
-0.6
 41
30.0
 62
     5
 63
     7
 74
     0
 91
        4
 64
     7
 65
   257
 75
     1
175
     1
 42
1.0
 92
        0
 66
     7
 43
1.0
 76
     1
 77
     6
 78
     2
 67
     7
 79
     5
170
     0
171
     0
290
     0
174
     0
 93
       13
 44
0.0
173
     0
291
     1
 45
0.0
1001
ACAD
1000
AcDbSavedByObjectVersion
1070
     0
  0
VISUALSTYLE
  5
2E
102
{ACAD_REACTORS
330
2A
102
}
102
{ACAD_XDICTIONARY
360
244
102
}
330
2A
100
AcDbVisualStyle
  2
GouraudWithEdges
 70
     3
 71
     2
 72
     2
 73
     1
 90
        2
 40
-0.6
 41
30.0
 62
     5
 63
     7
 74
     1
 91
        4
 64
     7
 65
   257
 75
     1
175
     1
 42
1.0
 92
        0
 66
   257
 43
1.0
 76
     1
 77
     6
 78
     2
 67
     7
 79
     5
170
     0
171
     0
290
     0
174
     0
 93
       13
 44
0.0
173
     0
291
     1
 45
0.0
1001
ACAD
1000
AcDbSavedByObjectVersion
1070
     0
  0
VISUALSTYLE
  5
38
102
{ACAD_REACTORS
330
2A
102
}
102
{ACAD_XDICTIONARY
360
258
102
}
330
2A
100
AcDbVisualStyle
  2
Linepattern
 70
    14
 71
     2
 72
     2
 73
     0
 90
        0
 40
-0.6
 41
-30.0
 62
     5
 63
     7
 74
     1
 91
        4
 64
     7
 65
   257
 75
     7
175
     7
 42
1.0
 92
        8
 66
     7
 43
1.0
 76
     1
 77
     6
 78
     2
 67
     7
 79
     5
170
     0
171
     0
290
     0
174
     0
 93
        1
 44
0.0
173
     0
291
     1
 45
0.0
1001
ACAD
1000
AcDbSavedByObjectVersion
1070
     0
  0
VISUALSTYLE
  5
33
102
{ACAD_REACTORS
330
2A
102
}
102
{ACAD_XDICTIONARY
360
24E
102
}
330
2A
100
AcDbVisualStyle
  2
Realistic
 70
     8
 71
     2
 72
     2
 73
     0
 90
        0
 40
-0.6
 41
-30.0
 62
     5
 63
     7
 74
     1
 91
        0
 64
     7
 65
   257
 75
     1
175
     1
 42
1.0
 92
        8
 66
     8
 43
1.0
 76
     1
 77
     6
 78
     2
 67
     7
 79
     5
170
     0
171
     0
290
     0
174
     0
 93
       13
 44
0.0
173
     0
291
     0
 45
0.0
1001
ACAD
1000
AcDbSavedByObjectVersion
1070
     0
  0
VISUALSTYLE
  5
37
102
{ACAD_REACTORS
330
2A
102
}
102
{ACAD_XDICTIONARY
360
256
102
}
330
2A
100
AcDbVisualStyle
  2
Thicken
 70
    13
 71
     2
 72
     2
 73
     0
 90
        0
 40
-0.6
 41
-30.0
 62
     5
 63
     7
 74
     1
 91
        4
 64
     7
 65
   257
 75
     1
175
     1
 42
1.0
 92
       12
 66
     7
 43
1.0
 76
     1
 77
     6
 78
     2
 67
     7
 79
     5
170
     0
171
     0
290
     0
174
     0
 93
        1
 44
0.0
173
     0
291
     1
 45
0.0
1001
ACAD
1000
AcDbSavedByObjectVersion
1070
     0
  0
DICTIONARYVAR
  5
23B
102
{ACAD_REACTORS
330
238
102
}
330
238
100
DictionaryVariables
280
     0
  1
1:1
  0
DICTIONARYVAR
  5
23C
102
{ACAD_REACTORS
330
238
102
}
330
238
100
DictionaryVariables
280
     0
  1
2
  0
DICTIONARYVAR
  5
23D
102
{ACAD_REACTORS
330
238
102
}
330
238
100
DictionaryVariables
280
     0
  1
1
  0
DICTIONARY
  5
260
330
3D
100
AcDbDictionary
280
     1
281
     1
  3
ACAD_XREC_ROUNDTRIP
360
261
  0
DICTIONARY
  5
25E
330
3C
100
AcDbDictionary
280
     1
281
     1
  3
ACAD_XREC_ROUNDTRIP
360
25F
  0
DICTIONARY
  5
262
330
3E
100
AcDbDictionary
280
     1
281
     1
  3
ACAD_XREC_ROUNDTRIP
360
263
  0
DICTIONARY
  5
246
330
2F
100
AcDbDictionary
280
     1
281
     1
  3
ACAD_XREC_ROUNDTRIP
360
247
  0
DICTIONARY
  5
24A
330
31
100
AcDbDictionary
280
     1
281
     1
  3
ACAD_XREC_ROUNDTRIP
360
24B
  0
DICTIONARY
  5
248
330
30
100
AcDbDictionary
280
     1
281
     1
  3
ACAD_XREC_ROUNDTRIP
360
249
  0
DICTIONARY
  5
24C
330
32
100
AcDbDictionary
280
     1
281
     1
  3
ACAD_XREC_ROUNDTRIP
360
24D
  0
DICTIONARY
  5
254
330
36
100
AcDbDictionary
280
     1
281
     1
  3
ACAD_XREC_ROUNDTRIP
360
255
  0
DICTIONARY
  5
25C
330
3A
100
AcDbDictionary
280
     1
281
     1
  3
ACAD_XREC_ROUNDTRIP
360
25D
  0
DICTIONARY
  5
250
330
34
100
AcDbDictionary
280
     1
281
     1
  3
ACAD_XREC_ROUNDTRIP
360
251
  0
DICTIONARY
  5
252
330
35
100
AcDbDictionary
280
     1
281
     1
  3
ACAD_XREC_ROUNDTRIP
360
253
  0
DICTIONARY
  5
25A
330
39
100
AcDbDictionary
280
     1
281
     1
  3
ACAD_XREC_ROUNDTRIP
360
25B
  0
DICTIONARY
  5
23E
330
2B
100
AcDbDictionary
280
     1
281
     1
  3
ACAD_XREC_ROUNDTRIP
360
23F
  0
DICTIONARY
  5
240
330
2C
100
AcDbDictionary
280
     1
281
     1
  3
ACAD_XREC_ROUNDTRIP
360
241
  0
DICTIONARY
  5
242
330
2D
100
AcDbDictionary
280
     1
281
     1
  3
ACAD_XREC_ROUNDTRIP
360
243
  0
DICTIONARY
  5
244
330
2E
100
AcDbDictionary
280
     1
281
     1
  3
ACAD_XREC_ROUNDTRIP
360
245
  0
DICTIONARY
  5
258
330
38
100
AcDbDictionary
280
     1
281
     1
  3
ACAD_XREC_ROUNDTRIP
360
259
  0
DICTIONARY
  5
24E
330
33
100
AcDbDictionary
280
     1
281
     1
  3
ACAD_XREC_ROUNDTRIP
360
24F
  0
DICTIONARY
  5
256
330
37
100
AcDbDictionary
280
     1
281
     1
  3
ACAD_XREC_ROUNDTRIP
360
257
  0
XRECORD
  5
261
102
{ACAD_REACTORS
330
260
102
}
330
260
100
AcDbXrecord
280
     1
102
MATERIAL
148
0.0
149
0.0
149
0.0
 93
        0
 94
      127
282
     0
 72
     1
 77
     1
171
     1
175
     1
179
     1
273
     0
  0
XRECORD
  5
25F
102
{ACAD_REACTORS
330
25E
102
}
330
25E
100
AcDbXrecord
280
     1
102
MATERIAL
148
0.0
149
0.0
149
0.0
 93
        0
 94
      127
282
     0
 72
     1
 77
     1
171
     1
175
     1
179
     1
273
     0
  0
XRECORD
  5
263
102
{ACAD_REACTORS
330
262
102
}
330
262
100
AcDbXrecord
280
     1
102
MATERIAL
148
0.0
149
0.0
149
0.0
 93
        0
 94
      127
282
     0
 72
     1
 77
     1
171
     1
175
     1
179
     1
273
     0
  0
XRECORD
  5
247
102
{ACAD_REACTORS
330
246
102
}
330
246
100
AcDbXrecord
280
     1
102
RTVSPropertyOp0
 70
     1
102
RTVSPropertyOp1
 70
     1
102
RTVSPropertyOp2
 70
     1
102
RTVSPropertyOp3
 70
     1
102
RTVSPropertyOp4
 70
     1
102
RTVSPropertyOp5
 70
     1
102
RTVSPropertyOp6
 70
     1
102
RTVSPropertyOp7
 70
     1
102
RTVSPropertyOp8
 70
     1
102
RTVSPropertyOp9
 70
     1
102
RTVSPropertyOp10
 70
     1
102
RTVSPropertyOp11
 70
     1
102
RTVSPropertyOp12
 70
     1
102
RTVSPropertyOp13
 70
     1
102
RTVSPropertyOp14
 70
     1
102
RTVSPropertyOp15
 70
     1
102
RTVSPropertyOp16
 70
     1
102
RTVSPropertyOp17
 70
     1
102
RTVSPropertyOp18
 70
     1
102
RTVSPropertyOp19
 70
     1
102
RTVSPropertyOp20
 70
     1
102
RTVSPropertyOp21
 70
     1
102
RTVSPropertyOp22
 70
     1
102
RTVSPropertyOp23
 70
     1
102
RTVSPropertyOp24
 70
     1
102
RTVSPropertyOp25
 70
     1
102
RTVSPropertyOp26
 70
     1
102
RTVSPropertyOp27
 70
     1
  0
XRECORD
  5
24B
102
{ACAD_REACTORS
330
24A
102
}
330
24A
100
AcDbXrecord
280
     1
102
RTVSPropertyOp0
 70
     1
102
RTVSPropertyOp1
 70
     1
102
RTVSPropertyOp2
 70
     1
102
RTVSPropertyOp3
 70
     1
102
RTVSPropertyOp4
 70
     1
102
RTVSPropertyOp5
 70
     1
102
RTVSPropertyOp6
 70
     1
102
RTVSPropertyOp7
 70
     1
102
RTVSPropertyOp8
 70
     1
102
RTVSPropertyOp9
 70
     1
102
RTVSPropertyOp10
 70
     1
102
RTVSPropertyOp11
 70
     1
102
RTVSPropertyOp12
 70
     1
102
RTVSPropertyOp13
 70
     1
102
RTVSPropertyOp14
 70
     1
102
RTVSPropertyOp15
 70
     1
102
RTVSPropertyOp16
 70
     1
102
RTVSPropertyOp17
 70
     1
102
RTVSPropertyOp18
 70
     1
102
RTVSPropertyOp19
 70
     1
102
RTVSPropertyOp20
 70
     1
102
RTVSPropertyOp21
 70
     1
102
RTVSPropertyOp22
 70
     1
102
RTVSPropertyOp23
 70
     1
102
RTVSPropertyOp24
 70
     1
102
RTVSPropertyOp25
 70
     1
102
RTVSPropertyOp26
 70
     1
102
RTVSPropertyOp27
 70
     1
  0
XRECORD
  5
249
102
{ACAD_REACTORS
330
248
102
}
330
248
100
AcDbXrecord
280
     1
102
RTVSPropertyOp0
 70
     1
102
RTVSPropertyOp1
 70
     1
102
RTVSPropertyOp2
 70
     1
102
RTVSPropertyOp3
 70
     1
102
RTVSPropertyOp4
 70
     1
102
RTVSPropertyOp5
 70
     1
102
RTVSPropertyOp6
 70
     1
102
RTVSPropertyOp7
 70
     1
102
RTVSPropertyOp8
 70
     1
102
RTVSPropertyOp9
 70
     1
102
RTVSPropertyOp10
 70
     1
102
RTVSPropertyOp11
 70
     1
102
RTVSPropertyOp12
 70
     1
102
RTVSPropertyOp13
 70
     1
102
RTVSPropertyOp14
 70
     1
102
RTVSPropertyOp15
 70
     1
102
RTVSPropertyOp16
 70
     1
102
RTVSPropertyOp17
 70
     1
102
RTVSPropertyOp18
 70
     1
102
RTVSPropertyOp19
 70
     1
102
RTVSPropertyOp20
 70
     1
102
RTVSPropertyOp21
 70
     1
102
RTVSPropertyOp22
 70
     1
102
RTVSPropertyOp23
 70
     1
102
RTVSPropertyOp24
 70
     1
102
RTVSPropertyOp25
 70
     1
102
RTVSPropertyOp26
 70
     1
102
RTVSPropertyOp27
 70
     1
  0
XRECORD
  5
24D
102
{ACAD_REACTORS
330
24C
102
}
330
24C
100
AcDbXrecord
280
     1
102
RTVSPropertyOp0
 70
     1
102
RTVSPropertyOp1
 70
     1
102
RTVSPropertyOp2
 70
     1
102
RTVSPropertyOp3
 70
     1
102
RTVSPropertyOp4
 70
     1
102
RTVSPropertyOp5
 70
     1
102
RTVSPropertyOp6
 70
     1
102
RTVSPropertyOp7
 70
     1
102
RTVSPropertyOp8
 70
     1
102
RTVSPropertyOp9
 70
     1
102
RTVSPropertyOp10
 70
     1
102
RTVSPropertyOp11
 70
     1
102
RTVSPropertyOp12
 70
     1
102
RTVSPropertyOp13
 70
     1
102
RTVSPropertyOp14
 70
     1
102
RTVSPropertyOp15
 70
     1
102
RTVSPropertyOp16
 70
     1
102
RTVSPropertyOp17
 70
     1
102
RTVSPropertyOp18
 70
     1
102
RTVSPropertyOp19
 70
     1
102
RTVSPropertyOp20
 70
     1
102
RTVSPropertyOp21
 70
     1
102
RTVSPropertyOp22
 70
     1
102
RTVSPropertyOp23
 70
     1
102
RTVSPropertyOp24
 70
     1
102
RTVSPropertyOp25
 70
     1
102
RTVSPropertyOp26
 70
     1
102
RTVSPropertyOp27
 70
     1
  0
XRECORD
  5
255
102
{ACAD_REACTORS
330
254
102
}
330
254
100
AcDbXrecord
280
     1
102
RTVSPropertyOp0
 70
     1
102
RTVSPropertyOp1
 70
     1
102
RTVSPropertyOp2
 70
     1
102
RTVSPropertyOp3
 70
     1
102
RTVSPropertyOp4
 70
     1
102
RTVSPropertyOp5
 70
     1
102
RTVSPropertyOp6
 70
     1
102
RTVSPropertyOp7
 70
     1
102
RTVSPropertyOp8
 70
     1
102
RTVSPropertyOp9
 70
     1
102
RTVSPropertyOp10
 70
     1
102
RTVSPropertyOp11
 70
     1
102
RTVSPropertyOp12
 70
     1
102
RTVSPropertyOp13
 70
     1
102
RTVSPropertyOp14
 70
     1
102
RTVSPropertyOp15
 70
     1
102
RTVSPropertyOp16
 70
     1
102
RTVSPropertyOp17
 70
     1
102
RTVSPropertyOp18
 70
     1
102
RTVSPropertyOp19
 70
     1
102
RTVSPropertyOp20
 70
     1
102
RTVSPropertyOp21
 70
     1
102
RTVSPropertyOp22
 70
     1
102
RTVSPropertyOp23
 70
     1
102
RTVSPropertyOp24
 70
     1
102
RTVSPropertyOp25
 70
     1
102
RTVSPropertyOp26
 70
     1
102
RTVSPropertyOp27
 70
     1
  0
XRECORD
  5
25D
102
{ACAD_REACTORS
330
25C
102
}
330
25C
100
AcDbXrecord
280
     1
102
RTVSPropertyOp0
 70
     1
102
RTVSPropertyOp1
 70
     1
102
RTVSPropertyOp2
 70
     1
102
RTVSPropertyOp3
 70
     1
102
RTVSPropertyOp4
 70
     1
102
RTVSPropertyOp5
 70
     1
102
RTVSPropertyOp6
 70
     1
102
RTVSPropertyOp7
 70
     1
102
RTVSPropertyOp8
 70
     1
102
RTVSPropertyOp9
 70
     1
102
RTVSPropertyOp10
 70
     1
102
RTVSPropertyOp11
 70
     1
102
RTVSPropertyOp12
 70
     1
102
RTVSPropertyOp13
 70
     1
102
RTVSPropertyOp14
 70
     1
102
RTVSPropertyOp15
 70
     1
102
RTVSPropertyOp16
 70
     1
102
RTVSPropertyOp17
 70
     1
102
RTVSPropertyOp18
 70
     1
102
RTVSPropertyOp19
 70
     1
102
RTVSPropertyOp20
 70
     1
102
RTVSPropertyOp21
 70
     1
102
RTVSPropertyOp22
 70
     1
102
RTVSPropertyOp23
 70
     1
102
RTVSPropertyOp24
 70
     1
102
RTVSPropertyOp25
 70
     1
102
RTVSPropertyOp26
 70
     1
102
RTVSPropertyOp27
 70
     1
  0
XRECORD
  5
251
102
{ACAD_REACTORS
330
250
102
}
330
250
100
AcDbXrecord
280
     1
102
RTVSPropertyOp0
 70
     1
102
RTVSPropertyOp1
 70
     1
102
RTVSPropertyOp2
 70
     1
102
RTVSPropertyOp3
 70
     1
102
RTVSPropertyOp4
 70
     1
102
RTVSPropertyOp5
 70
     1
102
RTVSPropertyOp6
 70
     1
102
RTVSPropertyOp7
 70
     1
102
RTVSPropertyOp8
 70
     1
102
RTVSPropertyOp9
 70
     1
102
RTVSPropertyOp10
 70
     1
102
RTVSPropertyOp11
 70
     1
102
RTVSPropertyOp12
 70
     1
102
RTVSPropertyOp13
 70
     1
102
RTVSPropertyOp14
 70
     1
102
RTVSPropertyOp15
 70
     1
102
RTVSPropertyOp16
 70
     1
102
RTVSPropertyOp17
 70
     1
102
RTVSPropertyOp18
 70
     1
102
RTVSPropertyOp19
 70
     1
102
RTVSPropertyOp20
 70
     1
102
RTVSPropertyOp21
 70
     1
102
RTVSPropertyOp22
 70
     1
102
RTVSPropertyOp23
 70
     1
102
RTVSPropertyOp24
 70
     1
102
RTVSPropertyOp25
 70
     1
102
RTVSPropertyOp26
 70
     1
102
RTVSPropertyOp27
 70
     1
  0
XRECORD
  5
253
102
{ACAD_REACTORS
330
252
102
}
330
252
100
AcDbXrecord
280
     1
102
RTVSPropertyOp0
 70
     1
102
RTVSPropertyOp1
 70
     1
102
RTVSPropertyOp2
 70
     1
102
RTVSPropertyOp3
 70
     1
102
RTVSPropertyOp4
 70
     1
102
RTVSPropertyOp5
 70
     1
102
RTVSPropertyOp6
 70
     1
102
RTVSPropertyOp7
 70
     1
102
RTVSPropertyOp8
 70
     1
102
RTVSPropertyOp9
 70
     1
102
RTVSPropertyOp10
 70
     1
102
RTVSPropertyOp11
 70
     1
102
RTVSPropertyOp12
 70
     1
102
RTVSPropertyOp13
 70
     1
102
RTVSPropertyOp14
 70
     1
102
RTVSPropertyOp15
 70
     1
102
RTVSPropertyOp16
 70
     1
102
RTVSPropertyOp17
 70
     1
102
RTVSPropertyOp18
 70
     1
102
RTVSPropertyOp19
 70
     1
102
RTVSPropertyOp20
 70
     1
102
RTVSPropertyOp21
 70
     1
102
RTVSPropertyOp22
 70
     1
102
RTVSPropertyOp23
 70
     1
102
RTVSPropertyOp24
 70
     1
102
RTVSPropertyOp25
 70
     1
102
RTVSPropertyOp26
 70
     1
102
RTVSPropertyOp27
 70
     1
  0
XRECORD
  5
25B
102
{ACAD_REACTORS
330
25A
102
}
330
25A
100
AcDbXrecord
280
     1
102
RTVSPropertyOp0
 70
     1
102
RTVSPropertyOp1
 70
     1
102
RTVSPropertyOp2
 70
     1
102
RTVSPropertyOp3
 70
     1
102
RTVSPropertyOp4
 70
     1
102
RTVSPropertyOp5
 70
     1
102
RTVSPropertyOp6
 70
     1
102
RTVSPropertyOp7
 70
     1
102
RTVSPropertyOp8
 70
     1
102
RTVSPropertyOp9
 70
     1
102
RTVSPropertyOp10
 70
     1
102
RTVSPropertyOp11
 70
     1
102
RTVSPropertyOp12
 70
     1
102
RTVSPropertyOp13
 70
     1
102
RTVSPropertyOp14
 70
     1
102
RTVSPropertyOp15
 70
     1
102
RTVSPropertyOp16
 70
     1
102
RTVSPropertyOp17
 70
     1
102
RTVSPropertyOp18
 70
     1
102
RTVSPropertyOp19
 70
     1
102
RTVSPropertyOp20
 70
     1
102
RTVSPropertyOp21
 70
     1
102
RTVSPropertyOp22
 70
     1
102
RTVSPropertyOp23
 70
     1
102
RTVSPropertyOp24
 70
     1
102
RTVSPropertyOp25
 70
     1
102
RTVSPropertyOp26
 70
     1
102
RTVSPropertyOp27
 70
     1
  0
XRECORD
  5
23F
102
{ACAD_REACTORS
330
23E
102
}
330
23E
100
AcDbXrecord
280
     1
102
RTVSPropertyOp0
 70
     1
102
RTVSPropertyOp1
 70
     1
102
RTVSPropertyOp2
 70
     1
102
RTVSPropertyOp3
 70
     1
102
RTVSPropertyOp4
 70
     1
102
RTVSPropertyOp5
 70
     1
102
RTVSPropertyOp6
 70
     1
102
RTVSPropertyOp7
 70
     1
102
RTVSPropertyOp8
 70
     1
102
RTVSPropertyOp9
 70
     1
102
RTVSPropertyOp10
 70
     1
102
RTVSPropertyOp11
 70
     1
102
RTVSPropertyOp12
 70
     1
102
RTVSPropertyOp13
 70
     1
102
RTVSPropertyOp14
 70
     1
102
RTVSPropertyOp15
 70
     1
102
RTVSPropertyOp16
 70
     1
102
RTVSPropertyOp17
 70
     1
102
RTVSPropertyOp18
 70
     1
102
RTVSPropertyOp19
 70
     1
102
RTVSPropertyOp20
 70
     1
102
RTVSPropertyOp21
 70
     1
102
RTVSPropertyOp22
 70
     1
102
RTVSPropertyOp23
 70
     1
102
RTVSPropertyOp24
 70
     1
102
RTVSPropertyOp25
 70
     1
102
RTVSPropertyOp26
 70
     1
102
RTVSPropertyOp27
 70
     1
  0
XRECORD
  5
241
102
{ACAD_REACTORS
330
240
102
}
330
240
100
AcDbXrecord
280
     1
102
RTVSPropertyOp0
 70
     1
102
RTVSPropertyOp1
 70
     1
102
RTVSPropertyOp2
 70
     1
102
RTVSPropertyOp3
 70
     1
102
RTVSPropertyOp4
 70
     1
102
RTVSPropertyOp5
 70
     1
102
RTVSPropertyOp6
 70
     1
102
RTVSPropertyOp7
 70
     1
102
RTVSPropertyOp8
 70
     1
102
RTVSPropertyOp9
 70
     1
102
RTVSPropertyOp10
 70
     1
102
RTVSPropertyOp11
 70
     1
102
RTVSPropertyOp12
 70
     1
102
RTVSPropertyOp13
 70
     1
102
RTVSPropertyOp14
 70
     1
102
RTVSPropertyOp15
 70
     1
102
RTVSPropertyOp16
 70
     1
102
RTVSPropertyOp17
 70
     1
102
RTVSPropertyOp18
 70
     1
102
RTVSPropertyOp19
 70
     1
102
RTVSPropertyOp20
 70
     1
102
RTVSPropertyOp21
 70
     1
102
RTVSPropertyOp22
 70
     1
102
RTVSPropertyOp23
 70
     1
102
RTVSPropertyOp24
 70
     1
102
RTVSPropertyOp25
 70
     1
102
RTVSPropertyOp26
 70
     1
102
RTVSPropertyOp27
 70
     1
  0
XRECORD
  5
243
102
{ACAD_REACTORS
330
242
102
}
330
242
100
AcDbXrecord
280
     1
102
RTVSPropertyOp0
 70
     1
102
RTVSPropertyOp1
 70
     1
102
RTVSPropertyOp2
 70
     1
102
RTVSPropertyOp3
 70
     1
102
RTVSPropertyOp4
 70
     1
102
RTVSPropertyOp5
 70
     1
102
RTVSPropertyOp6
 70
     1
102
RTVSPropertyOp7
 70
     1
102
RTVSPropertyOp8
 70
     1
102
RTVSPropertyOp9
 70
     1
102
RTVSPropertyOp10
 70
     1
102
RTVSPropertyOp11
 70
     1
102
RTVSPropertyOp12
 70
     1
102
RTVSPropertyOp13
 70
     1
102
RTVSPropertyOp14
 70
     1
102
RTVSPropertyOp15
 70
     1
102
RTVSPropertyOp16
 70
     1
102
RTVSPropertyOp17
 70
     1
102
RTVSPropertyOp18
 70
     1
102
RTVSPropertyOp19
 70
     1
102
RTVSPropertyOp20
 70
     1
102
RTVSPropertyOp21
 70
     1
102
RTVSPropertyOp22
 70
     1
102
RTVSPropertyOp23
 70
     1
102
RTVSPropertyOp24
 70
     1
102
RTVSPropertyOp25
 70
     1
102
RTVSPropertyOp26
 70
     1
102
RTVSPropertyOp27
 70
     1
  0
XRECORD
  5
245
102
{ACAD_REACTORS
330
244
102
}
330
244
100
AcDbXrecord
280
     1
102
RTVSPropertyOp0
 70
     1
102
RTVSPropertyOp1
 70
     1
102
RTVSPropertyOp2
 70
     1
102
RTVSPropertyOp3
 70
     1
102
RTVSPropertyOp4
 70
     1
102
RTVSPropertyOp5
 70
     1
102
RTVSPropertyOp6
 70
     1
102
RTVSPropertyOp7
 70
     1
102
RTVSPropertyOp8
 70
     1
102
RTVSPropertyOp9
 70
     1
102
RTVSPropertyOp10
 70
     1
102
RTVSPropertyOp11
 70
     1
102
RTVSPropertyOp12
 70
     1
102
RTVSPropertyOp13
 70
     1
102
RTVSPropertyOp14
 70
     1
102
RTVSPropertyOp15
 70
     1
102
RTVSPropertyOp16
 70
     1
102
RTVSPropertyOp17
 70
     1
102
RTVSPropertyOp18
 70
     1
102
RTVSPropertyOp19
 70
     1
102
RTVSPropertyOp20
 70
     1
102
RTVSPropertyOp21
 70
     1
102
RTVSPropertyOp22
 70
     1
102
RTVSPropertyOp23
 70
     1
102
RTVSPropertyOp24
 70
     1
102
RTVSPropertyOp25
 70
     1
102
RTVSPropertyOp26
 70
     1
102
RTVSPropertyOp27
 70
     1
  0
XRECORD
  5
259
102
{ACAD_REACTORS
330
258
102
}
330
258
100
AcDbXrecord
280
     1
102
RTVSPropertyOp0
 70
     1
102
RTVSPropertyOp1
 70
     1
102
RTVSPropertyOp2
 70
     1
102
RTVSPropertyOp3
 70
     1
102
RTVSPropertyOp4
 70
     1
102
RTVSPropertyOp5
 70
     1
102
RTVSPropertyOp6
 70
     1
102
RTVSPropertyOp7
 70
     1
102
RTVSPropertyOp8
 70
     1
102
RTVSPropertyOp9
 70
     1
102
RTVSPropertyOp10
 70
     1
102
RTVSPropertyOp11
 70
     1
102
RTVSPropertyOp12
 70
     1
102
RTVSPropertyOp13
 70
     1
102
RTVSPropertyOp14
 70
     1
102
RTVSPropertyOp15
 70
     1
102
RTVSPropertyOp16
 70
     1
102
RTVSPropertyOp17
 70
     1
102
RTVSPropertyOp18
 70
     1
102
RTVSPropertyOp19
 70
     1
102
RTVSPropertyOp20
 70
     1
102
RTVSPropertyOp21
 70
     1
102
RTVSPropertyOp22
 70
     1
102
RTVSPropertyOp23
 70
     1
102
RTVSPropertyOp24
 70
     1
102
RTVSPropertyOp25
 70
     1
102
RTVSPropertyOp26
 70
     1
102
RTVSPropertyOp27
 70
     1
  0
XRECORD
  5
24F
102
{ACAD_REACTORS
330
24E
102
}
330
24E
100
AcDbXrecord
280
     1
102
RTVSPropertyOp0
 70
     1
102
RTVSPropertyOp1
 70
     1
102
RTVSPropertyOp2
 70
     1
102
RTVSPropertyOp3
 70
     1
102
RTVSPropertyOp4
 70
     1
102
RTVSPropertyOp5
 70
     1
102
RTVSPropertyOp6
 70
     1
102
RTVSPropertyOp7
 70
     1
102
RTVSPropertyOp8
 70
     1
102
RTVSPropertyOp9
 70
     1
102
RTVSPropertyOp10
 70
     1
102
RTVSPropertyOp11
 70
     1
102
RTVSPropertyOp12
 70
     1
102
RTVSPropertyOp13
 70
     1
102
RTVSPropertyOp14
 70
     1
102
RTVSPropertyOp15
 70
     1
102
RTVSPropertyOp16
 70
     1
102
RTVSPropertyOp17
 70
     1
102
RTVSPropertyOp18
 70
     1
102
RTVSPropertyOp19
 70
     1
102
RTVSPropertyOp20
 70
     1
102
RTVSPropertyOp21
 70
     1
102
RTVSPropertyOp22
 70
     1
102
RTVSPropertyOp23
 70
     1
102
RTVSPropertyOp24
 70
     1
102
RTVSPropertyOp25
 70
     1
102
RTVSPropertyOp26
 70
     1
102
RTVSPropertyOp27
 70
     1
  0
XRECORD
  5
257
102
{ACAD_REACTORS
330
256
102
}
330
256
100
AcDbXrecord
280
     1
102
RTVSPropertyOp0
 70
     1
102
RTVSPropertyOp1
 70
     1
102
RTVSPropertyOp2
 70
     1
102
RTVSPropertyOp3
 70
     1
102
RTVSPropertyOp4
 70
     1
102
RTVSPropertyOp5
 70
     1
102
RTVSPropertyOp6
 70
     1
102
RTVSPropertyOp7
 70
     1
102
RTVSPropertyOp8
 70
     1
102
RTVSPropertyOp9
 70
     1
102
RTVSPropertyOp10
 70
     1
102
RTVSPropertyOp11
 70
     1
102
RTVSPropertyOp12
 70
     1
102
RTVSPropertyOp13
 70
     1
102
RTVSPropertyOp14
 70
     1
102
RTVSPropertyOp15
 70
     1
102
RTVSPropertyOp16
 70
     1
102
RTVSPropertyOp17
 70
     1
102
RTVSPropertyOp18
 70
     1
102
RTVSPropertyOp19
 70
     1
102
RTVSPropertyOp20
 70
     1
102
RTVSPropertyOp21
 70
     1
102
RTVSPropertyOp22
 70
     1
102
RTVSPropertyOp23
 70
     1
102
RTVSPropertyOp24
 70
     1
102
RTVSPropertyOp25
 70
     1
102
RTVSPropertyOp26
 70
     1
102
RTVSPropertyOp27
 70
     1
  0
ENDSEC
  0
EOF
