  0
SECTION
  2
HEADER
  9
$ACADVER
  1
AC1015
  9
$ACADMAINTVER
 70
     6
  9
$DWGCODEPAGE
  3
ANSI_932
  9
$INSBASE
 10
0.0
 20
0.0
 30
0.0
  9
$EXTMIN
 10
32.39221543841225
 20
27.81160611999999
 30
0.0
  9
$EXTMAX
 10
235.12986904
 20
263.4126422413371
 30
0.0
  9
$LIMMIN
 10
32.39221543841225
 20
27.81160611999999
  9
$LIMMAX
 10
235.12986904
 20
263.4126422413371
  9
$ORTHOMODE
 70
     0
  9
$REGENMODE
 70
     1
  9
$FILLMODE
 70
     1
  9
$QTEXTMODE
 70
     0
  9
$MIRRTEXT
 70
     1
  9
$LTSCALE
 40
1.0
  9
$ATTMODE
 70
     1
  9
$TEXTSIZE
 40
0.2
  9
$TRACEWID
 40
0.05
  9
$TEXTSTYLE
  7
Standard
  9
$CLAYER
  8
0
  9
$CELTYPE
  6
ByLayer
  9
$CECOLOR
 62
   256
  9
$CELTSCALE
 40
1.0
  9
$DISPSILH
 70
     0
  9
$DIMSCALE
 40
1.0
  9
$DIMASZ
 40
0.18
  9
$DIMEXO
 40
0.0625
  9
$DIMDLI
 40
0.38
  9
$DIMRND
 40
0.0
  9
$DIMDLE
 40
0.0
  9
$DIMEXE
 40
0.18
  9
$DIMTP
 40
0.0
  9
$DIMTM
 40
0.0
  9
$DIMTXT
 40
0.18
  9
$DIMCEN
 40
0.09
  9
$DIMTSZ
 40
0.0
  9
$DIMTOL
 70
     0
  9
$DIMLIM
 70
     0
  9
$DIMTIH
 70
     1
  9
$DIMTOH
 70
     1
  9
$DIMSE1
 70
     0
  9
$DIMSE2
 70
     0
  9
$DIMTAD
 70
     0
  9
$DIMZIN
 70
     0
  9
$DIMBLK
  1

  9
$DIMASO
 70
     1
  9
$DIMSHO
 70
     1
  9
$DIMPOST
  1

  9
$DIMAPOST
  1

  9
$DIMALT
 70
     0
  9
$DIMALTD
 70
     2
  9
$DIMALTF
 40
25.4
  9
$DIMLFAC
 40
1.0
  9
$DIMTOFL
 70
     0
  9
$DIMTVP
 40
0.0
  9
$DIMTIX
 70
     0
  9
$DIMSOXD
 70
     0
  9
$DIMSAH
 70
     0
  9
$DIMBLK1
  1

  9
$DIMBLK2
  1

  9
$DIMSTYLE
  2
Standard
  9
$DIMCLRD
 70
     0
  9
$DIMCLRE
 70
     0
  9
$DIMCLRT
 70
     0
  9
$DIMTFAC
 40
1.0
  9
$DIMGAP
 40
0.09
  9
$DIMJUST
 70
     0
  9
$DIMSD1
 70
     0
  9
$DIMSD2
 70
     0
  9
$DIMTOLJ
 70
     1
  9
$DIMTZIN
 70
     0
  9
$DIMALTZ
 70
     0
  9
$DIMALTTZ
 70
     0
  9
$DIMUPT
 70
     0
  9
$DIMDEC
 70
     4
  9
$DIMTDEC
 70
     4
  9
$DIMALTU
 70
     2
  9
$DIMALTTD
 70
     2
  9
$DIMTXSTY
  7
Standard
  9
$DIMAUNIT
 70
     0
  9
$DIMADEC
 70
     0
  9
$DIMALTRND
 40
0.0
  9
$DIMAZIN
 70
     0
  9
$DIMDSEP
 70
    46
  9
$DIMATFIT
 70
     3
  9
$DIMFRAC
 70
     0
  9
$DIMLDRBLK
  1

  9
$DIMLUNIT
 70
     2
  9
$DIMLWD
 70
    -2
  9
$DIMLWE
 70
    -2
  9
$DIMTMOVE
 70
     0
  9
$LUNITS
 70
     2
  9
$LUPREC
 70
     4
  9
$SKETCHINC
 40
0.1
  9
$FILLETRAD
 40
0.5
  9
$AUNITS
 70
     0
  9
$AUPREC
 70
     0
  9
$MENU
  1
.
  9
$ELEVATION
 40
0.0
  9
$PELEVATION
 40
0.0
  9
$THICKNESS
 40
0.0
  9
$LIMCHECK
 70
     0
  9
$CHAMFERA
 40
0.5
  9
$CHAMFERB
 40
0.5
  9
$CHAMFERC
 40
1.0
  9
$CHAMFERD
 40
0.0
  9
$SKPOLY
 70
     0
  9
$TDCREATE
 40
2456238.384725046
  9
$TDUCREATE
 40
2456238.009725046
  9
$TDUPDATE
 40
2456238.384725058
  9
$TDUUPDATE
 40
2456238.009725058
  9
$TDINDWG
 40
0.0000000116
  9
$TDUSRTIMER
 40
0.0000000116
  9
$USRTIMER
 70
     1
  9
$ANGBASE
 50
0.0
  9
$ANGDIR
 70
     0
  9
$PDMODE
 70
     0
  9
$PDSIZE
 40
0.0
  9
$PLINEWID
 40
0.0
  9
$SPLFRAME
 70
     0
  9
$SPLINETYPE
 70
     6
  9
$SPLINESEGS
 70
     8
  9
$HANDSEED
  5
2F8
  9
$SURFTAB1
 70
     6
  9
$SURFTAB2
 70
     6
  9
$SURFTYPE
 70
     6
  9
$SURFU
 70
     6
  9
$SURFV
 70
     6
  9
$UCSBASE
  2

  9
$UCSNAME
  2

  9
$UCSORG
 10
0.0
 20
0.0
 30
0.0
  9
$UCSXDIR
 10
1.0
 20
0.0
 30
0.0
  9
$UCSYDIR
 10
0.0
 20
1.0
 30
0.0
  9
$UCSORTHOREF
  2

  9
$UCSORTHOVIEW
 70
     0
  9
$UCSORGTOP
 10
0.0
 20
0.0
 30
0.0
  9
$UCSORGBOTTOM
 10
0.0
 20
0.0
 30
0.0
  9
$UCSORGLEFT
 10
0.0
 20
0.0
 30
0.0
  9
$UCSORGRIGHT
 10
0.0
 20
0.0
 30
0.0
  9
$UCSORGFRONT
 10
0.0
 20
0.0
 30
0.0
  9
$UCSORGBACK
 10
0.0
 20
0.0
 30
0.0
  9
$PUCSBASE
  2

  9
$PUCSNAME
  2

  9
$PUCSORG
 10
0.0
 20
0.0
 30
0.0
  9
$PUCSXDIR
 10
1.0
 20
0.0
 30
0.0
  9
$PUCSYDIR
 10
0.0
 20
1.0
 30
0.0
  9
$PUCSORTHOREF
  2

  9
$PUCSORTHOVIEW
 70
     0
  9
$PUCSORGTOP
 10
0.0
 20
0.0
 30
0.0
  9
$PUCSORGBOTTOM
 10
0.0
 20
0.0
 30
0.0
  9
$PUCSORGLEFT
 10
0.0
 20
0.0
 30
0.0
  9
$PUCSORGRIGHT
 10
0.0
 20
0.0
 30
0.0
  9
$PUCSORGFRONT
 10
0.0
 20
0.0
 30
0.0
  9
$PUCSORGBACK
 10
0.0
 20
0.0
 30
0.0
  9
$USERI1
 70
     0
  9
$USERI2
 70
     0
  9
$USERI3
 70
     0
  9
$USERI4
 70
     0
  9
$USERI5
 70
     0
  9
$USERR1
 40
0.0
  9
$USERR2
 40
0.0
  9
$USERR3
 40
0.0
  9
$USERR4
 40
0.0
  9
$USERR5
 40
0.0
  9
$WORLDVIEW
 70
     1
  9
$SHADEDGE
 70
     3
  9
$SHADEDIF
 70
    70
  9
$TILEMODE
 70
     1
  9
$MAXACTVP
 70
    64
  9
$PINSBASE
 10
0.0
 20
0.0
 30
0.0
  9
$PLIMCHECK
 70
     0
  9
$PEXTMIN
 10
1.000000000000000E+20
 20
1.000000000000000E+20
 30
1.000000000000000E+20
  9
$PEXTMAX
 10
-1.000000000000000E+20
 20
-1.000000000000000E+20
 30
-1.000000000000000E+20
  9
$PLIMMIN
 10
0.0
 20
0.0
  9
$PLIMMAX
 10
12.0
 20
9.0
  9
$UNITMODE
 70
     0
  9
$VISRETAIN
 70
     1
  9
$PLINEGEN
 70
     0
  9
$PSLTSCALE
 70
     1
  9
$TREEDEPTH
 70
  3020
  9
$CMLSTYLE
  2
Standard
  9
$CMLJUST
 70
     0
  9
$CMLSCALE
 40
1.0
  9
$PROXYGRAPHICS
 70
     1
  9
$MEASUREMENT
 70
     0
  9
$CELWEIGHT
370
    -1
  9
$ENDCAPS
280
     0
  9
$JOINSTYLE
280
     0
  9
$LWDISPLAY
290
     0
  9
$INSUNITS
 70
     4
  9
$HYPERLINKBASE
  1

  9
$STYLESHEET
  1

  9
$XEDIT
290
     1
  9
$CEPSNTYPE
380
     0
  9
$PSTYLEMODE
290
     1
  9
$FINGERPRINTGUID
  2
{BA19A650-29DE-49B1-BF3D-ED410D0A503E}
  9
$VERSIONGUID
  2
{FAEB1C32-E019-11D5-929B-00C0DF256EC4}
  9
$EXTNAMES
290
     1
  9
$PSVPSCALE
 40
0.0
  9
$OLESTARTUP
290
     0
  0
ENDSEC
  0
SECTION
  2
CLASSES
  0
CLASS
  1
ACDBDICTIONARYWDFLT
  2
AcDbDictionaryWithDefault
  3
ObjectDBX Classes
 90
        0
280
     0
281
     0
  0
CLASS
  1
VISUALSTYLE
  2
AcDbVisualStyle
  3
ObjectDBX Classes
 90
     4095
280
     0
281
     0
  0
CLASS
  1
MATERIAL
  2
AcDbMaterial
  3
ObjectDBX Classes
 90
     1153
280
     0
281
     0
  0
CLASS
  1
SCALE
  2
AcDbScale
  3
ObjectDBX Classes
 90
     1153
280
     0
281
     0
  0
CLASS
  1
DICTIONARYVAR
  2
AcDbDictionaryVar
  3
ObjectDBX Classes
 90
        0
280
     0
281
     0
  0
CLASS
  1
ACDBPLACEHOLDER
  2
AcDbPlaceHolder
  3
ObjectDBX Classes
 90
        0
280
     0
281
     0
  0
CLASS
  1
LAYOUT
  2
AcDbLayout
  3
ObjectDBX Classes
 90
        0
280
     0
281
     0
  0
ENDSEC
  0
SECTION
  2
TABLES
  0
TABLE
  2
VPORT
  5
8
330
0
100
AcDbSymbolTable
 70
     1
  0
VPORT
  5
29
330
8
100
AcDbSymbolTableRecord
100
AcDbViewportTableRecord
  2
*Active
 70
     0
 10
0.0
 20
0.0
 11
1.0
 21
1.0
 12
133.7610422392061
 22
145.6895051330495
 13
0.0
 23
0.0
 14
0.5
 24
0.5
 15
0.5
 25
0.5
 16
0.0
 26
0.0
 36
1.0
 17
0.0
 27
0.0
 37
0.0
 40
240.470913986621
 41
0.859947688663606
 42
50.0
 43
0.0
 44
0.0
 50
0.0
 51
0.0
 71
     0
 72
  1000
 73
     1
 74
     3
 75
     0
 76
     0
 77
     0
 78
     0
281
     0
 65
     1
110
0.0
120
0.0
130
0.0
111
1.0
121
0.0
131
0.0
112
0.0
122
1.0
132
0.0
 79
     0
146
0.0
  0
ENDTAB
  0
TABLE
  2
LTYPE
  5
5
330
0
100
AcDbSymbolTable
 70
     3
  0
LTYPE
  5
14
330
5
100
AcDbSymbolTableRecord
100
AcDbLinetypeTableRecord
  2
ByBlock
 70
     0
  3

 72
    65
 73
     0
 40
0.0
  0
LTYPE
  5
15
330
5
100
AcDbSymbolTableRecord
100
AcDbLinetypeTableRecord
  2
ByLayer
 70
     0
  3

 72
    65
 73
     0
 40
0.0
  0
LTYPE
  5
16
330
5
100
AcDbSymbolTableRecord
100
AcDbLinetypeTableRecord
  2
Continuous
 70
     0
  3
Solid line
 72
    65
 73
     0
 40
0.0
  0
LTYPE
  5
3F
330
5
100
AcDbSymbolTableRecord
100
AcDbLinetypeTableRecord
  2
chain
 70
     0
  3
_____ __ _____ __ _____
 72
    65
 73
     4
 40
18.5
 49
12.0
 74
     4
 75
     0
340
0
 46
1.0
 50
0.0
 44
0.0
 45
0.0
 49
-1.5
 74
     4
 75
     0
340
0
 46
1.0
 50
0.0
 44
0.0
 45
0.0
 49
3.5
 74
     4
 75
     0
340
0
 46
1.0
 50
0.0
 44
0.0
 45
0.0
 49
-1.5
 74
     4
 75
     0
340
0
 46
1.0
 50
0.0
 44
0.0
 45
0.0
  0
LTYPE
  5
40
330
5
100
AcDbSymbolTableRecord
100
AcDbLinetypeTableRecord
  2
dashed dotted
 70
     0
  3
_____  _  _____  _  _____
 72
    65
 73
     4
 40
9.3
 49
6.0
 74
     4
 75
     0
340
0
 46
1.0
 50
0.0
 44
0.0
 45
0.0
 49
-1.5
 74
     4
 75
     0
340
0
 46
1.0
 50
0.0
 44
0.0
 45
0.0
 49
0.25
 74
     4
 75
     0
340
0
 46
1.0
 50
0.0
 44
0.0
 45
0.0
 49
-1.5
 74
     4
 75
     0
340
0
 46
1.0
 50
0.0
 44
0.0
 45
0.0
  0
ENDTAB
  0
TABLE
  2
LAYER
  5
2
330
0
100
AcDbSymbolTable
 70
    10
  0
LAYER
  5
10
330
2
100
AcDbSymbolTableRecord
100
AcDbLayerTableRecord
  2
0
 70
     0
 62
     7
  6
Continuous
370
    -3
390
F
  0
LAYER
  5
41
330
2
100
AcDbSymbolTableRecord
100
AcDbLayerTableRecord
  2
D-TTL
 70
     0
 62
     7
  6
Continuous
370
    -3
390
F
  0
LAYER
  5
42
330
2
100
AcDbSymbolTableRecord
100
AcDbLayerTableRecord
  2
D-TTL-TXT
 70
     0
 62
     7
  6
Continuous
370
    -3
390
F
  0
LAYER
  5
43
330
2
100
AcDbSymbolTableRecord
100
AcDbLayerTableRecord
  2
D-BGD
 70
     0
 62
   134
  6
Continuous
370
    -3
390
F
  0
LAYER
  5
44
330
2
100
AcDbSymbolTableRecord
100
AcDbLayerTableRecord
  2
D-BMK
 70
     0
 62
     5
  6
dashed dotted
370
    -3
390
F
  0
LAYER
  5
45
330
2
100
AcDbSymbolTableRecord
100
AcDbLayerTableRecord
  2
D-STR
 70
     0
 62
     7
  6
Continuous
370
    -3
390
F
  0
LAYER
  5
46
330
2
100
AcDbSymbolTableRecord
100
AcDbLayerTableRecord
  2
D-STR-STR2
 70
     0
 62
   134
  6
Continuous
370
    -3
390
F
  0
LAYER
  5
47
330
2
100
AcDbSymbolTableRecord
100
AcDbLayerTableRecord
  2
D-STR-STRB
 70
     0
 62
   132
  6
Continuous
370
    -3
390
F
  0
LAYER
  5
48
330
2
100
AcDbSymbolTableRecord
100
AcDbLayerTableRecord
  2
D-STR-DIM
 70
     0
 62
     5
  6
Continuous
370
    -3
390
F
  0
LAYER
  5
D4
330
2
100
AcDbSymbolTableRecord
100
AcDbLayerTableRecord
  2
Defpoints
 70
     0
 62
     7
  6
Continuous
290
     0
370
    -3
390
F
  0
ENDTAB
  0
TABLE
  2
STYLE
  5
3
330
0
100
AcDbSymbolTable
 70
     3
  0
STYLE
  5
11
330
3
100
AcDbSymbolTableRecord
100
AcDbTextStyleTableRecord
  2
Standard
 70
     0
 40
0.0
 41
1.0
 50
0.0
 71
     0
 42
0.2
  3
txt
  4

  0
STYLE
  5
49
330
3
100
AcDbSymbolTableRecord
100
AcDbTextStyleTableRecord
  2
STANDARD-FC
 70
     0
 40
0.0
 41
1.0
 50
0.0
 71
     0
 42
0.2
  3
txt
  4
bigfont
  0
STYLE
  5
4A
330
3
100
AcDbSymbolTableRecord
100
AcDbTextStyleTableRecord
  2
ＭＳ ゴシック
 70
     0
 40
0.0
 41
1.0
 50
0.0
 71
     0
 42
0.2
  3
msgothic.ttc
  4

1001
ACAD
1000
MS Gothic
1071
    32817
  0
ENDTAB
  0
TABLE
  2
VIEW
  5
6
330
0
100
AcDbSymbolTable
 70
     0
  0
ENDTAB
  0
TABLE
  2
UCS
  5
7
330
0
100
AcDbSymbolTable
 70
     0
  0
ENDTAB
  0
TABLE
  2
APPID
  5
9
330
0
100
AcDbSymbolTable
 70
     1
  0
APPID
  5
12
330
9
100
AcDbSymbolTableRecord
100
AcDbRegAppTableRecord
  2
ACAD
 70
     0
  0
ENDTAB
  0
TABLE
  2
DIMSTYLE
  5
A
330
0
100
AcDbSymbolTable
 70
     1
100
AcDbDimStyleTable
  0
DIMSTYLE
105
27
102
{ACAD_REACTORS
330
D3
330
E1
330
EE
330
1FC
330
209
330
216
330
29D
102
}
330
A
100
AcDbSymbolTableRecord
100
AcDbDimStyleTableRecord
  2
Standard
 70
     0
178
     0
340
11
  0
ENDTAB
  0
TABLE
  2
BLOCK_RECORD
  5
1
330
0
100
AcDbSymbolTable
 70
     9
  0
BLOCK_RECORD
  5
1F
330
1
100
AcDbSymbolTableRecord
100
AcDbBlockTableRecord
  2
*Model_Space
340
22
  0
BLOCK_RECORD
  5
1B
330
1
100
AcDbSymbolTableRecord
100
AcDbBlockTableRecord
  2
*Paper_Space
340
1E
  0
BLOCK_RECORD
  5
23
330
1
100
AcDbSymbolTableRecord
100
AcDbBlockTableRecord
  2
*Paper_Space0
340
26
  0
BLOCK_RECORD
  5
D5
330
1
100
AcDbSymbolTableRecord
100
AcDbBlockTableRecord
  2
*D1
340
0
  0
BLOCK_RECORD
  5
E2
330
1
100
AcDbSymbolTableRecord
100
AcDbBlockTableRecord
  2
*D2
340
0
  0
BLOCK_RECORD
  5
EF
330
1
100
AcDbSymbolTableRecord
100
AcDbBlockTableRecord
  2
*D3
340
0
  0
BLOCK_RECORD
  5
1FD
330
1
100
AcDbSymbolTableRecord
100
AcDbBlockTableRecord
  2
*D4
340
0
  0
BLOCK_RECORD
  5
20A
330
1
100
AcDbSymbolTableRecord
100
AcDbBlockTableRecord
  2
*D5
340
0
  0
BLOCK_RECORD
  5
217
330
1
100
AcDbSymbolTableRecord
100
AcDbBlockTableRecord
  2
*D6
340
0
  0
BLOCK_RECORD
  5
297
330
1
100
AcDbSymbolTableRecord
100
AcDbBlockTableRecord
  2
_Open
340
0
102
{BLKREFS
331
2A2
331
2A3
102
}
  0
BLOCK_RECORD
  5
29E
330
1
100
AcDbSymbolTableRecord
100
AcDbBlockTableRecord
  2
*D8
340
0
  0
ENDTAB
  0
ENDSEC
  0
SECTION
  2
BLOCKS
  0
BLOCK
  5
20
330
1F
100
AcDbEntity
  8
0
100
AcDbBlockBegin
  2
*Model_Space
 70
     0
 10
0.0
 20
0.0
 30
0.0
  3
*Model_Space
  1

  0
ENDBLK
  5
21
330
1F
100
AcDbEntity
  8
0
100
AcDbBlockEnd
  0
BLOCK
  5
1C
330
1B
100
AcDbEntity
 67
     1
  8
0
100
AcDbBlockBegin
  2
*Paper_Space
 70
     0
 10
0.0
 20
0.0
 30
0.0
  3
*Paper_Space
  1

  0
ENDBLK
  5
1D
330
1B
100
AcDbEntity
 67
     1
  8
0
100
AcDbBlockEnd
  0
BLOCK
  5
24
330
23
100
AcDbEntity
  8
0
100
AcDbBlockBegin
  2
*Paper_Space0
 70
     0
 10
0.0
 20
0.0
 30
0.0
  3
*Paper_Space0
  1

  0
ENDBLK
  5
25
330
23
100
AcDbEntity
  8
0
100
AcDbBlockEnd
  0
BLOCK
  5
DF
330
D5
100
AcDbEntity
  8
0
100
AcDbBlockBegin
  2
*D1
 70
     1
 10
0.0
 20
0.0
 30
0.0
  3
*D1
  1

  0
LINE
  5
D6
330
D5
100
AcDbEntity
  8
D-STR-DIM
  6
Continuous
 62
     5
370
    -2
100
AcDbLine
 10
51.71265129841225
 20
236.4940738413371
 30
0.0
 11
51.71265129841225
 21
219.3960738413371
 31
0.0
  0
LINE
  5
D7
330
D5
100
AcDbEntity
  8
D-STR-DIM
  6
Continuous
 62
     5
370
    -2
100
AcDbLine
 10
76.71265129841225
 20
231.9460739813371
 30
0.0
 11
76.71265129841225
 21
219.3960738413371
 31
0.0
  0
LINE
  5
D8
330
D5
100
AcDbEntity
  8
D-STR-DIM
  6
Continuous
 62
     5
370
    -2
100
AcDbLine
 10
52.71265129841223
 20
220.3960738413371
 30
0.0
 11
75.71265129841228
 21
220.3960738413371
 31
0.0
  0
SOLID
  5
D9
330
D5
100
AcDbEntity
  8
D-STR-DIM
 62
     5
100
AcDbTrace
 10
52.71265129841223
 20
220.5627405080037
 30
0.0
 11
52.71265129841223
 21
220.2294071746704
 31
0.0
 12
51.71265129841225
 22
220.3960738413371
 32
0.0
 13
51.71265129841225
 23
220.3960738413371
 33
0.0
  0
SOLID
  5
DA
330
D5
100
AcDbEntity
  8
D-STR-DIM
 62
     5
100
AcDbTrace
 10
75.71265129841228
 20
220.2294071746704
 30
0.0
 11
75.71265129841228
 21
220.5627405080037
 31
0.0
 12
76.71265129841225
 22
220.3960738413371
 32
0.0
 13
76.71265129841225
 23
220.3960738413371
 33
0.0
  0
MTEXT
  5
DB
330
D5
100
AcDbEntity
  8
D-STR-DIM
 62
     5
370
    13
100
AcDbMText
 10
64.21265129841225
 20
222.6460738413371
 30
0.0
 40
2.777777777777778
 41
0.0
 71
     5
 72
     1
  1
\A1;歩　道
  7
ＭＳ ゴシック
 73
     1
 44
1.0
1001
ACAD
1000
ACAD_MTEXT_DEFINED_HEIGHT_BEGIN
1070
    46
1040
0.2
1000
ACAD_MTEXT_DEFINED_HEIGHT_END
  0
POINT
  5
DC
330
D5
100
AcDbEntity
  8
Defpoints
 62
     0
100
AcDbPoint
 10
51.71265129841225
 20
237.4940738413371
 30
0.0
  0
POINT
  5
DD
330
D5
100
AcDbEntity
  8
Defpoints
 62
     0
100
AcDbPoint
 10
76.71265129841225
 20
232.9460739813371
 30
0.0
  0
POINT
  5
DE
330
D5
100
AcDbEntity
  8
Defpoints
 62
     0
100
AcDbPoint
 10
76.71265129841225
 20
220.3960738413371
 30
0.0
  0
ENDBLK
  5
E0
330
D5
100
AcDbEntity
  8
0
100
AcDbBlockEnd
  0
BLOCK
  5
EC
330
E2
100
AcDbEntity
  8
0
100
AcDbBlockBegin
  2
*D2
 70
     1
 10
0.0
 20
0.0
 30
0.0
  3
*D2
  1

  0
LINE
  5
E3
330
E2
100
AcDbEntity
  8
D-STR-DIM
  6
Continuous
 62
     5
370
    -2
100
AcDbLine
 10
76.71265129841225
 20
231.9460739813371
 30
0.0
 11
76.71265129841225
 21
219.3960738413371
 31
0.0
  0
LINE
  5
E4
330
E2
100
AcDbEntity
  8
D-STR-DIM
  6
Continuous
 62
     5
370
    -2
100
AcDbLine
 10
146.7126512984123
 20
231.9460739813371
 30
0.0
 11
146.7126512984123
 21
219.3960738413371
 31
0.0
  0
LINE
  5
E5
330
E2
100
AcDbEntity
  8
D-STR-DIM
  6
Continuous
 62
     5
370
    -2
100
AcDbLine
 10
77.71265129841223
 20
220.3960738413371
 30
0.0
 11
145.7126512984123
 21
220.3960738413371
 31
0.0
  0
SOLID
  5
E6
330
E2
100
AcDbEntity
  8
D-STR-DIM
 62
     5
100
AcDbTrace
 10
77.71265129841223
 20
220.5627405080037
 30
0.0
 11
77.71265129841223
 21
220.2294071746704
 31
0.0
 12
76.71265129841225
 22
220.3960738413371
 32
0.0
 13
76.71265129841225
 23
220.3960738413371
 33
0.0
  0
SOLID
  5
E7
330
E2
100
AcDbEntity
  8
D-STR-DIM
 62
     5
100
AcDbTrace
 10
145.7126512984123
 20
220.2294071746704
 30
0.0
 11
145.7126512984123
 21
220.5627405080037
 31
0.0
 12
146.7126512984123
 22
220.3960738413371
 32
0.0
 13
146.7126512984123
 23
220.3960738413371
 33
0.0
  0
MTEXT
  5
E8
330
E2
100
AcDbEntity
  8
D-STR-DIM
 62
     5
370
    13
100
AcDbMText
 10
111.7126512984123
 20
222.6460738413371
 30
0.0
 40
2.777777777777778
 41
0.0
 71
     5
 72
     1
  1
\A1;車　道
  7
ＭＳ ゴシック
 73
     1
 44
1.0
1001
ACAD
1000
ACAD_MTEXT_DEFINED_HEIGHT_BEGIN
1070
    46
1040
0.2
1000
ACAD_MTEXT_DEFINED_HEIGHT_END
  0
POINT
  5
E9
330
E2
100
AcDbEntity
  8
Defpoints
 62
     0
100
AcDbPoint
 10
76.71265129841225
 20
232.9460739813371
 30
0.0
  0
POINT
  5
EA
330
E2
100
AcDbEntity
  8
Defpoints
 62
     0
100
AcDbPoint
 10
146.7126512984123
 20
232.9460739813371
 30
0.0
  0
POINT
  5
EB
330
E2
100
AcDbEntity
  8
Defpoints
 62
     0
100
AcDbPoint
 10
146.7126512984123
 20
220.3960738413371
 30
0.0
  0
ENDBLK
  5
ED
330
E2
100
AcDbEntity
  8
0
100
AcDbBlockEnd
  0
BLOCK
  5
F9
330
EF
100
AcDbEntity
  8
0
100
AcDbBlockBegin
  2
*D3
 70
     1
 10
0.0
 20
0.0
 30
0.0
  3
*D3
  1

  0
LINE
  5
F0
330
EF
100
AcDbEntity
  8
D-STR-DIM
  6
Continuous
 62
     5
370
    -2
100
AcDbLine
 10
146.7126512984123
 20
231.9460739813371
 30
0.0
 11
146.7126512984123
 21
219.3960738413371
 31
0.0
  0
LINE
  5
F1
330
EF
100
AcDbEntity
  8
D-STR-DIM
  6
Continuous
 62
     5
370
    -2
100
AcDbLine
 10
171.7126512984123
 20
236.6920738413371
 30
0.0
 11
171.7126512984123
 21
219.3960738413371
 31
0.0
  0
LINE
  5
F2
330
EF
100
AcDbEntity
  8
D-STR-DIM
  6
Continuous
 62
     5
370
    -2
100
AcDbLine
 10
147.7126512984122
 20
220.3960738413371
 30
0.0
 11
170.7126512984123
 21
220.3960738413371
 31
0.0
  0
SOLID
  5
F3
330
EF
100
AcDbEntity
  8
D-STR-DIM
 62
     5
100
AcDbTrace
 10
147.7126512984122
 20
220.5627405080037
 30
0.0
 11
147.7126512984122
 21
220.2294071746704
 31
0.0
 12
146.7126512984123
 22
220.3960738413371
 32
0.0
 13
146.7126512984123
 23
220.3960738413371
 33
0.0
  0
SOLID
  5
F4
330
EF
100
AcDbEntity
  8
D-STR-DIM
 62
     5
100
AcDbTrace
 10
170.7126512984123
 20
220.2294071746704
 30
0.0
 11
170.7126512984123
 21
220.5627405080037
 31
0.0
 12
171.7126512984123
 22
220.3960738413371
 32
0.0
 13
171.7126512984123
 23
220.3960738413371
 33
0.0
  0
MTEXT
  5
F5
330
EF
100
AcDbEntity
  8
D-STR-DIM
 62
     5
370
    13
100
AcDbMText
 10
159.2126512984123
 20
222.6460738413371
 30
0.0
 40
2.777777777777778
 41
0.0
 71
     5
 72
     1
  1
\A1;歩　道
  7
ＭＳ ゴシック
 73
     1
 44
1.0
1001
ACAD
1000
ACAD_MTEXT_DEFINED_HEIGHT_BEGIN
1070
    46
1040
0.2
1000
ACAD_MTEXT_DEFINED_HEIGHT_END
  0
POINT
  5
F6
330
EF
100
AcDbEntity
  8
Defpoints
 62
     0
100
AcDbPoint
 10
146.7126512984123
 20
232.9460739813371
 30
0.0
  0
POINT
  5
F7
330
EF
100
AcDbEntity
  8
Defpoints
 62
     0
100
AcDbPoint
 10
171.7126512984123
 20
237.6920738413371
 30
0.0
  0
POINT
  5
F8
330
EF
100
AcDbEntity
  8
Defpoints
 62
     0
100
AcDbPoint
 10
171.7126512984123
 20
220.3960738413371
 30
0.0
  0
ENDBLK
  5
FA
330
EF
100
AcDbEntity
  8
0
100
AcDbBlockEnd
  0
BLOCK
  5
207
330
1FD
100
AcDbEntity
  8
0
100
AcDbBlockBegin
  2
*D4
 70
     1
 10
0.0
 20
0.0
 30
0.0
  3
*D4
  1

  0
LINE
  5
1FE
330
1FD
100
AcDbEntity
  8
D-STR-DIM
  6
Continuous
 62
     5
370
    -2
100
AcDbLine
 10
53.81626590841226
 20
150.7940662781059
 30
0.0
 11
53.81626590841225
 21
169.5240662781059
 31
0.0
  0
LINE
  5
1FF
330
1FD
100
AcDbEntity
  8
D-STR-DIM
  6
Continuous
 62
     5
370
    -2
100
AcDbLine
 10
153.8162659084122
 20
164.5240662781059
 30
0.0
 11
153.8162659084122
 21
169.5240662781059
 31
0.0
  0
LINE
  5
200
330
1FD
100
AcDbEntity
  8
D-STR-DIM
  6
Continuous
 62
     5
370
    -2
100
AcDbLine
 10
54.81626590841222
 20
168.5240662781059
 30
0.0
 11
152.8162659084123
 21
168.5240662781059
 31
0.0
  0
SOLID
  5
201
330
1FD
100
AcDbEntity
  8
D-STR-DIM
 62
     5
100
AcDbTrace
 10
54.81626590841222
 20
168.6907329447725
 30
0.0
 11
54.81626590841222
 21
168.3573996114392
 31
0.0
 12
53.81626590841225
 22
168.5240662781059
 32
0.0
 13
53.81626590841225
 23
168.5240662781059
 33
0.0
  0
SOLID
  5
202
330
1FD
100
AcDbEntity
  8
D-STR-DIM
 62
     5
100
AcDbTrace
 10
152.8162659084123
 20
168.3573996114392
 30
0.0
 11
152.8162659084123
 21
168.6907329447725
 31
0.0
 12
153.8162659084122
 22
168.5240662781059
 32
0.0
 13
153.8162659084122
 23
168.5240662781059
 33
0.0
  0
MTEXT
  5
203
330
1FD
100
AcDbEntity
  8
D-STR-DIM
 62
     5
370
    13
100
AcDbMText
 10
103.8162659084123
 20
170.7740662781059
 30
0.0
 40
2.777777777777778
 41
0.0
 71
     5
 72
     1
  1
\A1;有効幅員 5.0m以上
  7
ＭＳ ゴシック
 73
     1
 44
1.0
1001
ACAD
1000
ACAD_MTEXT_DEFINED_HEIGHT_BEGIN
1070
    46
1040
0.2
1000
ACAD_MTEXT_DEFINED_HEIGHT_END
  0
POINT
  5
204
330
1FD
100
AcDbEntity
  8
Defpoints
 62
     0
100
AcDbPoint
 10
53.81626590841226
 20
149.7940662781059
 30
0.0
  0
POINT
  5
205
330
1FD
100
AcDbEntity
  8
Defpoints
 62
     0
100
AcDbPoint
 10
153.8162659084122
 20
163.5240662781059
 30
0.0
  0
POINT
  5
206
330
1FD
100
AcDbEntity
  8
Defpoints
 62
     0
100
AcDbPoint
 10
153.8162659084122
 20
168.5240662781059
 30
0.0
  0
ENDBLK
  5
208
330
1FD
100
AcDbEntity
  8
0
100
AcDbBlockEnd
  0
BLOCK
  5
214
330
20A
100
AcDbEntity
  8
0
100
AcDbBlockBegin
  2
*D5
 70
     1
 10
0.0
 20
0.0
 30
0.0
  3
*D5
  1

  0
LINE
  5
20B
330
20A
100
AcDbEntity
  8
D-STR-DIM
  6
Continuous
 62
     5
370
    -2
100
AcDbLine
 10
51.81626590841226
 20
151.1940662781059
 30
0.0
 11
51.81626590841225
 21
177.5240662781059
 31
0.0
  0
LINE
  5
20C
330
20A
100
AcDbEntity
  8
D-STR-DIM
  6
Continuous
 62
     5
370
    -2
100
AcDbLine
 10
175.8162659084122
 20
149.5223206381059
 30
0.0
 11
175.8162659084122
 21
177.5240662781059
 31
0.0
  0
LINE
  5
20D
330
20A
100
AcDbEntity
  8
D-STR-DIM
  6
Continuous
 62
     5
370
    -2
100
AcDbLine
 10
52.81626590841222
 20
176.5240662781059
 30
0.0
 11
174.8162659084123
 21
176.5240662781059
 31
0.0
  0
SOLID
  5
20E
330
20A
100
AcDbEntity
  8
D-STR-DIM
 62
     5
100
AcDbTrace
 10
52.81626590841222
 20
176.6907329447725
 30
0.0
 11
52.81626590841222
 21
176.3573996114392
 31
0.0
 12
51.81626590841225
 22
176.5240662781059
 32
0.0
 13
51.81626590841225
 23
176.5240662781059
 33
0.0
  0
SOLID
  5
20F
330
20A
100
AcDbEntity
  8
D-STR-DIM
 62
     5
100
AcDbTrace
 10
174.8162659084123
 20
176.3573996114392
 30
0.0
 11
174.8162659084123
 21
176.6907329447725
 31
0.0
 12
175.8162659084122
 22
176.5240662781059
 32
0.0
 13
175.8162659084122
 23
176.5240662781059
 33
0.0
  0
MTEXT
  5
210
330
20A
100
AcDbEntity
  8
D-STR-DIM
 62
     5
370
    13
100
AcDbMText
 10
113.8162659084123
 20
178.7740662781059
 30
0.0
 40
2.777777777777778
 41
0.0
 71
     5
 72
     1
  1
\A1;道路区域
  7
ＭＳ ゴシック
 73
     1
 44
1.0
1001
ACAD
1000
ACAD_MTEXT_DEFINED_HEIGHT_BEGIN
1070
    46
1040
0.2
1000
ACAD_MTEXT_DEFINED_HEIGHT_END
  0
POINT
  5
211
330
20A
100
AcDbEntity
  8
Defpoints
 62
     0
100
AcDbPoint
 10
51.81626590841226
 20
150.1940662781059
 30
0.0
  0
POINT
  5
212
330
20A
100
AcDbEntity
  8
Defpoints
 62
     0
100
AcDbPoint
 10
175.8162659084122
 20
148.5223206381059
 30
0.0
  0
POINT
  5
213
330
20A
100
AcDbEntity
  8
Defpoints
 62
     0
100
AcDbPoint
 10
175.8162659084122
 20
176.5240662781059
 30
0.0
  0
ENDBLK
  5
215
330
20A
100
AcDbEntity
  8
0
100
AcDbBlockEnd
  0
BLOCK
  5
221
330
217
100
AcDbEntity
  8
0
100
AcDbBlockBegin
  2
*D6
 70
     1
 10
0.0
 20
0.0
 30
0.0
  3
*D6
  1

  0
LINE
  5
218
330
217
100
AcDbEntity
  8
D-STR-DIM
  6
Continuous
 62
     5
370
    -2
100
AcDbLine
 10
51.81626590841226
 20
151.1940662781059
 30
0.0
 11
51.81626590841226
 21
156.1940662781059
 31
0.0
  0
LINE
  5
219
330
217
100
AcDbEntity
  8
D-STR-DIM
  6
Continuous
 62
     5
370
    -2
100
AcDbLine
 10
53.81626590841226
 20
150.7940662781059
 30
0.0
 11
53.81626590841226
 21
156.1940662781059
 31
0.0
  0
LINE
  5
21A
330
217
100
AcDbEntity
  8
D-STR-DIM
  6
Continuous
 62
     5
370
    -2
100
AcDbLine
 10
52.81626590841223
 20
155.1940662781059
 30
0.0
 11
52.81626590841228
 21
155.1940662781059
 31
0.0
  0
SOLID
  5
21B
330
217
100
AcDbEntity
  8
D-STR-DIM
 62
     5
100
AcDbTrace
 10
52.81626590841223
 20
155.3607329447725
 30
0.0
 11
52.81626590841223
 21
155.0273996114392
 31
0.0
 12
51.81626590841226
 22
155.1940662781059
 32
0.0
 13
51.81626590841226
 23
155.1940662781059
 33
0.0
  0
SOLID
  5
21C
330
217
100
AcDbEntity
  8
D-STR-DIM
 62
     5
100
AcDbTrace
 10
52.81626590841228
 20
155.0273996114392
 30
0.0
 11
52.81626590841228
 21
155.3607329447725
 31
0.0
 12
53.81626590841226
 22
155.1940662781059
 32
0.0
 13
53.81626590841226
 23
155.1940662781059
 33
0.0
  0
MTEXT
  5
21D
330
217
100
AcDbEntity
  8
D-STR-DIM
 62
     5
370
    13
100
AcDbMText
 10
63.34869982841226
 20
157.4621214981059
 30
0.0
 40
2.777777777777778
 41
0.0
 71
     5
 72
     1
  1
\A1;有効幅員には含めない
  7
ＭＳ ゴシック
 73
     1
 44
1.0
1001
ACAD
1000
ACAD_MTEXT_DEFINED_HEIGHT_BEGIN
1070
    46
1040
0.2
1000
ACAD_MTEXT_DEFINED_HEIGHT_END
  0
POINT
  5
21E
330
217
100
AcDbEntity
  8
Defpoints
 62
     0
100
AcDbPoint
 10
51.81626590841226
 20
150.1940662781059
 30
0.0
  0
POINT
  5
21F
330
217
100
AcDbEntity
  8
Defpoints
 62
     0
100
AcDbPoint
 10
53.81626590841226
 20
149.7940662781059
 30
0.0
  0
POINT
  5
220
330
217
100
AcDbEntity
  8
Defpoints
 62
     0
100
AcDbPoint
 10
53.81626590841226
 20
155.1940662781059
 30
0.0
  0
ENDBLK
  5
222
330
217
100
AcDbEntity
  8
0
100
AcDbBlockEnd
  0
BLOCK
  5
29B
330
297
100
AcDbEntity
  8
0
100
AcDbBlockBegin
  2
_Open
 70
     0
 10
0.0
 20
0.0
 30
0.0
  3
_Open
  1

  0
LINE
  5
298
330
297
100
AcDbEntity
  8
0
 62
     0
100
AcDbLine
 10
-1.0
 20
0.1666666666666667
 30
0.0
 11
0.0
 21
0.0
 31
0.0
  0
LINE
  5
299
330
297
100
AcDbEntity
  8
0
 62
     0
100
AcDbLine
 10
-1.0
 20
-0.1666666666666667
 30
0.0
 11
0.0
 21
0.0
 31
0.0
  0
LINE
  5
29A
330
297
100
AcDbEntity
  8
0
 62
     0
100
AcDbLine
 10
0.0
 20
0.0
 30
0.0
 11
-1.0
 21
0.0
 31
0.0
  0
ENDBLK
  5
29C
330
297
100
AcDbEntity
  8
0
100
AcDbBlockEnd
  0
BLOCK
  5
2A8
330
29E
100
AcDbEntity
  8
0
100
AcDbBlockBegin
  2
*D8
 70
     1
 10
0.0
 20
0.0
 30
0.0
  3
*D8
  1

  0
LINE
  5
29F
330
29E
100
AcDbEntity
  8
D-STR-DIM
  6
Continuous
 62
     5
370
    -2
100
AcDbLine
 10
51.79064724841226
 20
96.42961151810587
 30
0.0
 11
51.79064724841226
 21
111.3494167917932
 31
0.0
  0
LINE
  5
2A0
330
29E
100
AcDbEntity
  8
D-STR-DIM
  6
Continuous
 62
     5
370
    -2
100
AcDbLine
 10
155.7906472484123
 20
96.42961151810587
 30
0.0
 11
155.7906472484123
 21
111.3494167917932
 31
0.0
  0
LINE
  5
2A1
330
29E
100
AcDbEntity
  8
D-STR-DIM
  6
Continuous
 62
     5
370
    -2
100
AcDbLine
 10
52.79064724841226
 20
110.3494167917932
 30
0.0
 11
154.7906472484123
 21
110.3494167917932
 31
0.0
  0
INSERT
  5
2A2
330
29E
100
AcDbEntity
  8
D-STR-DIM
 62
     5
370
    -2
100
AcDbBlockReference
  2
_Open
 10
51.79064724841226
 20
110.3494167917932
 30
0.0
 50
180.0
  0
INSERT
  5
2A3
330
29E
100
AcDbEntity
  8
D-STR-DIM
 62
     5
370
    -2
100
AcDbBlockReference
  2
_Open
 10
155.7906472484123
 20
110.3494167917932
 30
0.0
  0
MTEXT
  5
2A4
330
29E
100
AcDbEntity
  8
D-STR-DIM
 62
     5
370
    13
100
AcDbMText
 10
103.7906472484123
 20
113.0994167917932
 30
0.0
 40
2.777777777777778
 41
0.0
 71
     5
 72
     1
  1
\A1;有効幅員 5.0m以上
  7
ＭＳ ゴシック
 73
     1
 44
1.0
1001
ACAD
1000
ACAD_MTEXT_DEFINED_HEIGHT_BEGIN
1070
    46
1040
0.2
1000
ACAD_MTEXT_DEFINED_HEIGHT_END
  0
POINT
  5
2A5
330
29E
100
AcDbEntity
  8
Defpoints
 62
     0
100
AcDbPoint
 10
51.79064724841226
 20
91.42961151810587
 30
0.0
  0
POINT
  5
2A6
330
29E
100
AcDbEntity
  8
Defpoints
 62
     0
100
AcDbPoint
 10
155.7906472484123
 20
91.42961151810587
 30
0.0
  0
POINT
  5
2A7
330
29E
100
AcDbEntity
  8
Defpoints
 62
     0
100
AcDbPoint
 10
155.7906472484123
 20
110.3494167917932
 30
0.0
  0
ENDBLK
  5
2A9
330
29E
100
AcDbEntity
  8
0
100
AcDbBlockEnd
  0
ENDSEC
  0
SECTION
  2
ENTITIES
  0
TEXT
  5
4B
330
1F
100
AcDbEntity
  8
D-TTL-TXT
  6
Continuous
 62
     7
370
    13
100
AcDbText
 10
32.39221543841225
 20
259.1375306341943
 30
0.0
 40
3.968253968253968
  1
別図4  横断勾配　（第５条関係）
 41
0.8
  7
ＭＳ ゴシック
 11
32.39221543841225
 21
258.4126422413371
 31
0.0
100
AcDbText
 73
     1
  0
LINE
  5
4C
330
1F
100
AcDbEntity
  8
D-BMK
  6
dashed dotted
 62
     5
370
    13
100
AcDbLine
 10
111.7126512984123
 20
249.2580114913371
 30
0.0
 11
111.7126512984123
 21
233.3341361913371
 31
0.0
  0
LINE
  5
4D
330
1F
100
AcDbEntity
  8
D-STR
  6
Continuous
 62
     7
370
    50
100
AcDbLine
 10
141.7126512984123
 20
240.6960738413371
 30
0.0
 11
111.7126512984123
 21
241.2960738413371
 31
0.0
  0
LINE
  5
4E
330
1F
100
AcDbEntity
  8
D-STR
  6
Continuous
 62
     7
370
    50
100
AcDbLine
 10
146.7126512984123
 20
240.3960738413371
 30
0.0
 11
141.7126512984123
 21
240.6960738413371
 31
0.0
  0
LINE
  5
4F
330
1F
100
AcDbEntity
  8
D-STR
  6
Continuous
 62
     7
370
    50
100
AcDbLine
 10
146.6626512984122
 20
239.8960738413371
 30
0.0
 11
148.9626512984123
 21
239.8960738413371
 31
0.0
  0
LINE
  5
50
330
1F
100
AcDbEntity
  8
D-STR
  6
Continuous
 62
     7
370
    50
100
AcDbLine
 10
146.6626512984122
 20
239.7960738413371
 30
0.0
 11
148.9626512984123
 21
239.7960738413371
 31
0.0
  0
LINE
  5
51
330
1F
100
AcDbEntity
  8
D-STR
  6
Continuous
 62
     7
370
    50
100
AcDbLine
 10
146.6626512984122
 20
239.8960738413371
 30
0.0
 11
146.6626512984122
 21
239.7960738413371
 31
0.0
  0
LINE
  5
52
330
1F
100
AcDbEntity
  8
D-STR
  6
Continuous
 62
     7
370
    50
100
AcDbLine
 10
148.9626512984123
 20
239.8960738413371
 30
0.0
 11
148.9626512984123
 21
239.7960738413371
 31
0.0
  0
LINE
  5
53
330
1F
100
AcDbEntity
  8
D-STR
  6
Continuous
 62
     7
370
    50
100
AcDbLine
 10
146.6626512984122
 20
239.8960738413371
 30
0.0
 11
146.8856364084122
 21
242.1259249513371
 31
0.0
  0
ARC
  5
54
330
1F
100
AcDbEntity
  8
D-STR
  6
Continuous
 62
     7
370
    50
100
AcDbCircle
 10
147.1841475684123
 20
242.0960738413371
 30
0.0
 40
0.3
100
AcDbArc
 50
90.0
 51
174.2894068624636
  0
LINE
  5
55
330
1F
100
AcDbEntity
  8
D-STR
  6
Continuous
 62
     7
370
    50
100
AcDbLine
 10
147.1841475684123
 20
242.3960738413371
 30
0.0
 11
148.4411550284123
 21
242.3960738413371
 31
0.0
  0
LINE
  5
56
330
1F
100
AcDbEntity
  8
D-STR
  6
Continuous
 62
     7
370
    50
100
AcDbLine
 10
148.9626512984123
 20
239.8960738413371
 30
0.0
 11
148.7396661884123
 21
242.1259249513371
 31
0.0
  0
ARC
  5
57
330
1F
100
AcDbEntity
  8
D-STR
  6
Continuous
 62
     7
370
    50
100
AcDbCircle
 10
148.4411550284123
 20
242.0960738413371
 30
0.0
 40
0.3
100
AcDbArc
 50
5.710593137520168
 51
90.0
  0
POLYLINE
  5
58
330
1F
100
AcDbEntity
  8
D-STR-STRB
  6
Continuous
 62
   132
370
    25
100
AcDb3dPolyline
 66
     1
 10
0.0
 20
0.0
 30
0.0
 70
     8
  0
VERTEX
  5
59
330
58
100
AcDbEntity
  8
D-STR-STRB
  6
Continuous
 62
   132
100
AcDbVertex
100
AcDb3dPolylineVertex
 10
147.2126488484123
 20
235.4460739813371
 30
0.0
 70
    32
  0
VERTEX
  5
5A
330
58
100
AcDbEntity
  8
D-STR-STRB
  6
Continuous
 62
   132
100
AcDbVertex
100
AcDb3dPolylineVertex
 10
141.7126506784123
 20
235.4460739813371
 30
0.0
 70
    32
  0
VERTEX
  5
5B
330
58
100
AcDbEntity
  8
D-STR-STRB
  6
Continuous
 62
   132
100
AcDbVertex
100
AcDb3dPolylineVertex
 10
141.7126506784123
 20
235.6460739813371
 30
0.0
 70
    32
  0
VERTEX
  5
5C
330
58
100
AcDbEntity
  8
D-STR-STRB
  6
Continuous
 62
   132
100
AcDbVertex
100
AcDb3dPolylineVertex
 10
147.2126488484123
 20
235.6460739813371
 30
0.0
 70
    32
  0
VERTEX
  5
5D
330
58
100
AcDbEntity
  8
D-STR-STRB
  6
Continuous
 62
   132
100
AcDbVertex
100
AcDb3dPolylineVertex
 10
147.2126488484123
 20
235.4460739813371
 30
0.0
 70
    32
  0
SEQEND
  5
5E
330
58
100
AcDbEntity
  8
D-STR-STRB
  6
Continuous
 62
   132
370
    25
  0
POLYLINE
  5
5F
330
1F
100
AcDbEntity
  8
D-STR-STRB
  6
Continuous
 62
   132
370
    25
100
AcDb3dPolyline
 66
     1
 10
0.0
 20
0.0
 30
0.0
 70
     8
  0
VERTEX
  5
60
330
5F
100
AcDbEntity
  8
D-STR-STRB
  6
Continuous
 62
   132
100
AcDbVertex
100
AcDb3dPolylineVertex
 10
147.7126488484123
 20
232.9460739813371
 30
0.0
 70
    32
  0
VERTEX
  5
61
330
5F
100
AcDbEntity
  8
D-STR-STRB
  6
Continuous
 62
   132
100
AcDbVertex
100
AcDb3dPolylineVertex
 10
141.2126500684122
 20
232.9460739813371
 30
0.0
 70
    32
  0
VERTEX
  5
62
330
5F
100
AcDbEntity
  8
D-STR-STRB
  6
Continuous
 62
   132
100
AcDbVertex
100
AcDb3dPolylineVertex
 10
141.2126500684122
 20
234.4460739813371
 30
0.0
 70
    32
  0
VERTEX
  5
63
330
5F
100
AcDbEntity
  8
D-STR-STRB
  6
Continuous
 62
   132
100
AcDbVertex
100
AcDb3dPolylineVertex
 10
147.7126488484123
 20
234.4460739813371
 30
0.0
 70
    32
  0
VERTEX
  5
64
330
5F
100
AcDbEntity
  8
D-STR-STRB
  6
Continuous
 62
   132
100
AcDbVertex
100
AcDb3dPolylineVertex
 10
147.7126488484123
 20
232.9460739813371
 30
0.0
 70
    32
  0
SEQEND
  5
65
330
5F
100
AcDbEntity
  8
D-STR-STRB
  6
Continuous
 62
   132
370
    25
  0
POLYLINE
  5
66
330
1F
100
AcDbEntity
  8
D-STR-STRB
  6
Continuous
 62
   132
370
    25
100
AcDb3dPolyline
 66
     1
 10
0.0
 20
0.0
 30
0.0
 70
     8
  0
VERTEX
  5
67
330
66
100
AcDbEntity
  8
D-STR-STRB
  6
Continuous
 62
   132
100
AcDbVertex
100
AcDb3dPolylineVertex
 10
147.7126488484123
 20
234.4460739813371
 30
0.0
 70
    32
  0
VERTEX
  5
68
330
66
100
AcDbEntity
  8
D-STR-STRB
  6
Continuous
 62
   132
100
AcDbVertex
100
AcDb3dPolylineVertex
 10
141.2126500684122
 20
234.4460739813371
 30
0.0
 70
    32
  0
VERTEX
  5
69
330
66
100
AcDbEntity
  8
D-STR-STRB
  6
Continuous
 62
   132
100
AcDbVertex
100
AcDb3dPolylineVertex
 10
141.2126500684122
 20
235.4460739813371
 30
0.0
 70
    32
  0
VERTEX
  5
6A
330
66
100
AcDbEntity
  8
D-STR-STRB
  6
Continuous
 62
   132
100
AcDbVertex
100
AcDb3dPolylineVertex
 10
147.7126488484123
 20
235.4460739813371
 30
0.0
 70
    32
  0
VERTEX
  5
6B
330
66
100
AcDbEntity
  8
D-STR-STRB
  6
Continuous
 62
   132
100
AcDbVertex
100
AcDb3dPolylineVertex
 10
147.7126488484123
 20
234.4460739813371
 30
0.0
 70
    32
  0
SEQEND
  5
6C
330
66
100
AcDbEntity
  8
D-STR-STRB
  6
Continuous
 62
   132
370
    25
  0
ARC
  5
6D
330
1F
100
AcDbEntity
  8
D-STR-STRB
  6
Continuous
 62
   132
370
    25
100
AcDbCircle
 10
143.4626537384123
 20
238.9461203713371
 30
0.0
 40
0.5
100
AcDbArc
 50
89.99999700040615
 51
180.0
  0
ARC
  5
6E
330
1F
100
AcDbEntity
  8
D-STR-STRB
  6
Continuous
 62
   132
370
    25
100
AcDbCircle
 10
145.4626537384123
 20
238.9461203713371
 30
0.0
 40
0.5
100
AcDbArc
 50
359.9999949998627
 51
89.99999700040615
  0
LINE
  5
6F
330
1F
100
AcDbEntity
  8
D-STR-STRB
  6
Continuous
 62
   132
370
    25
100
AcDbLine
 10
145.4626512984123
 20
239.4460739813371
 30
0.0
 11
143.4626537384123
 21
239.4460739813371
 31
0.0
  0
ARC
  5
70
330
1F
100
AcDbEntity
  8
D-STR-STRB
  6
Continuous
 62
   132
370
    25
100
AcDbCircle
 10
143.4626537384123
 20
237.1559787613371
 30
0.0
 40
0.5
100
AcDbArc
 50
180.0
 51
258.6899979999262
  0
LINE
  5
71
330
1F
100
AcDbEntity
  8
D-STR-STRB
  6
Continuous
 62
   132
370
    25
100
AcDbLine
 10
141.7126512984123
 20
235.7460739813371
 30
0.0
 11
141.8126512984122
 21
235.6460739813371
 31
0.0
  0
ARC
  5
72
330
1F
100
AcDbEntity
  8
D-STR-STRB
  6
Continuous
 62
   132
370
    25
100
AcDbCircle
 10
145.4626537384123
 20
237.1559787613371
 30
0.0
 40
0.5
100
AcDbArc
 50
281.3099730010112
 51
359.9999949998627
  0
LINE
  5
73
330
1F
100
AcDbEntity
  8
D-STR-STRB
  6
Continuous
 62
   132
370
    25
100
AcDbLine
 10
145.5607128184123
 20
236.6656882413371
 30
0.0
 11
144.4626512984123
 21
236.4460764213371
 31
0.0
  0
LINE
  5
74
330
1F
100
AcDbEntity
  8
D-STR-STRB
  6
Continuous
 62
   132
370
    25
100
AcDbLine
 10
144.4626537384123
 20
236.4460764213371
 30
0.0
 11
143.3645946584122
 21
236.6656882413371
 31
0.0
  0
LINE
  5
75
330
1F
100
AcDbEntity
  8
D-STR-STRB
  6
Continuous
 62
   132
370
    25
100
AcDbLine
 10
147.2126488484123
 20
235.7460764213371
 30
0.0
 11
147.1126488484123
 21
235.6460764213371
 31
0.0
  0
LINE
  5
76
330
1F
100
AcDbEntity
  8
D-STR-STRB
  6
Continuous
 62
   132
370
    25
100
AcDbLine
 10
147.1126488484122
 20
235.6460739813371
 30
0.0
 11
141.8126512984122
 21
235.6460739813371
 31
0.0
  0
LINE
  5
77
330
1F
100
AcDbEntity
  8
D-STR-STRB
  6
Continuous
 62
   132
370
    25
100
AcDbLine
 10
147.2126488484123
 20
239.7960739813371
 30
0.0
 11
147.2126488484123
 21
235.7460764213371
 31
0.0
  0
LINE
  5
78
330
1F
100
AcDbEntity
  8
D-STR-STRB
  6
Continuous
 62
   132
370
    25
100
AcDbLine
 10
145.9626537384123
 20
238.9461203713371
 30
0.0
 11
145.9626537384123
 21
237.1559787613371
 31
0.0
  0
LINE
  5
79
330
1F
100
AcDbEntity
  8
D-STR-STRB
  6
Continuous
 62
   132
370
    25
100
AcDbLine
 10
142.9626537384123
 20
238.9461203713371
 30
0.0
 11
142.9626537384123
 21
237.1559787613371
 31
0.0
  0
LINE
  5
7A
330
1F
100
AcDbEntity
  8
D-STR-STRB
  6
Continuous
 62
   132
370
    25
100
AcDbLine
 10
141.7126512984123
 20
240.6960738413371
 30
0.0
 11
141.7126512984123
 21
235.7460739813371
 31
0.0
  0
LINE
  5
7B
330
1F
100
AcDbEntity
  8
D-STR-STRB
  6
Continuous
 62
   132
370
    25
100
AcDbLine
 10
147.2089073884123
 20
238.7923300813371
 30
0.0
 11
150.4126512984122
 21
238.7923300813371
 31
0.0
  0
LINE
  5
7C
330
1F
100
AcDbEntity
  8
D-STR-STRB
  6
Continuous
 62
   132
370
    25
100
AcDbLine
 10
147.2389014884123
 20
237.2923300813371
 30
0.0
 11
150.4126512984123
 21
237.2923300813371
 31
0.0
  0
LINE
  5
7D
330
1F
100
AcDbEntity
  8
D-STR-STRB
  6
Continuous
 62
   132
370
    25
100
AcDbLine
 10
148.8626485984122
 20
240.8960739813371
 30
0.0
 11
149.8626485984122
 21
240.8960739813371
 31
0.0
  0
LINE
  5
7E
330
1F
100
AcDbEntity
  8
D-STR
  6
Continuous
 62
     7
370
    50
100
AcDbLine
 10
150.4126512984122
 20
240.8960738413371
 30
0.0
 11
148.8626512984122
 21
240.8960738413371
 31
0.0
  0
LINE
  5
7F
330
1F
100
AcDbEntity
  8
D-STR-STRB
  6
Continuous
 62
   132
370
    25
100
AcDbLine
 10
150.4126512984122
 20
237.2923300813371
 30
0.0
 11
150.4126512984122
 21
240.8960738413371
 31
0.0
  0
LINE
  5
80
330
1F
100
AcDbEntity
  8
D-STR
  6
Continuous
 62
     7
370
    50
100
AcDbLine
 10
171.7126512984123
 20
241.2920738413371
 30
0.0
 11
170.2126512984123
 21
241.2920738413371
 31
0.0
  0
LINE
  5
81
330
1F
100
AcDbEntity
  8
D-STR
  6
Continuous
 62
     7
370
    50
100
AcDbLine
 10
171.7126512984123
 20
239.7920738413371
 30
0.0
 11
170.2126512984123
 21
239.7920738413371
 31
0.0
  0
LINE
  5
82
330
1F
100
AcDbEntity
  8
D-STR
  6
Continuous
 62
     7
370
    50
100
AcDbLine
 10
170.2126512984123
 20
239.6920738413371
 30
0.0
 11
170.2126512984123
 21
241.2920738413371
 31
0.0
  0
LINE
  5
83
330
1F
100
AcDbEntity
  8
D-STR
  6
Continuous
 62
     7
370
    50
100
AcDbLine
 10
171.7126512984123
 20
239.6920738413371
 30
0.0
 11
169.7126512984123
 21
239.6920738413371
 31
0.0
  0
LINE
  5
84
330
1F
100
AcDbEntity
  8
D-STR
  6
Continuous
 62
     7
370
    50
100
AcDbLine
 10
169.7126512984123
 20
238.6920738413371
 30
0.0
 11
169.7126512984123
 21
239.6920738413371
 31
0.0
  0
LINE
  5
85
330
1F
100
AcDbEntity
  8
D-STR
  6
Continuous
 62
     7
370
    50
100
AcDbLine
 10
171.7126512984123
 20
238.6920738413371
 30
0.0
 11
169.2126512984123
 21
238.6920738413371
 31
0.0
  0
LINE
  5
86
330
1F
100
AcDbEntity
  8
D-STR
  6
Continuous
 62
     7
370
    50
100
AcDbLine
 10
169.2126512984123
 20
237.6920738413371
 30
0.0
 11
169.2126512984123
 21
238.6920738413371
 31
0.0
  0
LINE
  5
87
330
1F
100
AcDbEntity
  8
D-STR
  6
Continuous
 62
     7
370
    50
100
AcDbLine
 10
171.7126512984123
 20
237.6920738413371
 30
0.0
 11
169.2126512984123
 21
237.6920738413371
 31
0.0
  0
LINE
  5
88
330
1F
100
AcDbEntity
  8
D-STR
  6
Continuous
 62
     7
370
    50
100
AcDbLine
 10
171.7126512984123
 20
237.6920738413371
 30
0.0
 11
171.7126512984123
 21
241.2920738413371
 31
0.0
  0
LINE
  5
89
330
1F
100
AcDbEntity
  8
D-STR
  6
Continuous
 62
     7
370
    50
100
AcDbLine
 10
81.71265129841225
 20
240.6960738413371
 30
0.0
 11
111.7126512984123
 21
241.2960738413371
 31
0.0
  0
LINE
  5
8A
330
1F
100
AcDbEntity
  8
D-STR
  6
Continuous
 62
     7
370
    50
100
AcDbLine
 10
76.71265129841225
 20
240.3960738413371
 30
0.0
 11
81.71265129841225
 21
240.6960738413371
 31
0.0
  0
LINE
  5
8B
330
1F
100
AcDbEntity
  8
D-STR
  6
Continuous
 62
     7
370
    50
100
AcDbLine
 10
76.76265129841225
 20
239.8960738413371
 30
0.0
 11
74.46265129841225
 21
239.8960738413371
 31
0.0
  0
LINE
  5
8C
330
1F
100
AcDbEntity
  8
D-STR
  6
Continuous
 62
     7
370
    50
100
AcDbLine
 10
76.76265129841225
 20
239.7960738413371
 30
0.0
 11
74.46265129841225
 21
239.7960738413371
 31
0.0
  0
LINE
  5
8D
330
1F
100
AcDbEntity
  8
D-STR
  6
Continuous
 62
     7
370
    50
100
AcDbLine
 10
76.76265129841225
 20
239.8960738413371
 30
0.0
 11
76.76265129841225
 21
239.7960738413371
 31
0.0
  0
LINE
  5
8E
330
1F
100
AcDbEntity
  8
D-STR
  6
Continuous
 62
     7
370
    50
100
AcDbLine
 10
74.46265129841225
 20
239.8960738413371
 30
0.0
 11
74.46265129841225
 21
239.7960738413371
 31
0.0
  0
LINE
  5
8F
330
1F
100
AcDbEntity
  8
D-STR
  6
Continuous
 62
     7
370
    50
100
AcDbLine
 10
76.76265129841225
 20
239.8960738413371
 30
0.0
 11
76.53966618841226
 21
242.1259249513371
 31
0.0
  0
ARC
  5
90
330
1F
100
AcDbEntity
  8
D-STR
  6
Continuous
 62
     7
370
    50
100
AcDbCircle
 10
76.24115502841225
 20
242.0960738413371
 30
0.0
 40
0.3
100
AcDbArc
 50
5.710593137536641
 51
90.0
  0
LINE
  5
91
330
1F
100
AcDbEntity
  8
D-STR
  6
Continuous
 62
     7
370
    50
100
AcDbLine
 10
76.24115502841225
 20
242.3960738413371
 30
0.0
 11
74.98414756841225
 21
242.3960738413371
 31
0.0
  0
LINE
  5
92
330
1F
100
AcDbEntity
  8
D-STR
  6
Continuous
 62
     7
370
    50
100
AcDbLine
 10
74.46265129841225
 20
239.8960738413371
 30
0.0
 11
74.68563640841225
 21
242.1259249513371
 31
0.0
  0
ARC
  5
93
330
1F
100
AcDbEntity
  8
D-STR
  6
Continuous
 62
     7
370
    50
100
AcDbCircle
 10
74.98414756841225
 20
242.0960738413371
 30
0.0
 40
0.3
100
AcDbArc
 50
90.0
 51
174.2894068624798
  0
POLYLINE
  5
94
330
1F
100
AcDbEntity
  8
D-STR-STRB
  6
Continuous
 62
   132
370
    25
100
AcDb3dPolyline
 66
     1
 10
0.0
 20
0.0
 30
0.0
 70
     8
  0
VERTEX
  5
95
330
94
100
AcDbEntity
  8
D-STR-STRB
  6
Continuous
 62
   132
100
AcDbVertex
100
AcDb3dPolylineVertex
 10
76.21265374841225
 20
235.4460739813371
 30
0.0
 70
    32
  0
VERTEX
  5
96
330
94
100
AcDbEntity
  8
D-STR-STRB
  6
Continuous
 62
   132
100
AcDbVertex
100
AcDb3dPolylineVertex
 10
81.71265191841225
 20
235.4460739813371
 30
0.0
 70
    32
  0
VERTEX
  5
97
330
94
100
AcDbEntity
  8
D-STR-STRB
  6
Continuous
 62
   132
100
AcDbVertex
100
AcDb3dPolylineVertex
 10
81.71265191841225
 20
235.6460739813371
 30
0.0
 70
    32
  0
VERTEX
  5
98
330
94
100
AcDbEntity
  8
D-STR-STRB
  6
Continuous
 62
   132
100
AcDbVertex
100
AcDb3dPolylineVertex
 10
76.21265374841225
 20
235.6460739813371
 30
0.0
 70
    32
  0
VERTEX
  5
99
330
94
100
AcDbEntity
  8
D-STR-STRB
  6
Continuous
 62
   132
100
AcDbVertex
100
AcDb3dPolylineVertex
 10
76.21265374841225
 20
235.4460739813371
 30
0.0
 70
    32
  0
SEQEND
  5
9A
330
94
100
AcDbEntity
  8
D-STR-STRB
  6
Continuous
 62
   132
370
    25
  0
POLYLINE
  5
9B
330
1F
100
AcDbEntity
  8
D-STR-STRB
  6
Continuous
 62
   132
370
    25
100
AcDb3dPolyline
 66
     1
 10
0.0
 20
0.0
 30
0.0
 70
     8
  0
VERTEX
  5
9C
330
9B
100
AcDbEntity
  8
D-STR-STRB
  6
Continuous
 62
   132
100
AcDbVertex
100
AcDb3dPolylineVertex
 10
75.71265374841225
 20
232.9460739813371
 30
0.0
 70
    32
  0
VERTEX
  5
9D
330
9B
100
AcDbEntity
  8
D-STR-STRB
  6
Continuous
 62
   132
100
AcDbVertex
100
AcDb3dPolylineVertex
 10
82.21265252841226
 20
232.9460739813371
 30
0.0
 70
    32
  0
VERTEX
  5
9E
330
9B
100
AcDbEntity
  8
D-STR-STRB
  6
Continuous
 62
   132
100
AcDbVertex
100
AcDb3dPolylineVertex
 10
82.21265252841226
 20
234.4460739813371
 30
0.0
 70
    32
  0
VERTEX
  5
9F
330
9B
100
AcDbEntity
  8
D-STR-STRB
  6
Continuous
 62
   132
100
AcDbVertex
100
AcDb3dPolylineVertex
 10
75.71265374841225
 20
234.4460739813371
 30
0.0
 70
    32
  0
VERTEX
  5
A0
330
9B
100
AcDbEntity
  8
D-STR-STRB
  6
Continuous
 62
   132
100
AcDbVertex
100
AcDb3dPolylineVertex
 10
75.71265374841225
 20
232.9460739813371
 30
0.0
 70
    32
  0
SEQEND
  5
A1
330
9B
100
AcDbEntity
  8
D-STR-STRB
  6
Continuous
 62
   132
370
    25
  0
POLYLINE
  5
A2
330
1F
100
AcDbEntity
  8
D-STR-STRB
  6
Continuous
 62
   132
370
    25
100
AcDb3dPolyline
 66
     1
 10
0.0
 20
0.0
 30
0.0
 70
     8
  0
VERTEX
  5
A3
330
A2
100
AcDbEntity
  8
D-STR-STRB
  6
Continuous
 62
   132
100
AcDbVertex
100
AcDb3dPolylineVertex
 10
75.71265374841225
 20
234.4460739813371
 30
0.0
 70
    32
  0
VERTEX
  5
A4
330
A2
100
AcDbEntity
  8
D-STR-STRB
  6
Continuous
 62
   132
100
AcDbVertex
100
AcDb3dPolylineVertex
 10
82.21265252841226
 20
234.4460739813371
 30
0.0
 70
    32
  0
VERTEX
  5
A5
330
A2
100
AcDbEntity
  8
D-STR-STRB
  6
Continuous
 62
   132
100
AcDbVertex
100
AcDb3dPolylineVertex
 10
82.21265252841226
 20
235.4460739813371
 30
0.0
 70
    32
  0
VERTEX
  5
A6
330
A2
100
AcDbEntity
  8
D-STR-STRB
  6
Continuous
 62
   132
100
AcDbVertex
100
AcDb3dPolylineVertex
 10
75.71265374841225
 20
235.4460739813371
 30
0.0
 70
    32
  0
VERTEX
  5
A7
330
A2
100
AcDbEntity
  8
D-STR-STRB
  6
Continuous
 62
   132
100
AcDbVertex
100
AcDb3dPolylineVertex
 10
75.71265374841225
 20
234.4460739813371
 30
0.0
 70
    32
  0
SEQEND
  5
A8
330
A2
100
AcDbEntity
  8
D-STR-STRB
  6
Continuous
 62
   132
370
    25
  0
ARC
  5
A9
330
1F
100
AcDbEntity
  8
D-STR-STRB
  6
Continuous
 62
   132
370
    25
100
AcDbCircle
 10
79.96264885841225
 20
238.9461203713371
 30
0.0
 40
0.5
100
AcDbArc
 50
0.0
 51
90.00000299959383
  0
ARC
  5
AA
330
1F
100
AcDbEntity
  8
D-STR-STRB
  6
Continuous
 62
   132
370
    25
100
AcDbCircle
 10
77.96264885841225
 20
238.9461203713371
 30
0.0
 40
0.5
100
AcDbArc
 50
90.00000299959383
 51
180.0000050001373
  0
LINE
  5
AB
330
1F
100
AcDbEntity
  8
D-STR-STRB
  6
Continuous
 62
   132
370
    25
100
AcDbLine
 10
77.96265129841225
 20
239.4460739813371
 30
0.0
 11
79.96264885841225
 21
239.4460739813371
 31
0.0
  0
ARC
  5
AC
330
1F
100
AcDbEntity
  8
D-STR-STRB
  6
Continuous
 62
   132
370
    25
100
AcDbCircle
 10
79.96264885841225
 20
237.1559787613371
 30
0.0
 40
0.5
100
AcDbArc
 50
281.3100020000738
 51
0.0
  0
LINE
  5
AD
330
1F
100
AcDbEntity
  8
D-STR-STRB
  6
Continuous
 62
   132
370
    25
100
AcDbLine
 10
81.71265129841225
 20
235.7460739813371
 30
0.0
 11
81.61265129841226
 21
235.6460739813371
 31
0.0
  0
ARC
  5
AE
330
1F
100
AcDbEntity
  8
D-STR-STRB
  6
Continuous
 62
   132
370
    25
100
AcDbCircle
 10
77.96264885841225
 20
237.1559787613371
 30
0.0
 40
0.5
100
AcDbArc
 50
180.0000050001373
 51
258.6900269989888
  0
LINE
  5
AF
330
1F
100
AcDbEntity
  8
D-STR-STRB
  6
Continuous
 62
   132
370
    25
100
AcDbLine
 10
77.86458977841225
 20
236.6656882413371
 30
0.0
 11
78.96265129841225
 21
236.4460764213371
 31
0.0
  0
LINE
  5
B0
330
1F
100
AcDbEntity
  8
D-STR-STRB
  6
Continuous
 62
   132
370
    25
100
AcDbLine
 10
78.96264885841225
 20
236.4460764213371
 30
0.0
 11
80.06070793841225
 21
236.6656882413371
 31
0.0
  0
LINE
  5
B1
330
1F
100
AcDbEntity
  8
D-STR-STRB
  6
Continuous
 62
   132
370
    25
100
AcDbLine
 10
76.21265374841225
 20
235.7460764213371
 30
0.0
 11
76.31265374841225
 21
235.6460764213371
 31
0.0
  0
LINE
  5
B2
330
1F
100
AcDbEntity
  8
D-STR-STRB
  6
Continuous
 62
   132
370
    25
100
AcDbLine
 10
76.31265374841226
 20
235.6460739813371
 30
0.0
 11
81.61265129841226
 21
235.6460739813371
 31
0.0
  0
LINE
  5
B3
330
1F
100
AcDbEntity
  8
D-STR-STRB
  6
Continuous
 62
   132
370
    25
100
AcDbLine
 10
76.21265374841225
 20
239.7960739813371
 30
0.0
 11
76.21265374841225
 21
235.7460764213371
 31
0.0
  0
LINE
  5
B4
330
1F
100
AcDbEntity
  8
D-STR-STRB
  6
Continuous
 62
   132
370
    25
100
AcDbLine
 10
77.46264885841225
 20
238.9461203713371
 30
0.0
 11
77.46264885841225
 21
237.1559787613371
 31
0.0
  0
LINE
  5
B5
330
1F
100
AcDbEntity
  8
D-STR-STRB
  6
Continuous
 62
   132
370
    25
100
AcDbLine
 10
80.46264885841225
 20
238.9461203713371
 30
0.0
 11
80.46264885841225
 21
237.1559787613371
 31
0.0
  0
LINE
  5
B6
330
1F
100
AcDbEntity
  8
D-STR-STRB
  6
Continuous
 62
   132
370
    25
100
AcDbLine
 10
81.71265129841225
 20
240.6960738413371
 30
0.0
 11
81.71265129841225
 21
235.7460739813371
 31
0.0
  0
LINE
  5
B7
330
1F
100
AcDbEntity
  8
D-STR-STRB
  6
Continuous
 62
   132
370
    25
100
AcDbLine
 10
76.21639520841225
 20
238.7923300813371
 30
0.0
 11
73.01265129841225
 21
238.7923300813371
 31
0.0
  0
LINE
  5
B8
330
1F
100
AcDbEntity
  8
D-STR-STRB
  6
Continuous
 62
   132
370
    25
100
AcDbLine
 10
76.18640110841226
 20
237.2923300813371
 30
0.0
 11
73.01265129841227
 21
237.2923300813371
 31
0.0
  0
LINE
  5
B9
330
1F
100
AcDbEntity
  8
D-STR-STRB
  6
Continuous
 62
   132
370
    25
100
AcDbLine
 10
74.56265398841225
 20
240.8960739813371
 30
0.0
 11
73.56265398841225
 21
240.8960739813371
 31
0.0
  0
LINE
  5
BA
330
1F
100
AcDbEntity
  8
D-STR
  6
Continuous
 62
     7
370
    50
100
AcDbLine
 10
73.01265129841225
 20
240.8960738413371
 30
0.0
 11
74.56265129841225
 21
240.8960738413371
 31
0.0
  0
LINE
  5
BB
330
1F
100
AcDbEntity
  8
D-STR-STRB
  6
Continuous
 62
   132
370
    25
100
AcDbLine
 10
73.01265129841225
 20
237.2923300813371
 30
0.0
 11
73.01265129841225
 21
240.8960738413371
 31
0.0
  0
LINE
  5
BC
330
1F
100
AcDbEntity
  8
D-STR
  6
Continuous
 62
     7
370
    50
100
AcDbLine
 10
53.21265129841225
 20
241.0940738413371
 30
0.0
 11
73.01265129841225
 21
240.8960738413371
 31
0.0
  0
LINE
  5
BD
330
1F
100
AcDbEntity
  8
D-STR
  6
Continuous
 62
     7
370
    50
100
AcDbLine
 10
51.71265129841225
 20
241.0940738413371
 30
0.0
 11
53.21265129841225
 21
241.0940738413371
 31
0.0
  0
LINE
  5
BE
330
1F
100
AcDbEntity
  8
D-STR
  6
Continuous
 62
     7
370
    50
100
AcDbLine
 10
51.71265129841225
 20
239.5940738413371
 30
0.0
 11
53.21265129841225
 21
239.5940738413371
 31
0.0
  0
LINE
  5
BF
330
1F
100
AcDbEntity
  8
D-STR
  6
Continuous
 62
     7
370
    50
100
AcDbLine
 10
53.21265129841225
 20
239.4940738413371
 30
0.0
 11
53.21265129841225
 21
241.0940738413371
 31
0.0
  0
LINE
  5
C0
330
1F
100
AcDbEntity
  8
D-STR
  6
Continuous
 62
     7
370
    50
100
AcDbLine
 10
51.71265129841225
 20
239.4940738413371
 30
0.0
 11
53.71265129841225
 21
239.4940738413371
 31
0.0
  0
LINE
  5
C1
330
1F
100
AcDbEntity
  8
D-STR
  6
Continuous
 62
     7
370
    50
100
AcDbLine
 10
53.71265129841225
 20
238.4940738413371
 30
0.0
 11
53.71265129841225
 21
239.4940738413371
 31
0.0
  0
LINE
  5
C2
330
1F
100
AcDbEntity
  8
D-STR
  6
Continuous
 62
     7
370
    50
100
AcDbLine
 10
51.71265129841225
 20
238.4940738413371
 30
0.0
 11
54.21265129841225
 21
238.4940738413371
 31
0.0
  0
LINE
  5
C3
330
1F
100
AcDbEntity
  8
D-STR
  6
Continuous
 62
     7
370
    50
100
AcDbLine
 10
54.21265129841225
 20
237.4940738413371
 30
0.0
 11
54.21265129841225
 21
238.4940738413371
 31
0.0
  0
LINE
  5
C4
330
1F
100
AcDbEntity
  8
D-STR
  6
Continuous
 62
     7
370
    50
100
AcDbLine
 10
51.71265129841225
 20
237.4940738413371
 30
0.0
 11
54.21265129841225
 21
237.4940738413371
 31
0.0
  0
LINE
  5
C5
330
1F
100
AcDbEntity
  8
D-STR
  6
Continuous
 62
     7
370
    50
100
AcDbLine
 10
51.71265129841225
 20
237.4940738413371
 30
0.0
 11
51.71265129841225
 21
241.0940738413371
 31
0.0
  0
LINE
  5
C6
330
1F
100
AcDbEntity
  8
D-STR
  6
Continuous
 62
     7
370
    50
100
AcDbLine
 10
150.4126512984122
 20
240.8960738413371
 30
0.0
 11
170.2126512984123
 21
241.2920738413371
 31
0.0
  0
TEXT
  5
C7
330
1F
100
AcDbEntity
  8
D-STR-DIM
  6
Continuous
 62
     5
370
    13
100
AcDbText
 10
61.68784203583192
 20
243.0168441694224
 30
0.0
 40
2.777777777777778
  1
1%
 50
359.427061302316
 41
0.8
  7
ＭＳ ゴシック
 72
     1
 11
63.12714029841226
 21
242.4950039413371
 31
0.0
100
AcDbText
 73
     1
  0
LINE
  5
C8
330
1F
100
AcDbEntity
  8
D-STR-DIM
  6
Continuous
 62
     5
370
    13
100
AcDbLine
 10
68.12189056841225
 20
241.9450314413371
 30
0.0
 11
58.12239053841225
 21
242.0450264413371
 31
0.0
  0
HATCH
  5
C9
330
1F
100
AcDbEntity
  8
D-STR-DIM
  6
Continuous
 62
     5
370
    13
100
AcDbHatch
 10
0.0
 20
0.0
 30
0.0
210
0.0
220
0.0
230
1.0
  2
SOLID
 70
     1
 71
     0
 91
        1
 92
        3
 72
     0
 73
     1
 93
        3
 10
67.12027398841226
 20
241.7883726113371
 10
68.12189056841225
 20
241.9450314413371
 10
67.12360714841225
 20
242.1216892813371
 97
        0
 75
     0
 76
     1
 98
        0
  0
TEXT
  5
CA
330
1F
100
AcDbEntity
  8
D-STR-DIM
  6
Continuous
 62
     5
370
    13
100
AcDbText
 10
94.77444753779918
 20
242.9651330795578
 30
0.0
 40
2.777777777777778
  1
2%
 50
1.145762838
 41
0.8
  7
ＭＳ ゴシック
 72
     1
 11
96.22874958841226
 21
242.4866957713371
 31
0.0
100
AcDbText
 73
     1
  0
LINE
  5
CB
330
1F
100
AcDbEntity
  8
D-STR-DIM
  6
Continuous
 62
     5
370
    13
100
AcDbLine
 10
91.23974728841226
 20
241.8868157413371
 30
0.0
 11
101.2377478884123
 21
242.0867757513371
 31
0.0
  0
HATCH
  5
CC
330
1F
100
AcDbEntity
  8
D-STR-DIM
  6
Continuous
 62
     5
370
    13
100
AcDbHatch
 10
0.0
 20
0.0
 30
0.0
210
0.0
220
0.0
230
1.0
  2
SOLID
 70
     1
 71
     0
 91
        1
 92
        3
 72
     0
 73
     1
 93
        3
 10
92.23621467841225
 20
242.0734450813371
 10
91.23974728841226
 20
241.8868157413371
 10
92.24288001841227
 20
241.7401783913371
 97
        0
 75
     0
 76
     1
 98
        0
  0
TEXT
  5
CD
330
1F
100
AcDbEntity
  8
D-STR-DIM
  6
Continuous
 62
     5
370
    13
100
AcDbText
 10
124.5599247746385
 20
243.0469516852367
 30
0.0
 40
2.777777777777778
  1
2%
 50
358.854237162
 41
0.8
  7
ＭＳ ゴシック
 72
     1
 11
125.9939340084123
 21
242.5107481513371
 31
0.0
100
AcDbText
 73
     1
  0
LINE
  5
CE
330
1F
100
AcDbEntity
  8
D-STR-DIM
  6
Continuous
 62
     5
370
    13
100
AcDbLine
 10
130.9829363084123
 20
241.9108681213371
 30
0.0
 11
120.9849357084123
 21
242.1108281313371
 31
0.0
  0
HATCH
  5
CF
330
1F
100
AcDbEntity
  8
D-STR-DIM
  6
Continuous
 62
     5
370
    13
100
AcDbHatch
 10
0.0
 20
0.0
 30
0.0
210
0.0
220
0.0
230
1.0
  2
SOLID
 70
     1
 71
     0
 91
        1
 92
        3
 72
     0
 73
     1
 93
        3
 10
129.9798035784123
 20
241.7642307713371
 10
130.9829363084123
 20
241.9108681213371
 10
129.9864689184122
 20
242.0974974613371
 97
        0
 75
     0
 76
     1
 98
        0
  0
TEXT
  5
D0
330
1F
100
AcDbEntity
  8
D-STR-DIM
  6
Continuous
 62
     5
370
    13
100
AcDbText
 10
158.0900400277992
 20
243.0574449295578
 30
0.0
 40
2.777777777777778
  1
2%
 50
1.14576283799996
 41
0.8
  7
ＭＳ ゴシック
 72
     1
 11
159.5443420784123
 21
242.5790076213371
 31
0.0
100
AcDbText
 73
     1
  0
LINE
  5
D1
330
1F
100
AcDbEntity
  8
D-STR-DIM
  6
Continuous
 62
     5
370
    13
100
AcDbLine
 10
154.5553397784122
 20
241.9791275913371
 30
0.0
 11
164.5533403784123
 21
242.1790876013371
 31
0.0
  0
HATCH
  5
D2
330
1F
100
AcDbEntity
  8
D-STR-DIM
  6
Continuous
 62
     5
370
    13
100
AcDbHatch
 10
0.0
 20
0.0
 30
0.0
210
0.0
220
0.0
230
1.0
  2
SOLID
 70
     1
 71
     0
 91
        1
 92
        3
 72
     0
 73
     1
 93
        3
 10
155.5518071684122
 20
242.1657569313371
 10
154.5553397784122
 20
241.9791275913371
 10
155.5584724984123
 20
241.8324902413371
 97
        0
 75
     0
 76
     1
 98
        0
  0
DIMENSION
  5
D3
330
1F
100
AcDbEntity
  8
D-STR-DIM
  6
Continuous
 62
     5
370
    13
100
AcDbDimension
  2
*D1
 10
76.71265129841225
 20
220.3960738413371
 30
0.0
 11
64.21265129841225
 21
222.6460738413371
 31
0.0
 70
   160
  1
歩　道
 71
     5
 42
25.0
  3
Standard
100
AcDbAlignedDimension
 13
51.71265129841225
 23
237.4940738413371
 33
0.0
 14
76.71265129841225
 24
232.9460739813371
 34
0.0
100
AcDbRotatedDimension
1001
ACAD
1000
DSTYLE
1002
{
1070
   271
1070
     2
1070
   178
1070
     5
1070
   177
1070
     5
1070
   176
1070
     5
1070
   289
1070
     3
1070
    77
1070
     1
1070
   174
1070
     1
1070
   172
1070
     1
1070
    73
1070
     0
1070
    74
1070
     0
1070
   173
1070
     1
1070
   279
1070
     2
1070
    44
1040
1.0
1070
    42
1040
1.0
1070
   147
1040
0.0
1070
   140
1040
2.777777777777778
1070
    41
1040
0.9999999999999749
1070
   340
1005
4A
1002
}
  0
DIMENSION
  5
E1
330
1F
100
AcDbEntity
  8
D-STR-DIM
  6
Continuous
 62
     5
370
    13
100
AcDbDimension
  2
*D2
 10
146.7126512984123
 20
220.3960738413371
 30
0.0
 11
111.7126512984123
 21
222.6460738413371
 31
0.0
 70
   160
  1
車　道
 71
     5
 42
70.0
  3
Standard
100
AcDbAlignedDimension
 13
76.71265129841225
 23
232.9460739813371
 33
0.0
 14
146.7126512984123
 24
232.9460739813371
 34
0.0
100
AcDbRotatedDimension
1001
ACAD
1000
DSTYLE
1002
{
1070
   271
1070
     2
1070
   178
1070
     5
1070
   177
1070
     5
1070
   176
1070
     5
1070
   289
1070
     3
1070
    77
1070
     1
1070
   174
1070
     1
1070
   172
1070
     1
1070
    73
1070
     0
1070
    74
1070
     0
1070
   173
1070
     1
1070
   279
1070
     2
1070
    44
1040
1.0
1070
    42
1040
1.0
1070
   147
1040
0.0
1070
   140
1040
2.777777777777778
1070
    41
1040
0.9999999999999749
1070
   340
1005
4A
1002
}
  0
DIMENSION
  5
EE
330
1F
100
AcDbEntity
  8
D-STR-DIM
  6
Continuous
 62
     5
370
    13
100
AcDbDimension
  2
*D3
 10
171.7126512984123
 20
220.3960738413371
 30
0.0
 11
159.2126512984123
 21
222.6460738413371
 31
0.0
 70
   160
  1
歩　道
 71
     5
 42
25.0
  3
Standard
100
AcDbAlignedDimension
 13
146.7126512984123
 23
232.9460739813371
 33
0.0
 14
171.7126512984123
 24
237.6920738413371
 34
0.0
100
AcDbRotatedDimension
1001
ACAD
1000
DSTYLE
1002
{
1070
   271
1070
     2
1070
   178
1070
     5
1070
   177
1070
     5
1070
   176
1070
     5
1070
   289
1070
     3
1070
    77
1070
     1
1070
   174
1070
     1
1070
   172
1070
     1
1070
    73
1070
     0
1070
    74
1070
     0
1070
   173
1070
     1
1070
   279
1070
     2
1070
    44
1040
1.0
1070
    42
1040
1.0
1070
   147
1040
0.0
1070
   140
1040
2.777777777777778
1070
    41
1040
0.9999999999999749
1070
   340
1005
4A
1002
}
  0
TEXT
  5
FB
330
1F
100
AcDbEntity
  8
D-TTL-TXT
  6
Continuous
 62
     7
370
    13
100
AcDbText
 10
53.57553349841226
 20
216.4655772663371
 30
0.0
 40
2.777777777777778
  1
(透水性舗装)
 41
0.8
  7
ＭＳ ゴシック
 11
53.57553349841226
 21
215.9581553913371
 31
0.0
100
AcDbText
 73
     1
  0
TEXT
  5
FC
330
1F
100
AcDbEntity
  8
D-TTL-TXT
  6
Continuous
 62
     7
370
    13
100
AcDbText
 10
144.9198891984122
 20
216.1917838163371
 30
0.0
 40
2.777777777777778
  1
(透水性舗装以外)
 41
0.8
  7
ＭＳ ゴシック
 11
144.9198891984122
 21
215.6843619413371
 31
0.0
100
AcDbText
 73
     1
  0
TEXT
  5
FD
330
1F
100
AcDbEntity
  8
D-TTL-TXT
  6
Continuous
 62
     7
370
    13
100
AcDbText
 10
32.39221544841226
 20
185.841850810963
 30
0.0
 40
3.968253968253968
  1
別図5  有効幅員　（第７条関係）
 41
0.8
  7
ＭＳ ゴシック
 11
32.39221544841226
 21
185.1169624181059
 31
0.0
100
AcDbText
 73
     1
  0
LINE
  5
FE
330
1F
100
AcDbEntity
  8
D-BMK
  6
dashed dotted
 62
     5
370
    13
100
AcDbLine
 10
103.8162659084123
 20
157.6960039381059
 30
0.0
 11
103.8162659084123
 21
141.7721286381059
 31
0.0
  0
LINE
  5
FF
330
1F
100
AcDbEntity
  8
D-STR
  6
Continuous
 62
     7
370
    50
100
AcDbLine
 10
51.81626590841226
 20
147.0940662781059
 30
0.0
 11
61.81626590841226
 21
147.0940662781059
 31
0.0
  0
LINE
  5
100
330
1F
100
AcDbEntity
  8
D-STR
  6
Continuous
 62
     7
370
    50
100
AcDbLine
 10
51.81626590841226
 20
150.1940662781059
 30
0.0
 11
53.41626590841226
 21
150.1940662781059
 31
0.0
  0
ARC
  5
101
330
1F
100
AcDbEntity
  8
D-STR
  6
Continuous
 62
     7
370
    50
100
AcDbCircle
 10
53.41626590841226
 20
149.7940662781059
 30
0.0
 40
0.4
100
AcDbArc
 50
0.0
 51
90.0
  0
LINE
  5
102
330
1F
100
AcDbEntity
  8
D-STR
  6
Continuous
 62
     7
370
    50
100
AcDbLine
 10
59.81626590841226
 20
148.7940662781059
 30
0.0
 11
61.81626590841226
 21
148.8940662781059
 31
0.0
  0
LINE
  5
103
330
1F
100
AcDbEntity
  8
D-STR
  6
Continuous
 62
     7
370
    50
100
AcDbLine
 10
51.81626590841226
 20
146.8940662781059
 30
0.0
 11
61.81626590841226
 21
146.8940662781059
 31
0.0
  0
LINE
  5
104
330
1F
100
AcDbEntity
  8
D-STR
  6
Continuous
 62
     7
370
    50
100
AcDbLine
 10
51.81626590841226
 20
144.8940662781059
 30
0.0
 11
61.81626590841226
 21
144.8940662781059
 31
0.0
  0
LINE
  5
105
330
1F
100
AcDbEntity
  8
D-STR
  6
Continuous
 62
     7
370
    50
100
AcDbLine
 10
53.81626590841226
 20
148.6360612981059
 30
0.0
 11
53.81626590841226
 21
149.7940662781059
 31
0.0
  0
LINE
  5
106
330
1F
100
AcDbEntity
  8
D-STR
  6
Continuous
 62
     7
370
    50
100
AcDbLine
 10
54.25606738841226
 20
148.2380464381059
 30
0.0
 11
59.81626590841226
 21
148.7940662781059
 31
0.0
  0
ARC
  5
107
330
1F
100
AcDbEntity
  8
D-STR
  6
Continuous
 62
     7
370
    50
100
AcDbCircle
 10
54.21626590841225
 20
148.6360612981059
 30
0.0
 40
0.4
100
AcDbArc
 50
180.0
 51
275.7105931374996
  0
CIRCLE
  5
108
330
1F
100
AcDbEntity
  8
D-STR-STR2
  6
Continuous
 62
   134
370
    13
100
AcDbCircle
 10
55.31626590841226
 20
146.1940662781059
 30
0.0
 40
0.13
  0
CIRCLE
  5
109
330
1F
100
AcDbEntity
  8
D-STR-STR2
  6
Continuous
 62
   134
370
    13
100
AcDbCircle
 10
53.01626590841226
 20
146.2940662781059
 30
0.0
 40
0.35
  0
CIRCLE
  5
10A
330
1F
100
AcDbEntity
  8
D-STR-STR2
  6
Continuous
 62
   134
370
    13
100
AcDbCircle
 10
56.11626590841226
 20
145.1940662781059
 30
0.0
 40
0.1
  0
CIRCLE
  5
10B
330
1F
100
AcDbEntity
  8
D-STR-STR2
  6
Continuous
 62
   134
370
    13
100
AcDbCircle
 10
52.21626590841225
 20
146.1940662781059
 30
0.0
 40
0.2
  0
CIRCLE
  5
10C
330
1F
100
AcDbEntity
  8
D-STR-STR2
  6
Continuous
 62
   134
370
    13
100
AcDbCircle
 10
52.31626590841226
 20
145.2940662781059
 30
0.0
 40
0.15
  0
CIRCLE
  5
10D
330
1F
100
AcDbEntity
  8
D-STR-STR2
  6
Continuous
 62
   134
370
    13
100
AcDbCircle
 10
55.21626590841225
 20
145.5940662781059
 30
0.0
 40
0.12
  0
CIRCLE
  5
10E
330
1F
100
AcDbEntity
  8
D-STR-STR2
  6
Continuous
 62
   134
370
    13
100
AcDbCircle
 10
54.31626590841226
 20
145.1940662781059
 30
0.0
 40
0.05
  0
CIRCLE
  5
10F
330
1F
100
AcDbEntity
  8
D-STR-STR2
  6
Continuous
 62
   134
370
    13
100
AcDbCircle
 10
52.41626590841226
 20
145.8940662781059
 30
0.0
 40
0.05
  0
CIRCLE
  5
110
330
1F
100
AcDbEntity
  8
D-STR-STR2
  6
Continuous
 62
   134
370
    13
100
AcDbCircle
 10
53.91626590841226
 20
145.8940662781059
 30
0.0
 40
0.05
  0
CIRCLE
  5
111
330
1F
100
AcDbEntity
  8
D-STR-STR2
  6
Continuous
 62
   134
370
    13
100
AcDbCircle
 10
52.91626590841226
 20
145.2940662781059
 30
0.0
 40
0.05
  0
CIRCLE
  5
112
330
1F
100
AcDbEntity
  8
D-STR-STR2
  6
Continuous
 62
   134
370
    13
100
AcDbCircle
 10
53.81626590841226
 20
146.5940662781059
 30
0.0
 40
0.02
  0
CIRCLE
  5
113
330
1F
100
AcDbEntity
  8
D-STR-STR2
  6
Continuous
 62
   134
370
    13
100
AcDbCircle
 10
56.21626590841225
 20
146.2940662781059
 30
0.0
 40
0.02
  0
CIRCLE
  5
114
330
1F
100
AcDbEntity
  8
D-STR-STR2
  6
Continuous
 62
   134
370
    13
100
AcDbCircle
 10
54.61626590841226
 20
146.0940662781059
 30
0.0
 40
0.02
  0
CIRCLE
  5
115
330
1F
100
AcDbEntity
  8
D-STR-STR2
  6
Continuous
 62
   134
370
    13
100
AcDbCircle
 10
55.61626590841226
 20
145.2940662781059
 30
0.0
 40
0.02
  0
CIRCLE
  5
116
330
1F
100
AcDbEntity
  8
D-STR-STR2
  6
Continuous
 62
   134
370
    13
100
AcDbCircle
 10
53.41626590841226
 20
145.6940662781059
 30
0.0
 40
0.02
  0
CIRCLE
  5
117
330
1F
100
AcDbEntity
  8
D-STR-STR2
  6
Continuous
 62
   134
370
    13
100
AcDbCircle
 10
53.81626590841226
 20
145.2940662781059
 30
0.0
 40
0.02
  0
CIRCLE
  5
118
330
1F
100
AcDbEntity
  8
D-STR-STR2
  6
Continuous
 62
   134
370
    13
100
AcDbCircle
 10
52.41626590841226
 20
145.9940662781059
 30
0.0
 40
0.02
  0
CIRCLE
  5
119
330
1F
100
AcDbEntity
  8
D-STR-STR2
  6
Continuous
 62
   134
370
    13
100
AcDbCircle
 10
53.41626590841226
 20
145.2940662781059
 30
0.0
 40
0.02
  0
CIRCLE
  5
11A
330
1F
100
AcDbEntity
  8
D-STR-STR2
  6
Continuous
 62
   134
370
    13
100
AcDbCircle
 10
52.61626590841226
 20
145.6940662781059
 30
0.0
 40
0.02
  0
CIRCLE
  5
11B
330
1F
100
AcDbEntity
  8
D-STR-STR2
  6
Continuous
 62
   134
370
    13
100
AcDbCircle
 10
54.61626590841226
 20
145.6940662781059
 30
0.0
 40
0.02
  0
CIRCLE
  5
11C
330
1F
100
AcDbEntity
  8
D-STR-STR2
  6
Continuous
 62
   134
370
    13
100
AcDbCircle
 10
54.21626590841225
 20
146.2940662781059
 30
0.0
 40
0.02
  0
CIRCLE
  5
11D
330
1F
100
AcDbEntity
  8
D-STR-STR2
  6
Continuous
 62
   134
370
    13
100
AcDbCircle
 10
55.81626590841226
 20
145.8940662781059
 30
0.0
 40
0.02
  0
CIRCLE
  5
11E
330
1F
100
AcDbEntity
  8
D-STR-STR2
  6
Continuous
 62
   134
370
    13
100
AcDbCircle
 10
56.41626590841226
 20
145.6940662781059
 30
0.0
 40
0.02
  0
CIRCLE
  5
11F
330
1F
100
AcDbEntity
  8
D-STR-STR2
  6
Continuous
 62
   134
370
    13
100
AcDbCircle
 10
52.61626590841226
 20
145.0940662781059
 30
0.0
 40
0.02
  0
CIRCLE
  5
120
330
1F
100
AcDbEntity
  8
D-STR-STR2
  6
Continuous
 62
   134
370
    13
100
AcDbCircle
 10
53.61626590841226
 20
145.0940662781059
 30
0.0
 40
0.02
  0
CIRCLE
  5
121
330
1F
100
AcDbEntity
  8
D-STR-STR2
  6
Continuous
 62
   134
370
    13
100
AcDbCircle
 10
54.81626590841226
 20
144.9940662781059
 30
0.0
 40
0.02
  0
CIRCLE
  5
122
330
1F
100
AcDbEntity
  8
D-STR-STR2
  6
Continuous
 62
   134
370
    13
100
AcDbCircle
 10
55.01626590841226
 20
145.0940662781059
 30
0.0
 40
0.02
  0
CIRCLE
  5
123
330
1F
100
AcDbEntity
  8
D-STR-STR2
  6
Continuous
 62
   134
370
    13
100
AcDbCircle
 10
53.11626590841226
 20
144.9940662781059
 30
0.0
 40
0.02
  0
CIRCLE
  5
124
330
1F
100
AcDbEntity
  8
D-STR-STR2
  6
Continuous
 62
   134
370
    13
100
AcDbCircle
 10
56.31626590841226
 20
145.1940662781059
 30
0.0
 40
0.02
  0
CIRCLE
  5
125
330
1F
100
AcDbEntity
  8
D-STR-STR2
  6
Continuous
 62
   134
370
    13
100
AcDbCircle
 10
52.01626590841226
 20
144.9940662781059
 30
0.0
 40
0.02
  0
CIRCLE
  5
126
330
1F
100
AcDbEntity
  8
D-STR-STR2
  6
Continuous
 62
   134
370
    13
100
AcDbCircle
 10
60.31626590841226
 20
146.1940662781059
 30
0.0
 40
0.13
  0
CIRCLE
  5
127
330
1F
100
AcDbEntity
  8
D-STR-STR2
  6
Continuous
 62
   134
370
    13
100
AcDbCircle
 10
58.01626590841226
 20
146.2940662781059
 30
0.0
 40
0.35
  0
CIRCLE
  5
128
330
1F
100
AcDbEntity
  8
D-STR-STR2
  6
Continuous
 62
   134
370
    13
100
AcDbCircle
 10
61.11626590841226
 20
145.1940662781059
 30
0.0
 40
0.1
  0
CIRCLE
  5
129
330
1F
100
AcDbEntity
  8
D-STR-STR2
  6
Continuous
 62
   134
370
    13
100
AcDbCircle
 10
57.21626590841225
 20
146.1940662781059
 30
0.0
 40
0.2
  0
CIRCLE
  5
12A
330
1F
100
AcDbEntity
  8
D-STR-STR2
  6
Continuous
 62
   134
370
    13
100
AcDbCircle
 10
57.31626590841226
 20
145.2940662781059
 30
0.0
 40
0.15
  0
CIRCLE
  5
12B
330
1F
100
AcDbEntity
  8
D-STR-STR2
  6
Continuous
 62
   134
370
    13
100
AcDbCircle
 10
60.21626590841225
 20
145.5940662781059
 30
0.0
 40
0.12
  0
CIRCLE
  5
12C
330
1F
100
AcDbEntity
  8
D-STR-STR2
  6
Continuous
 62
   134
370
    13
100
AcDbCircle
 10
59.31626590841226
 20
145.1940662781059
 30
0.0
 40
0.05
  0
CIRCLE
  5
12D
330
1F
100
AcDbEntity
  8
D-STR-STR2
  6
Continuous
 62
   134
370
    13
100
AcDbCircle
 10
57.41626590841226
 20
145.8940662781059
 30
0.0
 40
0.05
  0
CIRCLE
  5
12E
330
1F
100
AcDbEntity
  8
D-STR-STR2
  6
Continuous
 62
   134
370
    13
100
AcDbCircle
 10
58.91626590841226
 20
145.8940662781059
 30
0.0
 40
0.05
  0
CIRCLE
  5
12F
330
1F
100
AcDbEntity
  8
D-STR-STR2
  6
Continuous
 62
   134
370
    13
100
AcDbCircle
 10
57.91626590841226
 20
145.2940662781059
 30
0.0
 40
0.05
  0
CIRCLE
  5
130
330
1F
100
AcDbEntity
  8
D-STR-STR2
  6
Continuous
 62
   134
370
    13
100
AcDbCircle
 10
58.81626590841226
 20
146.5940662781059
 30
0.0
 40
0.02
  0
CIRCLE
  5
131
330
1F
100
AcDbEntity
  8
D-STR-STR2
  6
Continuous
 62
   134
370
    13
100
AcDbCircle
 10
61.21626590841225
 20
146.2940662781059
 30
0.0
 40
0.02
  0
CIRCLE
  5
132
330
1F
100
AcDbEntity
  8
D-STR-STR2
  6
Continuous
 62
   134
370
    13
100
AcDbCircle
 10
59.61626590841226
 20
146.0940662781059
 30
0.0
 40
0.02
  0
CIRCLE
  5
133
330
1F
100
AcDbEntity
  8
D-STR-STR2
  6
Continuous
 62
   134
370
    13
100
AcDbCircle
 10
60.61626590841226
 20
145.2940662781059
 30
0.0
 40
0.02
  0
CIRCLE
  5
134
330
1F
100
AcDbEntity
  8
D-STR-STR2
  6
Continuous
 62
   134
370
    13
100
AcDbCircle
 10
58.41626590841226
 20
145.6940662781059
 30
0.0
 40
0.02
  0
CIRCLE
  5
135
330
1F
100
AcDbEntity
  8
D-STR-STR2
  6
Continuous
 62
   134
370
    13
100
AcDbCircle
 10
58.81626590841226
 20
145.2940662781059
 30
0.0
 40
0.02
  0
CIRCLE
  5
136
330
1F
100
AcDbEntity
  8
D-STR-STR2
  6
Continuous
 62
   134
370
    13
100
AcDbCircle
 10
57.41626590841226
 20
145.9940662781059
 30
0.0
 40
0.02
  0
CIRCLE
  5
137
330
1F
100
AcDbEntity
  8
D-STR-STR2
  6
Continuous
 62
   134
370
    13
100
AcDbCircle
 10
58.41626590841226
 20
145.2940662781059
 30
0.0
 40
0.02
  0
CIRCLE
  5
138
330
1F
100
AcDbEntity
  8
D-STR-STR2
  6
Continuous
 62
   134
370
    13
100
AcDbCircle
 10
57.61626590841226
 20
145.6940662781059
 30
0.0
 40
0.02
  0
CIRCLE
  5
139
330
1F
100
AcDbEntity
  8
D-STR-STR2
  6
Continuous
 62
   134
370
    13
100
AcDbCircle
 10
59.61626590841226
 20
145.6940662781059
 30
0.0
 40
0.02
  0
CIRCLE
  5
13A
330
1F
100
AcDbEntity
  8
D-STR-STR2
  6
Continuous
 62
   134
370
    13
100
AcDbCircle
 10
59.21626590841225
 20
146.2940662781059
 30
0.0
 40
0.02
  0
CIRCLE
  5
13B
330
1F
100
AcDbEntity
  8
D-STR-STR2
  6
Continuous
 62
   134
370
    13
100
AcDbCircle
 10
60.81626590841226
 20
145.8940662781059
 30
0.0
 40
0.02
  0
CIRCLE
  5
13C
330
1F
100
AcDbEntity
  8
D-BGD
  6
Continuous
 62
   134
370
    13
100
AcDbCircle
 10
61.41626590841226
 20
145.6940662781059
 30
0.0
 40
0.02
  0
CIRCLE
  5
13D
330
1F
100
AcDbEntity
  8
D-STR-STR2
  6
Continuous
 62
   134
370
    13
100
AcDbCircle
 10
57.61626590841226
 20
145.0940662781059
 30
0.0
 40
0.02
  0
CIRCLE
  5
13E
330
1F
100
AcDbEntity
  8
D-STR-STR2
  6
Continuous
 62
   134
370
    13
100
AcDbCircle
 10
58.61626590841226
 20
145.0940662781059
 30
0.0
 40
0.02
  0
CIRCLE
  5
13F
330
1F
100
AcDbEntity
  8
D-STR-STR2
  6
Continuous
 62
   134
370
    13
100
AcDbCircle
 10
59.81626590841226
 20
144.9940662781059
 30
0.0
 40
0.02
  0
CIRCLE
  5
140
330
1F
100
AcDbEntity
  8
D-STR-STR2
  6
Continuous
 62
   134
370
    13
100
AcDbCircle
 10
60.01626590841226
 20
145.0940662781059
 30
0.0
 40
0.02
  0
CIRCLE
  5
141
330
1F
100
AcDbEntity
  8
D-STR-STR2
  6
Continuous
 62
   134
370
    13
100
AcDbCircle
 10
58.11626590841226
 20
144.9940662781059
 30
0.0
 40
0.02
  0
CIRCLE
  5
142
330
1F
100
AcDbEntity
  8
D-STR-STR2
  6
Continuous
 62
   134
370
    13
100
AcDbCircle
 10
61.31626590841226
 20
145.1940662781059
 30
0.0
 40
0.02
  0
CIRCLE
  5
143
330
1F
100
AcDbEntity
  8
D-STR-STR2
  6
Continuous
 62
   134
370
    13
100
AcDbCircle
 10
57.01626590841226
 20
144.9940662781059
 30
0.0
 40
0.02
  0
LINE
  5
144
330
1F
100
AcDbEntity
  8
D-STR
  6
Continuous
 62
     7
370
    50
100
AcDbLine
 10
51.81626590841226
 20
150.1940662781059
 30
0.0
 11
51.81626590841226
 21
142.8940662781059
 31
0.0
  0
LINE
  5
145
330
1F
100
AcDbEntity
  8
D-STR
  6
Continuous
 62
     7
370
    50
100
AcDbLine
 10
51.81626590841226
 20
142.8940662781059
 30
0.0
 11
61.81626590841226
 21
142.8940662781059
 31
0.0
  0
LINE
  5
146
330
1F
100
AcDbEntity
  8
D-STR
  6
Continuous
 62
     7
370
    50
100
AcDbLine
 10
61.81626590841226
 20
142.8940662781059
 30
0.0
 11
61.81626590841226
 21
148.8940662781059
 31
0.0
  0
ELLIPSE
  5
147
330
1F
100
AcDbEntity
  8
D-STR-STR2
  6
Continuous
 62
   134
370
    13
100
AcDbEllipse
 10
52.08033296841226
 20
144.3940662781059
 30
0.0
 11
0.08682408883346682
 21
0.4924038765061027
 31
0.0
210
0.0
220
0.0
230
1.0
 40
0.5
 41
0.0
 42
6.283185307179586
  0
ELLIPSE
  5
148
330
1F
100
AcDbEntity
  8
D-STR-STR2
  6
Continuous
 62
   134
370
    13
100
AcDbEllipse
 10
52.59190458841226
 20
144.3940662781059
 30
0.0
 11
0.08682408883346682
 21
0.4924038765061027
 31
0.0
210
0.0
220
0.0
230
1.0
 40
0.5
 41
0.0
 42
6.283185307179586
  0
ELLIPSE
  5
149
330
1F
100
AcDbEntity
  8
D-STR-STR2
  6
Continuous
 62
   134
370
    13
100
AcDbEllipse
 10
53.10347620841225
 20
144.3940662781059
 30
0.0
 11
0.08682408883346682
 21
0.4924038765061027
 31
0.0
210
0.0
220
0.0
230
1.0
 40
0.5
 41
0.0
 42
6.283185307179586
  0
ELLIPSE
  5
14A
330
1F
100
AcDbEntity
  8
D-STR-STR2
  6
Continuous
 62
   134
370
    13
100
AcDbEllipse
 10
53.61504782841226
 20
144.3940662781059
 30
0.0
 11
0.08682408883346682
 21
0.4924038765061027
 31
0.0
210
0.0
220
0.0
230
1.0
 40
0.5
 41
0.0
 42
6.283185307179586
  0
ELLIPSE
  5
14B
330
1F
100
AcDbEntity
  8
D-STR-STR2
  6
Continuous
 62
   134
370
    13
100
AcDbEllipse
 10
54.12661944841226
 20
144.3940662781059
 30
0.0
 11
0.08682408883346682
 21
0.4924038765061027
 31
0.0
210
0.0
220
0.0
230
1.0
 40
0.5
 41
0.0
 42
6.283185307179586
  0
ELLIPSE
  5
14C
330
1F
100
AcDbEntity
  8
D-STR-STR2
  6
Continuous
 62
   134
370
    13
100
AcDbEllipse
 10
54.63819106841225
 20
144.3940662781059
 30
0.0
 11
0.08682408883346682
 21
0.4924038765061027
 31
0.0
210
0.0
220
0.0
230
1.0
 40
0.5
 41
0.0
 42
6.283185307179586
  0
ELLIPSE
  5
14D
330
1F
100
AcDbEntity
  8
D-STR-STR2
  6
Continuous
 62
   134
370
    13
100
AcDbEllipse
 10
55.14976268841225
 20
144.3940662781059
 30
0.0
 11
0.08682408883346682
 21
0.4924038765061027
 31
0.0
210
0.0
220
0.0
230
1.0
 40
0.5
 41
0.0
 42
6.283185307179586
  0
ELLIPSE
  5
14E
330
1F
100
AcDbEntity
  8
D-STR-STR2
  6
Continuous
 62
   134
370
    13
100
AcDbEllipse
 10
55.66133430841226
 20
144.3940662781059
 30
0.0
 11
0.08682408883346682
 21
0.4924038765061027
 31
0.0
210
0.0
220
0.0
230
1.0
 40
0.5
 41
0.0
 42
6.283185307179586
  0
ELLIPSE
  5
14F
330
1F
100
AcDbEntity
  8
D-STR-STR2
  6
Continuous
 62
   134
370
    13
100
AcDbEllipse
 10
56.17290592841226
 20
144.3940662781059
 30
0.0
 11
0.08682408883346682
 21
0.4924038765061027
 31
0.0
210
0.0
220
0.0
230
1.0
 40
0.5
 41
0.0
 42
6.283185307179586
  0
ELLIPSE
  5
150
330
1F
100
AcDbEntity
  8
D-STR-STR2
  6
Continuous
 62
   134
370
    13
100
AcDbEllipse
 10
56.68447754841225
 20
144.3940662781059
 30
0.0
 11
0.08682408883346682
 21
0.4924038765061027
 31
0.0
210
0.0
220
0.0
230
1.0
 40
0.5
 41
0.0
 42
6.283185307179586
  0
ELLIPSE
  5
151
330
1F
100
AcDbEntity
  8
D-STR-STR2
  6
Continuous
 62
   134
370
    13
100
AcDbEllipse
 10
57.19604916841226
 20
144.3940662781059
 30
0.0
 11
0.08682408883346682
 21
0.4924038765061027
 31
0.0
210
0.0
220
0.0
230
1.0
 40
0.5
 41
0.0
 42
6.283185307179586
  0
ELLIPSE
  5
152
330
1F
100
AcDbEntity
  8
D-STR-STR2
  6
Continuous
 62
   134
370
    13
100
AcDbEllipse
 10
57.70762078841226
 20
144.3940662781059
 30
0.0
 11
0.08682408883346682
 21
0.4924038765061027
 31
0.0
210
0.0
220
0.0
230
1.0
 40
0.5
 41
0.0
 42
6.283185307179586
  0
ELLIPSE
  5
153
330
1F
100
AcDbEntity
  8
D-STR-STR2
  6
Continuous
 62
   134
370
    13
100
AcDbEllipse
 10
58.21919240841226
 20
144.3940662781059
 30
0.0
 11
0.08682408883346682
 21
0.4924038765061027
 31
0.0
210
0.0
220
0.0
230
1.0
 40
0.5
 41
0.0
 42
6.283185307179586
  0
ELLIPSE
  5
154
330
1F
100
AcDbEntity
  8
D-STR-STR2
  6
Continuous
 62
   134
370
    13
100
AcDbEllipse
 10
58.73076402841225
 20
144.3940662781059
 30
0.0
 11
0.08682408883346682
 21
0.4924038765061027
 31
0.0
210
0.0
220
0.0
230
1.0
 40
0.5
 41
0.0
 42
6.283185307179586
  0
ELLIPSE
  5
155
330
1F
100
AcDbEntity
  8
D-STR-STR2
  6
Continuous
 62
   134
370
    13
100
AcDbEllipse
 10
59.24233566841226
 20
144.3940662781059
 30
0.0
 11
0.08682408883346682
 21
0.4924038765061027
 31
0.0
210
0.0
220
0.0
230
1.0
 40
0.5
 41
0.0
 42
6.283185307179586
  0
ELLIPSE
  5
156
330
1F
100
AcDbEntity
  8
D-STR-STR2
  6
Continuous
 62
   134
370
    13
100
AcDbEllipse
 10
59.75390728841225
 20
144.3940662781059
 30
0.0
 11
0.08682408883346682
 21
0.4924038765061027
 31
0.0
210
0.0
220
0.0
230
1.0
 40
0.5
 41
0.0
 42
6.283185307179586
  0
ELLIPSE
  5
157
330
1F
100
AcDbEntity
  8
D-STR-STR2
  6
Continuous
 62
   134
370
    13
100
AcDbEllipse
 10
60.26547890841226
 20
144.3940662781059
 30
0.0
 11
0.08682408883346682
 21
0.4924038765061027
 31
0.0
210
0.0
220
0.0
230
1.0
 40
0.5
 41
0.0
 42
6.283185307179586
  0
ELLIPSE
  5
158
330
1F
100
AcDbEntity
  8
D-STR-STR2
  6
Continuous
 62
   134
370
    13
100
AcDbEllipse
 10
60.77705052841225
 20
144.3940662781059
 30
0.0
 11
0.08682408883346682
 21
0.4924038765061027
 31
0.0
210
0.0
220
0.0
230
1.0
 40
0.5
 41
0.0
 42
6.283185307179586
  0
ELLIPSE
  5
159
330
1F
100
AcDbEntity
  8
D-STR-STR2
  6
Continuous
 62
   134
370
    13
100
AcDbEllipse
 10
61.28862214841226
 20
144.3940662781059
 30
0.0
 11
0.08682408883346682
 21
0.4924038765061027
 31
0.0
210
0.0
220
0.0
230
1.0
 40
0.5
 41
0.0
 42
6.283185307179586
  0
ELLIPSE
  5
15A
330
1F
100
AcDbEntity
  8
D-STR-STR2
  6
Continuous
 62
   134
370
    13
100
AcDbEllipse
 10
61.55219884841226
 20
143.3940662781059
 30
0.0
 11
-0.08682408883346682
 21
-0.4924038765061027
 31
0.0
210
0.0
220
0.0
230
1.0
 40
0.5
 41
0.0
 42
6.283185307179586
  0
ELLIPSE
  5
15B
330
1F
100
AcDbEntity
  8
D-STR-STR2
  6
Continuous
 62
   134
370
    13
100
AcDbEllipse
 10
61.04062720841226
 20
143.3940662781059
 30
0.0
 11
-0.08682408883346682
 21
-0.4924038765061027
 31
0.0
210
0.0
220
0.0
230
1.0
 40
0.5
 41
0.0
 42
6.283185307179586
  0
ELLIPSE
  5
15C
330
1F
100
AcDbEntity
  8
D-STR-STR2
  6
Continuous
 62
   134
370
    13
100
AcDbEllipse
 10
60.52905558841226
 20
143.3940662781059
 30
0.0
 11
-0.08682408883346682
 21
-0.4924038765061027
 31
0.0
210
0.0
220
0.0
230
1.0
 40
0.5
 41
0.0
 42
6.283185307179586
  0
ELLIPSE
  5
15D
330
1F
100
AcDbEntity
  8
D-STR-STR2
  6
Continuous
 62
   134
370
    13
100
AcDbEllipse
 10
60.01748396841226
 20
143.3940662781059
 30
0.0
 11
-0.08682408883346682
 21
-0.4924038765061027
 31
0.0
210
0.0
220
0.0
230
1.0
 40
0.5
 41
0.0
 42
6.283185307179586
  0
ELLIPSE
  5
15E
330
1F
100
AcDbEntity
  8
D-STR-STR2
  6
Continuous
 62
   134
370
    13
100
AcDbEllipse
 10
59.50591234841225
 20
143.3940662781059
 30
0.0
 11
-0.08682408883346682
 21
-0.4924038765061027
 31
0.0
210
0.0
220
0.0
230
1.0
 40
0.5
 41
0.0
 42
6.283185307179586
  0
ELLIPSE
  5
15F
330
1F
100
AcDbEntity
  8
D-STR-STR2
  6
Continuous
 62
   134
370
    13
100
AcDbEllipse
 10
58.99434072841226
 20
143.3940662781059
 30
0.0
 11
-0.08682408883346682
 21
-0.4924038765061027
 31
0.0
210
0.0
220
0.0
230
1.0
 40
0.5
 41
0.0
 42
6.283185307179586
  0
ELLIPSE
  5
160
330
1F
100
AcDbEntity
  8
D-STR-STR2
  6
Continuous
 62
   134
370
    13
100
AcDbEllipse
 10
58.48276910841226
 20
143.3940662781059
 30
0.0
 11
-0.08682408883346682
 21
-0.4924038765061027
 31
0.0
210
0.0
220
0.0
230
1.0
 40
0.5
 41
0.0
 42
6.283185307179586
  0
ELLIPSE
  5
161
330
1F
100
AcDbEntity
  8
D-STR-STR2
  6
Continuous
 62
   134
370
    13
100
AcDbEllipse
 10
57.97119748841226
 20
143.3940662781059
 30
0.0
 11
-0.08682408883346682
 21
-0.4924038765061027
 31
0.0
210
0.0
220
0.0
230
1.0
 40
0.5
 41
0.0
 42
6.283185307179586
  0
ELLIPSE
  5
162
330
1F
100
AcDbEntity
  8
D-STR-STR2
  6
Continuous
 62
   134
370
    13
100
AcDbEllipse
 10
57.45962586841225
 20
143.3940662781059
 30
0.0
 11
-0.08682408883346682
 21
-0.4924038765061027
 31
0.0
210
0.0
220
0.0
230
1.0
 40
0.5
 41
0.0
 42
6.283185307179586
  0
ELLIPSE
  5
163
330
1F
100
AcDbEntity
  8
D-STR-STR2
  6
Continuous
 62
   134
370
    13
100
AcDbEllipse
 10
56.94805424841226
 20
143.3940662781059
 30
0.0
 11
-0.08682408883346682
 21
-0.4924038765061027
 31
0.0
210
0.0
220
0.0
230
1.0
 40
0.5
 41
0.0
 42
6.283185307179586
  0
ELLIPSE
  5
164
330
1F
100
AcDbEntity
  8
D-STR-STR2
  6
Continuous
 62
   134
370
    13
100
AcDbEllipse
 10
56.43648262841226
 20
143.3940662781059
 30
0.0
 11
-0.08682408883346682
 21
-0.4924038765061027
 31
0.0
210
0.0
220
0.0
230
1.0
 40
0.5
 41
0.0
 42
6.283185307179586
  0
ELLIPSE
  5
165
330
1F
100
AcDbEntity
  8
D-STR-STR2
  6
Continuous
 62
   134
370
    13
100
AcDbEllipse
 10
55.92491100841226
 20
143.3940662781059
 30
0.0
 11
-0.08682408883346682
 21
-0.4924038765061027
 31
0.0
210
0.0
220
0.0
230
1.0
 40
0.5
 41
0.0
 42
6.283185307179586
  0
ELLIPSE
  5
166
330
1F
100
AcDbEntity
  8
D-STR-STR2
  6
Continuous
 62
   134
370
    13
100
AcDbEllipse
 10
55.41333938841225
 20
143.3940662781059
 30
0.0
 11
-0.08682408883346682
 21
-0.4924038765061027
 31
0.0
210
0.0
220
0.0
230
1.0
 40
0.5
 41
0.0
 42
6.283185307179586
  0
ELLIPSE
  5
167
330
1F
100
AcDbEntity
  8
D-STR-STR2
  6
Continuous
 62
   134
370
    13
100
AcDbEllipse
 10
54.90176776841225
 20
143.3940662781059
 30
0.0
 11
-0.08682408883346682
 21
-0.4924038765061027
 31
0.0
210
0.0
220
0.0
230
1.0
 40
0.5
 41
0.0
 42
6.283185307179586
  0
ELLIPSE
  5
168
330
1F
100
AcDbEntity
  8
D-STR-STR2
  6
Continuous
 62
   134
370
    13
100
AcDbEllipse
 10
54.39019614841226
 20
143.3940662781059
 30
0.0
 11
-0.08682408883346682
 21
-0.4924038765061027
 31
0.0
210
0.0
220
0.0
230
1.0
 40
0.5
 41
0.0
 42
6.283185307179586
  0
ELLIPSE
  5
169
330
1F
100
AcDbEntity
  8
D-STR-STR2
  6
Continuous
 62
   134
370
    13
100
AcDbEllipse
 10
53.87862450841225
 20
143.3940662781059
 30
0.0
 11
-0.08682408883346682
 21
-0.4924038765061027
 31
0.0
210
0.0
220
0.0
230
1.0
 40
0.5
 41
0.0
 42
6.283185307179586
  0
ELLIPSE
  5
16A
330
1F
100
AcDbEntity
  8
D-STR-STR2
  6
Continuous
 62
   134
370
    13
100
AcDbEllipse
 10
53.36705288841226
 20
143.3940662781059
 30
0.0
 11
-0.08682408883346682
 21
-0.4924038765061027
 31
0.0
210
0.0
220
0.0
230
1.0
 40
0.5
 41
0.0
 42
6.283185307179586
  0
ELLIPSE
  5
16B
330
1F
100
AcDbEntity
  8
D-STR-STR2
  6
Continuous
 62
   134
370
    13
100
AcDbEllipse
 10
52.85548126841226
 20
143.3940662781059
 30
0.0
 11
-0.08682408883346682
 21
-0.4924038765061027
 31
0.0
210
0.0
220
0.0
230
1.0
 40
0.5
 41
0.0
 42
6.283185307179586
  0
ELLIPSE
  5
16C
330
1F
100
AcDbEntity
  8
D-STR-STR2
  6
Continuous
 62
   134
370
    13
100
AcDbEllipse
 10
52.34390964841226
 20
143.3940662781059
 30
0.0
 11
-0.08682408883346682
 21
-0.4924038765061027
 31
0.0
210
0.0
220
0.0
230
1.0
 40
0.5
 41
0.0
 42
6.283185307179586
  0
LINE
  5
16D
330
1F
100
AcDbEntity
  8
D-STR
  6
Continuous
 62
     7
370
    50
100
AcDbLine
 10
61.81626590841226
 20
148.8940662781059
 30
0.0
 11
103.8162659084122
 21
149.7340662781059
 31
0.0
  0
LINE
  5
16E
330
1F
100
AcDbEntity
  8
D-STR
  6
Continuous
 62
     7
370
    50
100
AcDbLine
 10
172.9162659084123
 20
139.5222095381059
 30
0.0
 11
173.1162659084123
 21
139.5222095381059
 31
0.0
  0
LINE
  5
16F
330
1F
100
AcDbEntity
  8
D-STR
  6
Continuous
 62
     7
370
    50
100
AcDbLine
 10
173.1162659084123
 20
139.7222095381059
 30
0.0
 11
172.9162659084123
 21
139.5222095381059
 31
0.0
  0
LINE
  5
170
330
1F
100
AcDbEntity
  8
D-STR
  6
Continuous
 62
     7
370
    50
100
AcDbLine
 10
165.3162659084122
 20
139.5222095381059
 30
0.0
 11
172.9162659084122
 21
139.5222095381059
 31
0.0
  0
LINE
  5
171
330
1F
100
AcDbEntity
  8
D-STR
  6
Continuous
 62
     7
370
    50
100
AcDbLine
 10
172.7591957484123
 20
139.5222095381059
 30
0.0
 11
165.5591957484123
 21
139.5222095381059
 31
0.0
  0
LINE
  5
172
330
1F
100
AcDbEntity
  8
D-STR
  6
Continuous
 62
     7
370
    50
100
AcDbLine
 10
173.1162659084123
 20
146.1222095381059
 30
0.0
 11
173.1162659084123
 21
139.7222095381059
 31
0.0
  0
LINE
  5
173
330
1F
100
AcDbEntity
  8
D-STR
  6
Continuous
 62
     7
370
    50
100
AcDbLine
 10
168.8662659084123
 20
146.7222095381059
 30
0.0
 11
168.9962659084123
 21
148.3622095381059
 31
0.0
  0
LINE
  5
174
330
1F
100
AcDbEntity
  8
D-STR
  6
Continuous
 62
     7
370
    50
100
AcDbLine
 10
169.3662659084123
 20
146.7222095381059
 30
0.0
 11
169.2362659084123
 21
148.3622095381059
 31
0.0
  0
ARC
  5
175
330
1F
100
AcDbEntity
  8
D-STR
  6
Continuous
 62
     7
370
    50
100
AcDbCircle
 10
167.1162659084123
 20
145.7222095381059
 30
0.0
 40
1.0
100
AcDbArc
 50
90.0
 51
180.0
  0
LINE
  5
176
330
1F
100
AcDbEntity
  8
D-STR
  6
Continuous
 62
     7
370
    50
100
AcDbLine
 10
166.1162659084123
 20
145.7222095381059
 30
0.0
 11
166.1162659084123
 21
142.1420134381059
 31
0.0
  0
ARC
  5
177
330
1F
100
AcDbEntity
  8
D-STR
  6
Continuous
 62
     7
370
    50
100
AcDbCircle
 10
167.1162659084123
 20
142.1420134381059
 30
0.0
 40
1.0
100
AcDbArc
 50
180.0
 51
258.6900676910885
  0
ARC
  5
178
330
1F
100
AcDbEntity
  8
D-STR
  6
Continuous
 62
     7
370
    50
100
AcDbCircle
 10
171.1162659084123
 20
145.7222095381059
 30
0.0
 40
1.0
100
AcDbArc
 50
0.0
 51
90.0
  0
LINE
  5
179
330
1F
100
AcDbEntity
  8
D-STR
  6
Continuous
 62
     7
370
    50
100
AcDbLine
 10
172.1162659084123
 20
145.7222095381059
 30
0.0
 11
172.1162659084123
 21
142.1420134381059
 31
0.0
  0
ARC
  5
17A
330
1F
100
AcDbEntity
  8
D-STR
  6
Continuous
 62
     7
370
    50
100
AcDbCircle
 10
171.1162659084123
 20
142.1420134381059
 30
0.0
 40
1.0
100
AcDbArc
 50
281.3099323089115
 51
0.0
  0
LINE
  5
17B
330
1F
100
AcDbEntity
  8
D-STR
  6
Continuous
 62
     7
370
    50
100
AcDbLine
 10
171.1162659084123
 20
146.7222095381059
 30
0.0
 11
167.1162659084123
 21
146.7222095381059
 31
0.0
  0
LINE
  5
17C
330
1F
100
AcDbEntity
  8
D-STR
  6
Continuous
 62
     7
370
    50
100
AcDbLine
 10
171.3123820284123
 20
141.1614327581059
 30
0.0
 11
169.1162659084123
 21
140.7222095381059
 31
0.0
  0
LINE
  5
17D
330
1F
100
AcDbEntity
  8
D-STR
  6
Continuous
 62
     7
370
    50
100
AcDbLine
 10
169.1162659084123
 20
140.7222095381059
 30
0.0
 11
166.9201497684123
 21
141.1614327581059
 31
0.0
  0
LINE
  5
17E
330
1F
100
AcDbEntity
  8
D-STR
  6
Continuous
 62
     7
370
    50
100
AcDbLine
 10
173.8162659084122
 20
148.5223206381059
 30
0.0
 11
173.8162659084122
 21
147.1222095381059
 31
0.0
  0
LINE
  5
17F
330
1F
100
AcDbEntity
  8
D-STR
  6
Continuous
 62
     7
370
    50
100
AcDbLine
 10
173.8162659084122
 20
147.1222095381059
 30
0.0
 11
173.1162659084123
 21
146.1222095381059
 31
0.0
  0
LINE
  5
180
330
1F
100
AcDbEntity
  8
D-STR
  6
Continuous
 62
     7
370
    50
100
AcDbLine
 10
173.8162659084122
 20
148.5223206381059
 30
0.0
 11
169.2962659084122
 21
148.4222095381059
 31
0.0
  0
LINE
  5
181
330
1F
100
AcDbEntity
  8
D-STR
  6
Continuous
 62
     7
370
    50
100
AcDbLine
 10
168.9362659084123
 20
148.4222095381059
 30
0.0
 11
164.4162659084122
 21
148.5220662781059
 31
0.0
  0
LINE
  5
182
330
1F
100
AcDbEntity
  8
D-STR
  6
Continuous
 62
     7
370
    50
100
AcDbLine
 10
169.0162659084123
 20
148.0222095381059
 30
0.0
 11
168.9962659084123
 21
148.3622095381059
 31
0.0
  0
LINE
  5
183
330
1F
100
AcDbEntity
  8
D-STR
  6
Continuous
 62
     7
370
    50
100
AcDbLine
 10
169.2162659084123
 20
148.0222095381059
 30
0.0
 11
169.2362659084123
 21
148.3622095381059
 31
0.0
  0
LINE
  5
184
330
1F
100
AcDbEntity
  8
D-STR
  6
Continuous
 62
     7
370
    50
100
AcDbLine
 10
169.2162659084123
 20
148.0222095381059
 30
0.0
 11
169.0162659084123
 21
148.0222095381059
 31
0.0
  0
LINE
  5
185
330
1F
100
AcDbEntity
  8
D-STR
  6
Continuous
 62
     7
370
    50
100
AcDbLine
 10
169.2962659084123
 20
148.4222095381059
 30
0.0
 11
169.2362659084123
 21
148.3622095381059
 31
0.0
  0
LINE
  5
186
330
1F
100
AcDbEntity
  8
D-STR
  6
Continuous
 62
     7
370
    50
100
AcDbLine
 10
168.9362659084123
 20
148.4222095381059
 30
0.0
 11
168.9962659084123
 21
148.3622095381059
 31
0.0
  0
LINE
  5
187
330
1F
100
AcDbEntity
  8
D-STR
  6
Continuous
 62
     7
370
    50
100
AcDbLine
 10
163.1162659084123
 20
134.3222095381059
 30
0.0
 11
163.1162659084123
 21
137.3222095381059
 31
0.0
  0
LINE
  5
188
330
1F
100
AcDbEntity
  8
D-STR
  6
Continuous
 62
     7
370
    50
100
AcDbLine
 10
164.1162659084123
 20
137.3222095381059
 30
0.0
 11
164.1162659084123
 21
139.3222095381059
 31
0.0
  0
LINE
  5
189
330
1F
100
AcDbEntity
  8
D-STR
  6
Continuous
 62
     7
370
    50
100
AcDbLine
 10
165.1162659084123
 20
139.5222095381059
 30
0.0
 11
165.1162659084123
 21
139.3222095381059
 31
0.0
  0
LINE
  5
18A
330
1F
100
AcDbEntity
  8
D-STR
  6
Continuous
 62
     7
370
    50
100
AcDbLine
 10
165.3162659084122
 20
139.5222095381059
 30
0.0
 11
165.1162659084123
 21
139.5222095381059
 31
0.0
  0
LINE
  5
18B
330
1F
100
AcDbEntity
  8
D-STR
  6
Continuous
 62
     7
370
    50
100
AcDbLine
 10
165.3162659084122
 20
139.5222095381059
 30
0.0
 11
165.1162659084123
 21
139.7222095381059
 31
0.0
  0
LINE
  5
18C
330
1F
100
AcDbEntity
  8
D-STR
  6
Continuous
 62
     7
370
    50
100
AcDbLine
 10
165.1162659084123
 20
146.1222095381059
 30
0.0
 11
165.1162659084123
 21
139.7222095381059
 31
0.0
  0
LINE
  5
18D
330
1F
100
AcDbEntity
  8
D-STR
  6
Continuous
 62
     7
370
    50
100
AcDbLine
 10
164.4162659084123
 20
148.5220662781059
 30
0.0
 11
164.4162659084123
 21
147.1222095381059
 31
0.0
  0
LINE
  5
18E
330
1F
100
AcDbEntity
  8
D-STR
  6
Continuous
 62
     7
370
    50
100
AcDbLine
 10
164.4162659084123
 20
147.1222095381059
 30
0.0
 11
165.1162659084123
 21
146.1222095381059
 31
0.0
  0
ELLIPSE
  5
18F
330
1F
100
AcDbEntity
  8
D-STR-STR2
  6
Continuous
 62
   134
370
    13
100
AcDbEllipse
 10
175.4052786884123
 20
135.0722095381059
 30
0.0
 11
-0.1302361332502073
 21
0.7386058147591541
 31
0.0
210
0.0
220
0.0
230
1.0
 40
0.5
 41
0.0
 42
6.283185307179586
  0
ELLIPSE
  5
190
330
1F
100
AcDbEntity
  8
D-STR-STR2
  6
Continuous
 62
   134
370
    13
100
AcDbEllipse
 10
174.6379212484123
 20
135.0722095381059
 30
0.0
 11
-0.1302361332502073
 21
0.7386058147591541
 31
0.0
210
0.0
220
0.0
230
1.0
 40
0.5
 41
0.0
 42
6.283185307179586
  0
ELLIPSE
  5
191
330
1F
100
AcDbEntity
  8
D-STR-STR2
  6
Continuous
 62
   134
370
    13
100
AcDbEllipse
 10
173.8705638284123
 20
135.0722095381059
 30
0.0
 11
-0.1302361332502073
 21
0.7386058147591541
 31
0.0
210
0.0
220
0.0
230
1.0
 40
0.5
 41
0.0
 42
6.283185307179586
  0
ELLIPSE
  5
192
330
1F
100
AcDbEntity
  8
D-STR-STR2
  6
Continuous
 62
   134
370
    13
100
AcDbEllipse
 10
173.1032063884122
 20
135.0722095381059
 30
0.0
 11
-0.1302361332502073
 21
0.7386058147591541
 31
0.0
210
0.0
220
0.0
230
1.0
 40
0.5
 41
0.0
 42
6.283185307179586
  0
ELLIPSE
  5
193
330
1F
100
AcDbEntity
  8
D-STR-STR2
  6
Continuous
 62
   134
370
    13
100
AcDbEllipse
 10
175.4052786884123
 20
136.5722095381059
 30
0.0
 11
-0.1302361332502073
 21
0.7386058147591541
 31
0.0
210
0.0
220
0.0
230
1.0
 40
0.5
 41
0.0
 42
6.283185307179586
  0
ELLIPSE
  5
194
330
1F
100
AcDbEntity
  8
D-STR-STR2
  6
Continuous
 62
   134
370
    13
100
AcDbEllipse
 10
174.6379212484123
 20
136.5722095381059
 30
0.0
 11
-0.1302361332502073
 21
0.7386058147591541
 31
0.0
210
0.0
220
0.0
230
1.0
 40
0.5
 41
0.0
 42
6.283185307179586
  0
ELLIPSE
  5
195
330
1F
100
AcDbEntity
  8
D-STR-STR2
  6
Continuous
 62
   134
370
    13
100
AcDbEllipse
 10
173.8705638284123
 20
136.5722095381059
 30
0.0
 11
-0.1302361332502073
 21
0.7386058147591541
 31
0.0
210
0.0
220
0.0
230
1.0
 40
0.5
 41
0.0
 42
6.283185307179586
  0
ELLIPSE
  5
196
330
1F
100
AcDbEntity
  8
D-STR-STR2
  6
Continuous
 62
   134
370
    13
100
AcDbEllipse
 10
173.1032063884122
 20
136.5722095381059
 30
0.0
 11
-0.1302361332502073
 21
0.7386058147591541
 31
0.0
210
0.0
220
0.0
230
1.0
 40
0.5
 41
0.0
 42
6.283185307179586
  0
ELLIPSE
  5
197
330
1F
100
AcDbEntity
  8
D-STR-STR2
  6
Continuous
 62
   134
370
    13
100
AcDbEllipse
 10
165.8103228484123
 20
135.0722095381059
 30
0.0
 11
-0.1302361332502073
 21
0.7386058147591541
 31
0.0
210
0.0
220
0.0
230
1.0
 40
0.5
 41
0.0
 42
6.283185307179586
  0
ELLIPSE
  5
198
330
1F
100
AcDbEntity
  8
D-STR-STR2
  6
Continuous
 62
   134
370
    13
100
AcDbEllipse
 10
165.0429654084122
 20
135.0722095381059
 30
0.0
 11
-0.1302361332502073
 21
0.7386058147591541
 31
0.0
210
0.0
220
0.0
230
1.0
 40
0.5
 41
0.0
 42
6.283185307179586
  0
ELLIPSE
  5
199
330
1F
100
AcDbEntity
  8
D-STR-STR2
  6
Continuous
 62
   134
370
    13
100
AcDbEllipse
 10
164.2756079684123
 20
135.0722095381059
 30
0.0
 11
-0.1302361332502073
 21
0.7386058147591541
 31
0.0
210
0.0
220
0.0
230
1.0
 40
0.5
 41
0.0
 42
6.283185307179586
  0
ELLIPSE
  5
19A
330
1F
100
AcDbEntity
  8
D-STR-STR2
  6
Continuous
 62
   134
370
    13
100
AcDbEllipse
 10
165.8103228484123
 20
136.5722095381059
 30
0.0
 11
-0.1302361332502073
 21
0.7386058147591541
 31
0.0
210
0.0
220
0.0
230
1.0
 40
0.5
 41
0.0
 42
6.283185307179586
  0
ELLIPSE
  5
19B
330
1F
100
AcDbEntity
  8
D-STR-STR2
  6
Continuous
 62
   134
370
    13
100
AcDbEllipse
 10
165.0429654084122
 20
136.5722095381059
 30
0.0
 11
-0.1302361332502073
 21
0.7386058147591541
 31
0.0
210
0.0
220
0.0
230
1.0
 40
0.5
 41
0.0
 42
6.283185307179586
  0
ELLIPSE
  5
19C
330
1F
100
AcDbEntity
  8
D-STR-STR2
  6
Continuous
 62
   134
370
    13
100
AcDbEllipse
 10
164.2756079684123
 20
136.5722095381059
 30
0.0
 11
-0.1302361332502073
 21
0.7386058147591541
 31
0.0
210
0.0
220
0.0
230
1.0
 40
0.5
 41
0.0
 42
6.283185307179586
  0
ELLIPSE
  5
19D
330
1F
100
AcDbEntity
  8
D-STR-STR2
  6
Continuous
 62
   134
370
    13
100
AcDbEllipse
 10
163.5082505484123
 20
135.0722095381059
 30
0.0
 11
-0.1302361332502073
 21
0.7386058147591541
 31
0.0
210
0.0
220
0.0
230
1.0
 40
0.5
 41
0.0
 42
6.283185307179586
  0
ELLIPSE
  5
19E
330
1F
100
AcDbEntity
  8
D-STR-STR2
  6
Continuous
 62
   134
370
    13
100
AcDbEllipse
 10
163.5082505484123
 20
136.5722095381059
 30
0.0
 11
-0.1302361332502073
 21
0.7386058147591541
 31
0.0
210
0.0
220
0.0
230
1.0
 40
0.5
 41
0.0
 42
6.283185307179586
  0
HATCH
  5
19F
330
1F
100
AcDbEntity
  8
D-STR-STR2
  6
Continuous
 62
   134
370
    13
100
AcDbHatch
 10
0.0
 20
0.0
 30
0.0
210
0.0
220
0.0
230
1.0
  2
SOLID
 70
     1
 71
     0
 91
        1
 92
        3
 72
     0
 73
     1
 93
        6
 10
172.9162659084123
 20
139.5222095381059
 10
173.1162659084123
 20
139.5222095381059
 10
173.1162659084123
 20
139.3222095381059
 10
165.1162659084123
 20
139.3222095381059
 10
165.1162659084123
 20
139.5222095381059
 10
165.3162659084122
 20
139.5222095381059
 97
        0
 75
     0
 76
     1
 98
        0
  0
LINE
  5
1A0
330
1F
100
AcDbEntity
  8
D-STR
  6
Continuous
 62
     7
370
    50
100
AcDbLine
 10
173.1162659084123
 20
139.5222095381059
 30
0.0
 11
173.1162659084123
 21
139.3222095381059
 31
0.0
  0
LINE
  5
1A1
330
1F
100
AcDbEntity
  8
D-STR
  6
Continuous
 62
     7
370
    50
100
AcDbLine
 10
164.1162659084123
 20
139.3222095381059
 30
0.0
 11
173.1162659084123
 21
139.3222095381059
 31
0.0
  0
LINE
  5
1A2
330
1F
100
AcDbEntity
  8
D-STR
  6
Continuous
 62
     7
370
    50
100
AcDbLine
 10
173.8162659084122
 20
148.5223206381059
 30
0.0
 11
175.8162659084122
 21
148.5223206381059
 31
0.0
  0
LINE
  5
1A3
330
1F
100
AcDbEntity
  8
D-STR
  6
Continuous
 62
     7
370
    50
100
AcDbLine
 10
163.1162659084123
 20
137.3222095381059
 30
0.0
 11
175.8162659084122
 21
137.3222095381059
 31
0.0
  0
LINE
  5
1A4
330
1F
100
AcDbEntity
  8
D-STR
  6
Continuous
 62
     7
370
    50
100
AcDbLine
 10
175.8162659084122
 20
148.5223206381059
 30
0.0
 11
175.8162659084122
 21
134.3222095381059
 31
0.0
  0
LINE
  5
1A5
330
1F
100
AcDbEntity
  8
D-STR
  6
Continuous
 62
     7
370
    50
100
AcDbLine
 10
163.1162659084123
 20
134.3222095381059
 30
0.0
 11
175.8162659084122
 21
134.3222095381059
 31
0.0
  0
LINE
  5
1A6
330
1F
100
AcDbEntity
  8
D-STR
  6
Continuous
 62
     7
370
    50
100
AcDbLine
 10
164.4162659084123
 20
148.5220662781059
 30
0.0
 11
103.8162659084123
 21
149.7340662781059
 31
0.0
  0
LINE
  5
1A7
330
1F
100
AcDbEntity
  8
D-STR
  6
Continuous
 62
     7
370
    30
100
AcDbLine
 10
229.98686904
 20
68.41160612
 30
0.0
 11
229.98686904
 21
69.41160632
 31
0.0
  0
LINE
  5
1A8
330
1F
100
AcDbEntity
  8
D-STR
  6
Continuous
 62
     7
370
    30
100
AcDbLine
 10
229.88686944
 20
69.41160632
 30
0.0
 11
232.37286924
 21
69.41160632
 31
0.0
  0
LINE
  5
1A9
330
1F
100
AcDbEntity
  8
D-STR
  6
Continuous
 62
     7
370
    30
100
AcDbLine
 10
232.27286904
 20
68.41160612
 30
0.0
 11
232.57286904
 21
68.41160612
 31
0.0
  0
LINE
  5
1AA
330
1F
100
AcDbEntity
  8
D-BMK
  6
dashed dotted
 62
     5
370
    13
100
AcDbLine
 10
231.12986904
 20
72.95460632000001
 30
0.0
 11
231.12986904
 21
27.81160612
 31
0.0
  0
LINE
  5
1AB
330
1F
100
AcDbEntity
  8
D-STR
  6
Continuous
 62
     7
370
    30
100
AcDbLine
 10
229.88686944
 20
69.81160652
 30
0.0
 11
229.88686944
 21
69.41160632
 31
0.0
  0
LINE
  5
1AC
330
1F
100
AcDbEntity
  8
D-STR
  6
Continuous
 62
     7
370
    30
100
AcDbLine
 10
232.37286924
 20
69.81160652
 30
0.0
 11
232.37286924
 21
69.41160632
 31
0.0
  0
LINE
  5
1AD
330
1F
100
AcDbEntity
  8
D-STR
  6
Continuous
 62
     7
370
    30
100
AcDbLine
 10
229.88686944
 20
69.81160652
 30
0.0
 11
232.37286924
 21
69.81160652
 31
0.0
  0
ARC
  5
1AE
330
1F
100
AcDbEntity
  8
D-STR
  6
Continuous
 62
     7
370
    30
100
AcDbCircle
 10
231.12986904
 20
69.81160652
 30
0.0
 40
1.143
100
AcDbArc
 50
89.99998099999932
 51
180.0000199999999
  0
ARC
  5
1AF
330
1F
100
AcDbEntity
  8
D-STR
  6
Continuous
 62
     7
370
    30
100
AcDbCircle
 10
231.12986904
 20
69.81160652
 30
0.0
 40
1.143
100
AcDbArc
 50
0.0
 51
89.99998099999932
  0
LINE
  5
1B0
330
1F
100
AcDbEntity
  8
D-STR
  6
Continuous
 62
     7
370
    30
100
AcDbLine
 10
229.68686904
 20
68.41160612
 30
0.0
 11
230.28686904
 21
68.41160612
 31
0.0
  0
LINE
  5
1B1
330
1F
100
AcDbEntity
  8
D-STR
  6
Continuous
 62
     7
370
    30
100
AcDbLine
 10
229.68686904
 20
67.21160612
 30
0.0
 11
230.28686904
 21
67.21160612
 31
0.0
  0
LINE
  5
1B2
330
1F
100
AcDbEntity
  8
D-STR
  6
Continuous
 62
     7
370
    30
100
AcDbLine
 10
232.27286904
 20
67.21160612
 30
0.0
 11
232.57286904
 21
67.21160612
 31
0.0
  0
LINE
  5
1B3
330
1F
100
AcDbEntity
  8
D-BMK
  6
dashed dotted
 62
     5
370
    13
100
AcDbLine
 10
228.59486904
 20
67.81160612
 30
0.0
 11
233.87286924
 21
67.81160612
 31
0.0
  0
LINE
  5
1B4
330
1F
100
AcDbEntity
  8
D-STR
  6
Continuous
 62
     7
370
    30
100
AcDbLine
 10
232.87286904
 20
68.01160652
 30
0.0
 11
232.87286904
 21
67.61160632
 31
0.0
  0
LINE
  5
1B5
330
1F
100
AcDbEntity
  8
D-STR
  6
Continuous
 62
     7
370
    30
100
AcDbLine
 10
228.32986944
 20
70.60160612
 30
0.0
 11
228.32986944
 21
69.40160612
 31
0.0
  0
LINE
  5
1B6
330
1F
100
AcDbEntity
  8
D-STR
  6
Continuous
 62
     7
370
    30
100
AcDbLine
 10
229.59486924
 20
68.41160612
 30
0.0
 11
229.59486924
 21
67.21160612
 31
0.0
  0
LINE
  5
1B7
330
1F
100
AcDbEntity
  8
D-STR
  6
Continuous
 62
     7
370
    30
100
AcDbLine
 10
229.69246284
 20
71.23492232
 30
0.0
 11
228.42186924
 21
70.54680572
 31
0.0
  0
LINE
  5
1B8
330
1F
100
AcDbEntity
  8
D-STR
  6
Continuous
 62
     7
370
    30
100
AcDbLine
 10
229.64086944
 20
71.31160652
 30
0.0
 11
229.64086944
 21
71.25929372
 31
0.0
  0
LINE
  5
1B9
330
1F
100
AcDbEntity
  8
D-STR
  6
Continuous
 62
     7
370
    30
100
AcDbLine
 10
229.64086944
 20
64.36802192
 30
0.0
 11
229.64086944
 21
64.31160632000001
 31
0.0
  0
LINE
  5
1BA
330
1F
100
AcDbEntity
  8
D-STR
  6
Continuous
 62
     7
370
    30
100
AcDbLine
 10
229.59486924
 20
68.41160612
 30
0.0
 11
228.32986944
 21
69.40160612
 31
0.0
  0
LINE
  5
1BB
330
1F
100
AcDbEntity
  8
D-STR
  6
Continuous
 62
     7
370
    30
100
AcDbLine
 10
229.68686904
 20
68.45643092
 30
0.0
 11
229.68686904
 21
67.17449312
 31
0.0
  0
LINE
  5
1BC
330
1F
100
AcDbEntity
  8
D-STR
  6
Continuous
 62
     7
370
    30
100
AcDbLine
 10
228.42186924
 20
70.54680572000001
 30
0.0
 11
228.42186924
 21
69.44643092000001
 31
0.0
  0
LINE
  5
1BD
330
1F
100
AcDbEntity
  8
D-STR
  6
Continuous
 62
     7
370
    30
100
AcDbLine
 10
229.69246284
 20
71.28723511999999
 30
0.0
 11
229.69246284
 21
71.23492232
 31
0.0
  0
LINE
  5
1BE
330
1F
100
AcDbEntity
  8
D-STR
  6
Continuous
 62
     7
370
    30
100
AcDbLine
 10
229.69246284
 20
64.38780572
 30
0.0
 11
229.69246284
 21
64.33139012000001
 31
0.0
  0
LINE
  5
1BF
330
1F
100
AcDbEntity
  8
D-STR
  6
Continuous
 62
     7
370
    30
100
AcDbLine
 10
230.28686904
 20
68.41160612
 30
0.0
 11
230.28686904
 21
67.21160612
 31
0.0
  0
LINE
  5
1C0
330
1F
100
AcDbEntity
  8
D-STR
  6
Continuous
 62
     7
370
    30
100
AcDbLine
 10
232.57286904
 20
68.41160612
 30
0.0
 11
232.57286904
 21
67.21160612
 31
0.0
  0
LINE
  5
1C1
330
1F
100
AcDbEntity
  8
D-STR
  6
Continuous
 62
     7
370
    30
100
AcDbLine
 10
232.57286904
 20
68.01160652
 30
0.0
 11
232.87286904
 21
68.01160652
 31
0.0
  0
LINE
  5
1C2
330
1F
100
AcDbEntity
  8
D-STR
  6
Continuous
 62
     7
370
    30
100
AcDbLine
 10
232.57286904
 20
67.61160632
 30
0.0
 11
232.87286904
 21
67.61160632
 31
0.0
  0
LINE
  5
1C3
330
1F
100
AcDbEntity
  8
D-STR
  6
Continuous
 62
     7
370
    30
100
AcDbLine
 10
229.64086944
 20
71.31160652
 30
0.0
 11
228.32986944
 21
70.60160612
 31
0.0
  0
LINE
  5
1C4
330
1F
100
AcDbEntity
  8
D-STR
  6
Continuous
 62
     7
370
    30
100
AcDbLine
 10
229.68686904
 20
68.45643092
 30
0.0
 11
228.42186924
 21
69.44643092
 31
0.0
  0
LINE
  5
1C5
330
1F
100
AcDbEntity
  8
D-STR
  6
Continuous
 62
     7
370
    30
100
AcDbLine
 10
229.59486924
 20
67.21160612
 30
0.0
 11
228.32986944
 21
66.22160612
 31
0.0
  0
LINE
  5
1C6
330
1F
100
AcDbEntity
  8
D-STR
  6
Continuous
 62
     7
370
    30
100
AcDbLine
 10
229.68686904
 20
67.16678192
 30
0.0
 11
228.42186924
 21
66.17678192000001
 31
0.0
  0
LINE
  5
1C7
330
1F
100
AcDbEntity
  8
D-STR
  6
Continuous
 62
     7
370
    30
100
AcDbLine
 10
228.32986944
 20
65.02160612
 30
0.0
 11
228.32986944
 21
66.22160612
 31
0.0
  0
LINE
  5
1C8
330
1F
100
AcDbEntity
  8
D-STR
  6
Continuous
 62
     7
370
    30
100
AcDbLine
 10
229.69246284
 20
64.38829052
 30
0.0
 11
228.42186924
 21
65.07640712
 31
0.0
  0
LINE
  5
1C9
330
1F
100
AcDbEntity
  8
D-STR
  6
Continuous
 62
     7
370
    30
100
AcDbLine
 10
229.64086944
 20
64.31160632
 30
0.0
 11
229.64086944
 21
64.36391911999999
 31
0.0
  0
LINE
  5
1CA
330
1F
100
AcDbEntity
  8
D-STR
  6
Continuous
 62
     7
370
    30
100
AcDbLine
 10
228.42186924
 20
65.07640712
 30
0.0
 11
228.42186924
 21
66.17678192
 31
0.0
  0
LINE
  5
1CB
330
1F
100
AcDbEntity
  8
D-STR
  6
Continuous
 62
     7
370
    30
100
AcDbLine
 10
229.69246284
 20
64.33597772
 30
0.0
 11
229.69246284
 21
64.38829052
 31
0.0
  0
LINE
  5
1CC
330
1F
100
AcDbEntity
  8
D-STR
  6
Continuous
 62
     7
370
    30
100
AcDbLine
 10
229.64086944
 20
64.31160632
 30
0.0
 11
228.32986944
 21
65.02160611999999
 31
0.0
  0
LINE
  5
1CD
330
1F
100
AcDbEntity
  8
D-STR
  6
Continuous
 62
     7
370
    40
100
AcDbLine
 10
235.12986904
 20
55.81160612
 30
0.0
 11
227.12986904
 21
55.81160612
 31
0.0
  0
LINE
  5
1CE
330
1F
100
AcDbEntity
  8
D-STR
  6
Continuous
 62
     7
370
    40
100
AcDbLine
 10
235.12986904
 20
55.81160612
 30
0.0
 11
235.12986904
 21
45.81160612
 31
0.0
  0
LINE
  5
1CF
330
1F
100
AcDbEntity
  8
D-STR
  6
Continuous
 62
     7
370
    40
100
AcDbLine
 10
227.12986904
 20
55.81160612
 30
0.0
 11
227.12986904
 21
45.81160612
 31
0.0
  0
LINE
  5
1D0
330
1F
100
AcDbEntity
  8
D-STR
  6
Continuous
 62
     7
370
    30
100
AcDbLine
 10
229.98686904
 20
67.21340792
 30
0.0
 11
229.98686904
 21
27.81160611999999
 31
0.0
  0
LINE
  5
1D1
330
1F
100
AcDbEntity
  8
D-STR
  6
Continuous
 62
     7
370
    50
100
AcDbLine
 10
232.27286904
 20
27.81160612
 30
0.0
 11
229.98686904
 21
27.81160612
 31
0.0
  0
LINE
  5
1D2
330
1F
100
AcDbEntity
  8
D-STR
  6
Continuous
 62
     7
370
    30
100
AcDbLine
 10
232.27286904
 20
69.41160632
 30
0.0
 11
232.27286904
 21
27.81160612000001
 31
0.0
  0
LINE
  5
1D3
330
1F
100
AcDbEntity
  8
D-STR
  6
Continuous
 62
     7
370
    30
100
AcDbLine
 10
155.4732655084123
 20
161.3340662781059
 30
0.0
 11
155.4732655084123
 21
162.3340664781059
 31
0.0
  0
LINE
  5
1D4
330
1F
100
AcDbEntity
  8
D-STR
  6
Continuous
 62
     7
370
    30
100
AcDbLine
 10
155.3732659084123
 20
162.3340664781059
 30
0.0
 11
157.8592657084123
 21
162.3340664781059
 31
0.0
  0
LINE
  5
1D5
330
1F
100
AcDbEntity
  8
D-STR
  6
Continuous
 62
     7
370
    30
100
AcDbLine
 10
157.7592655084123
 20
161.3340662781059
 30
0.0
 11
158.0592655084123
 21
161.3340662781059
 31
0.0
  0
LINE
  5
1D6
330
1F
100
AcDbEntity
  8
D-BMK
  6
dashed dotted
 62
     5
370
    13
100
AcDbLine
 10
156.6162655084123
 20
163.8770666781059
 30
0.0
 11
156.6162655084123
 21
120.7340662781059
 31
0.0
  0
LINE
  5
1D7
330
1F
100
AcDbEntity
  8
D-STR
  6
Continuous
 62
     7
370
    30
100
AcDbLine
 10
155.3732659084123
 20
162.7340666781059
 30
0.0
 11
155.3732659084123
 21
162.3340664781059
 31
0.0
  0
LINE
  5
1D8
330
1F
100
AcDbEntity
  8
D-STR
  6
Continuous
 62
     7
370
    30
100
AcDbLine
 10
157.8592657084123
 20
162.7340666781059
 30
0.0
 11
157.8592657084123
 21
162.3340664781059
 31
0.0
  0
LINE
  5
1D9
330
1F
100
AcDbEntity
  8
D-STR
  6
Continuous
 62
     7
370
    30
100
AcDbLine
 10
155.3732659084123
 20
162.7340666781059
 30
0.0
 11
157.8592657084123
 21
162.7340666781059
 31
0.0
  0
ARC
  5
1DA
330
1F
100
AcDbEntity
  8
D-STR
  6
Continuous
 62
     7
370
    30
100
AcDbCircle
 10
156.6162655084123
 20
162.7340666781059
 30
0.0
 40
1.143
100
AcDbArc
 50
89.99998099999932
 51
180.0000200000007
  0
ARC
  5
1DB
330
1F
100
AcDbEntity
  8
D-STR
  6
Continuous
 62
     7
370
    30
100
AcDbCircle
 10
156.6162655084123
 20
162.7340666781059
 30
0.0
 40
1.143
100
AcDbArc
 50
0.0
 51
89.99998099999932
  0
LINE
  5
1DC
330
1F
100
AcDbEntity
  8
D-STR
  6
Continuous
 62
     7
370
    30
100
AcDbLine
 10
155.1732655084123
 20
161.3340662781059
 30
0.0
 11
155.7732655084123
 21
161.3340662781059
 31
0.0
  0
LINE
  5
1DD
330
1F
100
AcDbEntity
  8
D-STR
  6
Continuous
 62
     7
370
    30
100
AcDbLine
 10
155.1732655084123
 20
160.1340662781059
 30
0.0
 11
155.7732655084123
 21
160.1340662781059
 31
0.0
  0
LINE
  5
1DE
330
1F
100
AcDbEntity
  8
D-STR
  6
Continuous
 62
     7
370
    30
100
AcDbLine
 10
157.7592655084123
 20
160.1340662781059
 30
0.0
 11
158.0592655084123
 21
160.1340662781059
 31
0.0
  0
LINE
  5
1DF
330
1F
100
AcDbEntity
  8
D-BMK
  6
dashed dotted
 62
     5
370
    13
100
AcDbLine
 10
154.0812655084123
 20
160.7340662781059
 30
0.0
 11
159.3592657084123
 21
160.7340662781059
 31
0.0
  0
LINE
  5
1E0
330
1F
100
AcDbEntity
  8
D-STR
  6
Continuous
 62
     7
370
    30
100
AcDbLine
 10
158.3592655084122
 20
160.9340666781059
 30
0.0
 11
158.3592655084122
 21
160.5340664781059
 31
0.0
  0
LINE
  5
1E1
330
1F
100
AcDbEntity
  8
D-STR
  6
Continuous
 62
     7
370
    30
100
AcDbLine
 10
153.8162659084122
 20
163.5240662781059
 30
0.0
 11
153.8162659084122
 21
162.3240662781059
 31
0.0
  0
LINE
  5
1E2
330
1F
100
AcDbEntity
  8
D-STR
  6
Continuous
 62
     7
370
    30
100
AcDbLine
 10
155.0812657084123
 20
161.3340662781059
 30
0.0
 11
155.0812657084123
 21
160.1340662781059
 31
0.0
  0
LINE
  5
1E3
330
1F
100
AcDbEntity
  8
D-STR
  6
Continuous
 62
     7
370
    30
100
AcDbLine
 10
155.1788593084123
 20
164.1573824781059
 30
0.0
 11
153.9082657084122
 21
163.4692658781059
 31
0.0
  0
LINE
  5
1E4
330
1F
100
AcDbEntity
  8
D-STR
  6
Continuous
 62
     7
370
    30
100
AcDbLine
 10
155.1272659084123
 20
164.2340666781059
 30
0.0
 11
155.1272659084123
 21
164.1817538781059
 31
0.0
  0
LINE
  5
1E5
330
1F
100
AcDbEntity
  8
D-STR
  6
Continuous
 62
     7
370
    30
100
AcDbLine
 10
155.1272659084123
 20
157.2904820781059
 30
0.0
 11
155.1272659084123
 21
157.2340664781059
 31
0.0
  0
LINE
  5
1E6
330
1F
100
AcDbEntity
  8
D-STR
  6
Continuous
 62
     7
370
    30
100
AcDbLine
 10
155.0812657084123
 20
161.3340662781059
 30
0.0
 11
153.8162659084123
 21
162.3240662781059
 31
0.0
  0
LINE
  5
1E7
330
1F
100
AcDbEntity
  8
D-STR
  6
Continuous
 62
     7
370
    30
100
AcDbLine
 10
155.1732655084123
 20
161.3788910781059
 30
0.0
 11
155.1732655084123
 21
160.0969532781059
 31
0.0
  0
LINE
  5
1E8
330
1F
100
AcDbEntity
  8
D-STR
  6
Continuous
 62
     7
370
    30
100
AcDbLine
 10
153.9082657084122
 20
163.4692658781059
 30
0.0
 11
153.9082657084122
 21
162.3688910781059
 31
0.0
  0
LINE
  5
1E9
330
1F
100
AcDbEntity
  8
D-STR
  6
Continuous
 62
     7
370
    30
100
AcDbLine
 10
155.1788593084123
 20
164.2096952781059
 30
0.0
 11
155.1788593084123
 21
164.1573824781059
 31
0.0
  0
LINE
  5
1EA
330
1F
100
AcDbEntity
  8
D-STR
  6
Continuous
 62
     7
370
    30
100
AcDbLine
 10
155.1788593084123
 20
157.3102658781059
 30
0.0
 11
155.1788593084123
 21
157.2538502781059
 31
0.0
  0
LINE
  5
1EB
330
1F
100
AcDbEntity
  8
D-STR
  6
Continuous
 62
     7
370
    30
100
AcDbLine
 10
155.7732655084123
 20
161.3340662781059
 30
0.0
 11
155.7732655084123
 21
160.1340662781059
 31
0.0
  0
LINE
  5
1EC
330
1F
100
AcDbEntity
  8
D-STR
  6
Continuous
 62
     7
370
    30
100
AcDbLine
 10
158.0592655084123
 20
161.3340662781059
 30
0.0
 11
158.0592655084123
 21
160.1340662781059
 31
0.0
  0
LINE
  5
1ED
330
1F
100
AcDbEntity
  8
D-STR
  6
Continuous
 62
     7
370
    30
100
AcDbLine
 10
158.0592655084123
 20
160.9340666781059
 30
0.0
 11
158.3592655084123
 21
160.9340666781059
 31
0.0
  0
LINE
  5
1EE
330
1F
100
AcDbEntity
  8
D-STR
  6
Continuous
 62
     7
370
    30
100
AcDbLine
 10
158.0592655084123
 20
160.5340664781059
 30
0.0
 11
158.3592655084123
 21
160.5340664781059
 31
0.0
  0
LINE
  5
1EF
330
1F
100
AcDbEntity
  8
D-STR
  6
Continuous
 62
     7
370
    30
100
AcDbLine
 10
155.1272659084123
 20
164.2340666781059
 30
0.0
 11
153.8162659084122
 21
163.5240662781059
 31
0.0
  0
LINE
  5
1F0
330
1F
100
AcDbEntity
  8
D-STR
  6
Continuous
 62
     7
370
    30
100
AcDbLine
 10
155.1732655084123
 20
161.3788910781059
 30
0.0
 11
153.9082657084123
 21
162.3688910781059
 31
0.0
  0
LINE
  5
1F1
330
1F
100
AcDbEntity
  8
D-STR
  6
Continuous
 62
     7
370
    30
100
AcDbLine
 10
155.0812657084123
 20
160.1340662781059
 30
0.0
 11
153.8162659084123
 21
159.1440662781059
 31
0.0
  0
LINE
  5
1F2
330
1F
100
AcDbEntity
  8
D-STR
  6
Continuous
 62
     7
370
    30
100
AcDbLine
 10
155.1732655084123
 20
160.0892420781059
 30
0.0
 11
153.9082657084123
 21
159.0992420781059
 31
0.0
  0
LINE
  5
1F3
330
1F
100
AcDbEntity
  8
D-STR
  6
Continuous
 62
     7
370
    30
100
AcDbLine
 10
153.8162659084122
 20
157.9440662781059
 30
0.0
 11
153.8162659084122
 21
159.1440662781059
 31
0.0
  0
LINE
  5
1F4
330
1F
100
AcDbEntity
  8
D-STR
  6
Continuous
 62
     7
370
    30
100
AcDbLine
 10
155.1788593084123
 20
157.3107506781059
 30
0.0
 11
153.9082657084122
 21
157.9988672781059
 31
0.0
  0
LINE
  5
1F5
330
1F
100
AcDbEntity
  8
D-STR
  6
Continuous
 62
     7
370
    30
100
AcDbLine
 10
155.1272659084123
 20
157.2340664781059
 30
0.0
 11
155.1272659084123
 21
157.2863792781059
 31
0.0
  0
LINE
  5
1F6
330
1F
100
AcDbEntity
  8
D-STR
  6
Continuous
 62
     7
370
    30
100
AcDbLine
 10
153.9082657084122
 20
157.9988672781059
 30
0.0
 11
153.9082657084122
 21
159.0992420781059
 31
0.0
  0
LINE
  5
1F7
330
1F
100
AcDbEntity
  8
D-STR
  6
Continuous
 62
     7
370
    30
100
AcDbLine
 10
155.1788593084123
 20
157.2584378781059
 30
0.0
 11
155.1788593084123
 21
157.3107506781059
 31
0.0
  0
LINE
  5
1F8
330
1F
100
AcDbEntity
  8
D-STR
  6
Continuous
 62
     7
370
    30
100
AcDbLine
 10
155.1272659084123
 20
157.2340664781059
 30
0.0
 11
153.8162659084122
 21
157.9440662781059
 31
0.0
  0
LINE
  5
1F9
330
1F
100
AcDbEntity
  8
D-STR
  6
Continuous
 62
     7
370
    30
100
AcDbLine
 10
155.4732655084123
 20
160.1358680781059
 30
0.0
 11
155.4732655084123
 21
120.7340662781059
 31
0.0
  0
LINE
  5
1FA
330
1F
100
AcDbEntity
  8
D-STR
  6
Continuous
 62
     7
370
    30
100
AcDbLine
 10
157.7592655084123
 20
162.3340664781059
 30
0.0
 11
157.7592655084123
 21
120.7340662781059
 31
0.0
  0
LINE
  5
1FB
330
1F
100
AcDbEntity
  8
D-STR
  6
Continuous
 62
     7
370
    50
100
AcDbLine
 10
157.7592655084123
 20
120.7340662781059
 30
0.0
 11
155.4732655084123
 21
120.7340662781059
 31
0.0
  0
DIMENSION
  5
1FC
330
1F
100
AcDbEntity
  8
D-STR-DIM
  6
Continuous
 62
     5
370
    13
100
AcDbDimension
  2
*D4
 10
153.8162659084122
 20
168.5240662781059
 30
0.0
 11
103.8162659084123
 21
170.7740662781059
 31
0.0
 70
   160
  1
有効幅員 5.0m以上
 71
     5
 42
100.0
  3
Standard
100
AcDbAlignedDimension
 13
53.81626590841226
 23
149.7940662781059
 33
0.0
 14
153.8162659084122
 24
163.5240662781059
 34
0.0
100
AcDbRotatedDimension
1001
ACAD
1000
DSTYLE
1002
{
1070
   271
1070
     2
1070
   178
1070
     5
1070
   177
1070
     5
1070
   176
1070
     5
1070
   289
1070
     3
1070
    77
1070
     1
1070
   174
1070
     1
1070
   172
1070
     1
1070
    73
1070
     0
1070
    74
1070
     0
1070
   173
1070
     1
1070
   279
1070
     2
1070
    44
1040
1.0
1070
    42
1040
1.0
1070
   147
1040
0.0
1070
   140
1040
2.777777777777778
1070
    41
1040
0.9999999999999749
1070
   340
1005
4A
1002
}
  0
DIMENSION
  5
209
330
1F
100
AcDbEntity
  8
D-STR-DIM
  6
Continuous
 62
     5
370
    13
100
AcDbDimension
  2
*D5
 10
175.8162659084122
 20
176.5240662781059
 30
0.0
 11
113.8162659084123
 21
178.7740662781059
 31
0.0
 70
   160
  1
道路区域
 71
     5
 42
124.0
  3
Standard
100
AcDbAlignedDimension
 13
51.81626590841226
 23
150.1940662781059
 33
0.0
 14
175.8162659084122
 24
148.5223206381059
 34
0.0
100
AcDbRotatedDimension
1001
ACAD
1000
DSTYLE
1002
{
1070
   271
1070
     2
1070
   178
1070
     5
1070
   177
1070
     5
1070
   176
1070
     5
1070
   289
1070
     3
1070
    77
1070
     1
1070
   174
1070
     1
1070
   172
1070
     1
1070
    73
1070
     0
1070
    74
1070
     0
1070
   173
1070
     1
1070
   279
1070
     2
1070
    44
1040
1.000000000000028
1070
    42
1040
1.0
1070
   147
1040
0.0
1070
   140
1040
2.777777777777778
1070
    41
1040
0.9999999999999749
1070
   340
1005
4A
1002
}
  0
DIMENSION
  5
216
330
1F
100
AcDbEntity
  8
D-STR-DIM
  6
Continuous
 62
     5
370
    13
100
AcDbDimension
  2
*D6
 10
53.81626590841226
 20
155.1940662781059
 30
0.0
 11
63.34869982841226
 21
157.4621214981059
 31
0.0
 70
   160
  1
有効幅員には含めない
 71
     5
 42
2.0
  3
Standard
100
AcDbAlignedDimension
 13
51.81626590841226
 23
150.1940662781059
 33
0.0
 14
53.81626590841226
 24
149.7940662781059
 34
0.0
100
AcDbRotatedDimension
1001
ACAD
1000
DSTYLE
1002
{
1070
   271
1070
     2
1070
   178
1070
     5
1070
   177
1070
     5
1070
   176
1070
     5
1070
   289
1070
     3
1070
    77
1070
     1
1070
   174
1070
     1
1070
   172
1070
     1
1070
    73
1070
     0
1070
    74
1070
     0
1070
   173
1070
     1
1070
   279
1070
     2
1070
    44
1040
1.0
1070
    42
1040
1.0
1070
   147
1040
0.0
1070
   140
1040
2.777777777777778
1070
    41
1040
0.9999999999999749
1070
   340
1005
4A
1002
}
  0
LINE
  5
223
330
1F
100
AcDbEntity
  8
D-BMK
  6
dashed dotted
 62
     5
370
    13
100
AcDbLine
 10
103.7906472484123
 20
98.66009907810587
 30
0.0
 11
103.7906472484123
 21
83.45188567810587
 31
0.0
  0
LINE
  5
224
330
1F
100
AcDbEntity
  8
D-STR
  6
Continuous
 62
     7
370
    50
100
AcDbLine
 10
54.69064724841225
 20
82.42950039810587
 30
0.0
 11
54.49064724841225
 21
82.42950039810587
 31
0.0
  0
LINE
  5
225
330
1F
100
AcDbEntity
  8
D-STR
  6
Continuous
 62
     7
370
    50
100
AcDbLine
 10
54.49064724841226
 20
82.62950039810588
 30
0.0
 11
54.69064724841226
 21
82.42950039810587
 31
0.0
  0
LINE
  5
226
330
1F
100
AcDbEntity
  8
D-STR
  6
Continuous
 62
     7
370
    50
100
AcDbLine
 10
62.29064724841226
 20
82.42950039810587
 30
0.0
 11
54.69064724841225
 21
82.42950039810587
 31
0.0
  0
LINE
  5
227
330
1F
100
AcDbEntity
  8
D-STR
  6
Continuous
 62
     7
370
    50
100
AcDbLine
 10
54.84771738841226
 20
82.42950039810587
 30
0.0
 11
62.04771738841226
 21
82.42950039810587
 31
0.0
  0
LINE
  5
228
330
1F
100
AcDbEntity
  8
D-STR
  6
Continuous
 62
     7
370
    50
100
AcDbLine
 10
54.49064724841226
 20
89.02950039810588
 30
0.0
 11
54.49064724841226
 21
82.62950039810588
 31
0.0
  0
LINE
  5
229
330
1F
100
AcDbEntity
  8
D-STR
  6
Continuous
 62
     7
370
    50
100
AcDbLine
 10
58.74064724841226
 20
89.62950039810588
 30
0.0
 11
58.61064724841226
 21
91.26950039810588
 31
0.0
  0
LINE
  5
22A
330
1F
100
AcDbEntity
  8
D-STR
  6
Continuous
 62
     7
370
    50
100
AcDbLine
 10
58.24064724841226
 20
89.62950039810588
 30
0.0
 11
58.37064724841226
 21
91.26950039810588
 31
0.0
  0
ARC
  5
22B
330
1F
100
AcDbEntity
  8
D-STR
  6
Continuous
 62
     7
370
    50
100
AcDbCircle
 10
60.49064724841226
 20
88.62950039810588
 30
0.0
 40
1.0
100
AcDbArc
 50
0.0
 51
90.0
  0
LINE
  5
22C
330
1F
100
AcDbEntity
  8
D-STR
  6
Continuous
 62
     7
370
    50
100
AcDbLine
 10
61.49064724841226
 20
88.62950039810588
 30
0.0
 11
61.49064724841226
 21
85.04930429810588
 31
0.0
  0
ARC
  5
22D
330
1F
100
AcDbEntity
  8
D-STR
  6
Continuous
 62
     7
370
    50
100
AcDbCircle
 10
60.49064724841226
 20
85.04930429810588
 30
0.0
 40
1.0
100
AcDbArc
 50
281.3099323089111
 51
0.0
  0
ARC
  5
22E
330
1F
100
AcDbEntity
  8
D-STR
  6
Continuous
 62
     7
370
    50
100
AcDbCircle
 10
56.49064724841226
 20
88.62950039810588
 30
0.0
 40
1.0
100
AcDbArc
 50
90.0
 51
180.0
  0
LINE
  5
22F
330
1F
100
AcDbEntity
  8
D-STR
  6
Continuous
 62
     7
370
    50
100
AcDbLine
 10
55.49064724841226
 20
88.62950039810588
 30
0.0
 11
55.49064724841226
 21
85.04930429810588
 31
0.0
  0
ARC
  5
230
330
1F
100
AcDbEntity
  8
D-STR
  6
Continuous
 62
     7
370
    50
100
AcDbCircle
 10
56.49064724841226
 20
85.04930429810588
 30
0.0
 40
1.0
100
AcDbArc
 50
180.0
 51
258.6900676910889
  0
LINE
  5
231
330
1F
100
AcDbEntity
  8
D-STR
  6
Continuous
 62
     7
370
    50
100
AcDbLine
 10
56.49064724841226
 20
89.62950039810588
 30
0.0
 11
60.49064724841226
 21
89.62950039810588
 31
0.0
  0
LINE
  5
232
330
1F
100
AcDbEntity
  8
D-STR
  6
Continuous
 62
     7
370
    50
100
AcDbLine
 10
56.29453112841226
 20
84.06872361810588
 30
0.0
 11
58.49064724841226
 21
83.62950039810588
 31
0.0
  0
LINE
  5
233
330
1F
100
AcDbEntity
  8
D-STR
  6
Continuous
 62
     7
370
    50
100
AcDbLine
 10
58.49064724841226
 20
83.62950039810588
 30
0.0
 11
60.68676338841226
 21
84.06872361810588
 31
0.0
  0
LINE
  5
234
330
1F
100
AcDbEntity
  8
D-STR
  6
Continuous
 62
     7
370
    50
100
AcDbLine
 10
53.79064724841226
 20
91.42961151810587
 30
0.0
 11
58.31064724841226
 21
91.32950039810588
 31
0.0
  0
LINE
  5
235
330
1F
100
AcDbEntity
  8
D-STR
  6
Continuous
 62
     7
370
    50
100
AcDbLine
 10
58.67064724841226
 20
91.32950039810588
 30
0.0
 11
63.19064724841226
 21
91.42935715810587
 31
0.0
  0
LINE
  5
236
330
1F
100
AcDbEntity
  8
D-STR
  6
Continuous
 62
     7
370
    50
100
AcDbLine
 10
58.59064724841226
 20
90.92950039810587
 30
0.0
 11
58.61064724841226
 21
91.26950039810588
 31
0.0
  0
LINE
  5
237
330
1F
100
AcDbEntity
  8
D-STR
  6
Continuous
 62
     7
370
    50
100
AcDbLine
 10
58.39064724841226
 20
90.92950039810587
 30
0.0
 11
58.37064724841225
 21
91.26950039810588
 31
0.0
  0
LINE
  5
238
330
1F
100
AcDbEntity
  8
D-STR
  6
Continuous
 62
     7
370
    50
100
AcDbLine
 10
58.39064724841226
 20
90.92950039810587
 30
0.0
 11
58.59064724841226
 21
90.92950039810587
 31
0.0
  0
LINE
  5
239
330
1F
100
AcDbEntity
  8
D-STR
  6
Continuous
 62
     7
370
    50
100
AcDbLine
 10
58.31064724841226
 20
91.32950039810588
 30
0.0
 11
58.37064724841226
 21
91.26950039810588
 31
0.0
  0
LINE
  5
23A
330
1F
100
AcDbEntity
  8
D-STR
  6
Continuous
 62
     7
370
    50
100
AcDbLine
 10
58.67064724841226
 20
91.32950039810588
 30
0.0
 11
58.61064724841226
 21
91.26950039810588
 31
0.0
  0
LINE
  5
23B
330
1F
100
AcDbEntity
  8
D-STR
  6
Continuous
 62
     7
370
    50
100
AcDbLine
 10
64.49064724841226
 20
77.22950039810587
 30
0.0
 11
64.49064724841226
 21
80.22950039810587
 31
0.0
  0
LINE
  5
23C
330
1F
100
AcDbEntity
  8
D-STR
  6
Continuous
 62
     7
370
    50
100
AcDbLine
 10
63.49064724841226
 20
80.22950039810587
 30
0.0
 11
63.49064724841226
 21
82.22950039810587
 31
0.0
  0
LINE
  5
23D
330
1F
100
AcDbEntity
  8
D-STR
  6
Continuous
 62
     7
370
    50
100
AcDbLine
 10
62.49064724841226
 20
82.42950039810587
 30
0.0
 11
62.49064724841226
 21
82.22950039810587
 31
0.0
  0
LINE
  5
23E
330
1F
100
AcDbEntity
  8
D-STR
  6
Continuous
 62
     7
370
    50
100
AcDbLine
 10
62.29064724841226
 20
82.42950039810587
 30
0.0
 11
62.49064724841226
 21
82.42950039810587
 31
0.0
  0
LINE
  5
23F
330
1F
100
AcDbEntity
  8
D-STR
  6
Continuous
 62
     7
370
    50
100
AcDbLine
 10
62.29064724841226
 20
82.42950039810587
 30
0.0
 11
62.49064724841226
 21
82.62950039810588
 31
0.0
  0
LINE
  5
240
330
1F
100
AcDbEntity
  8
D-STR
  6
Continuous
 62
     7
370
    50
100
AcDbLine
 10
62.49064724841226
 20
89.02950039810588
 30
0.0
 11
62.49064724841226
 21
82.62950039810588
 31
0.0
  0
LINE
  5
241
330
1F
100
AcDbEntity
  8
D-STR
  6
Continuous
 62
     7
370
    50
100
AcDbLine
 10
63.19064724841225
 20
91.42935715810587
 30
0.0
 11
63.19064724841225
 21
90.02950039810588
 31
0.0
  0
LINE
  5
242
330
1F
100
AcDbEntity
  8
D-STR
  6
Continuous
 62
     7
370
    50
100
AcDbLine
 10
63.19064724841225
 20
90.02950039810588
 30
0.0
 11
62.49064724841225
 21
89.02950039810588
 31
0.0
  0
ELLIPSE
  5
243
330
1F
100
AcDbEntity
  8
D-STR-STR2
  6
Continuous
 62
   134
370
    13
100
AcDbEllipse
 10
52.20163446841225
 20
77.97950039810587
 30
0.0
 11
0.1302361332502002
 21
0.7386058147591541
 31
0.0
210
0.0
220
0.0
230
1.0
 40
0.5
 41
0.0
 42
6.283185307179586
  0
ELLIPSE
  5
244
330
1F
100
AcDbEntity
  8
D-STR-STR2
  6
Continuous
 62
   134
370
    13
100
AcDbEllipse
 10
52.96899188841225
 20
77.97950039810587
 30
0.0
 11
0.1302361332502002
 21
0.7386058147591541
 31
0.0
210
0.0
220
0.0
230
1.0
 40
0.5
 41
0.0
 42
6.283185307179586
  0
ELLIPSE
  5
245
330
1F
100
AcDbEntity
  8
D-STR-STR2
  6
Continuous
 62
   134
370
    13
100
AcDbEllipse
 10
53.73634932841226
 20
77.97950039810587
 30
0.0
 11
0.1302361332502002
 21
0.7386058147591541
 31
0.0
210
0.0
220
0.0
230
1.0
 40
0.5
 41
0.0
 42
6.283185307179586
  0
ELLIPSE
  5
246
330
1F
100
AcDbEntity
  8
D-STR-STR2
  6
Continuous
 62
   134
370
    13
100
AcDbEllipse
 10
54.50370676841225
 20
77.97950039810587
 30
0.0
 11
0.1302361332502002
 21
0.7386058147591541
 31
0.0
210
0.0
220
0.0
230
1.0
 40
0.5
 41
0.0
 42
6.283185307179586
  0
ELLIPSE
  5
247
330
1F
100
AcDbEntity
  8
D-STR-STR2
  6
Continuous
 62
   134
370
    13
100
AcDbEllipse
 10
52.20163446841225
 20
79.47950039810587
 30
0.0
 11
0.1302361332502002
 21
0.7386058147591541
 31
0.0
210
0.0
220
0.0
230
1.0
 40
0.5
 41
0.0
 42
6.283185307179586
  0
ELLIPSE
  5
248
330
1F
100
AcDbEntity
  8
D-STR-STR2
  6
Continuous
 62
   134
370
    13
100
AcDbEllipse
 10
52.96899188841225
 20
79.47950039810587
 30
0.0
 11
0.1302361332502002
 21
0.7386058147591541
 31
0.0
210
0.0
220
0.0
230
1.0
 40
0.5
 41
0.0
 42
6.283185307179586
  0
ELLIPSE
  5
249
330
1F
100
AcDbEntity
  8
D-STR-STR2
  6
Continuous
 62
   134
370
    13
100
AcDbEllipse
 10
53.73634932841226
 20
79.47950039810587
 30
0.0
 11
0.1302361332502002
 21
0.7386058147591541
 31
0.0
210
0.0
220
0.0
230
1.0
 40
0.5
 41
0.0
 42
6.283185307179586
  0
ELLIPSE
  5
24A
330
1F
100
AcDbEntity
  8
D-STR-STR2
  6
Continuous
 62
   134
370
    13
100
AcDbEllipse
 10
54.50370676841225
 20
79.47950039810587
 30
0.0
 11
0.1302361332502002
 21
0.7386058147591541
 31
0.0
210
0.0
220
0.0
230
1.0
 40
0.5
 41
0.0
 42
6.283185307179586
  0
ELLIPSE
  5
24B
330
1F
100
AcDbEntity
  8
D-STR-STR2
  6
Continuous
 62
   134
370
    13
100
AcDbEllipse
 10
61.79659030841226
 20
77.97950039810587
 30
0.0
 11
0.1302361332502002
 21
0.7386058147591541
 31
0.0
210
0.0
220
0.0
230
1.0
 40
0.5
 41
0.0
 42
6.283185307179586
  0
ELLIPSE
  5
24C
330
1F
100
AcDbEntity
  8
D-STR-STR2
  6
Continuous
 62
   134
370
    13
100
AcDbEllipse
 10
62.56394774841225
 20
77.97950039810587
 30
0.0
 11
0.1302361332502002
 21
0.7386058147591541
 31
0.0
210
0.0
220
0.0
230
1.0
 40
0.5
 41
0.0
 42
6.283185307179586
  0
ELLIPSE
  5
24D
330
1F
100
AcDbEntity
  8
D-STR-STR2
  6
Continuous
 62
   134
370
    13
100
AcDbEllipse
 10
63.33130516841226
 20
77.97950039810587
 30
0.0
 11
0.1302361332502002
 21
0.7386058147591541
 31
0.0
210
0.0
220
0.0
230
1.0
 40
0.5
 41
0.0
 42
6.283185307179586
  0
ELLIPSE
  5
24E
330
1F
100
AcDbEntity
  8
D-STR-STR2
  6
Continuous
 62
   134
370
    13
100
AcDbEllipse
 10
61.79659030841226
 20
79.47950039810587
 30
0.0
 11
0.1302361332502002
 21
0.7386058147591541
 31
0.0
210
0.0
220
0.0
230
1.0
 40
0.5
 41
0.0
 42
6.283185307179586
  0
ELLIPSE
  5
24F
330
1F
100
AcDbEntity
  8
D-STR-STR2
  6
Continuous
 62
   134
370
    13
100
AcDbEllipse
 10
62.56394774841225
 20
79.47950039810587
 30
0.0
 11
0.1302361332502002
 21
0.7386058147591541
 31
0.0
210
0.0
220
0.0
230
1.0
 40
0.5
 41
0.0
 42
6.283185307179586
  0
ELLIPSE
  5
250
330
1F
100
AcDbEntity
  8
D-STR-STR2
  6
Continuous
 62
   134
370
    13
100
AcDbEllipse
 10
63.33130516841226
 20
79.47950039810587
 30
0.0
 11
0.1302361332502002
 21
0.7386058147591541
 31
0.0
210
0.0
220
0.0
230
1.0
 40
0.5
 41
0.0
 42
6.283185307179586
  0
ELLIPSE
  5
251
330
1F
100
AcDbEntity
  8
D-STR-STR2
  6
Continuous
 62
   134
370
    13
100
AcDbEllipse
 10
64.09866260841225
 20
77.97950039810587
 30
0.0
 11
0.1302361332501931
 21
0.7386058147591541
 31
0.0
210
0.0
220
0.0
230
1.0
 40
0.5
 41
0.0
 42
6.283185307179586
  0
ELLIPSE
  5
252
330
1F
100
AcDbEntity
  8
D-STR-STR2
  6
Continuous
 62
   134
370
    13
100
AcDbEllipse
 10
64.09866260841225
 20
79.47950039810587
 30
0.0
 11
0.1302361332501931
 21
0.7386058147591541
 31
0.0
210
0.0
220
0.0
230
1.0
 40
0.5
 41
0.0
 42
6.283185307179586
  0
HATCH
  5
253
330
1F
100
AcDbEntity
  8
D-STR-STR2
  6
Continuous
 62
   134
370
    13
100
AcDbHatch
 10
0.0
 20
0.0
 30
0.0
210
0.0
220
0.0
230
1.0
  2
SOLID
 70
     1
 71
     0
 91
        1
 92
        3
 72
     0
 73
     1
 93
        6
 10
54.69064724841225
 20
82.42950039810587
 10
54.49064724841226
 20
82.42950039810587
 10
54.49064724841226
 20
82.22950039810587
 10
62.49064724841226
 20
82.22950039810587
 10
62.49064724841226
 20
82.42950039810587
 10
62.29064724841226
 20
82.42950039810587
 97
        0
 75
     0
 76
     1
 98
        0
  0
LINE
  5
254
330
1F
100
AcDbEntity
  8
D-STR
  6
Continuous
 62
     7
370
    50
100
AcDbLine
 10
54.49064724841226
 20
82.42950039810587
 30
0.0
 11
54.49064724841226
 21
82.22950039810587
 31
0.0
  0
LINE
  5
255
330
1F
100
AcDbEntity
  8
D-STR
  6
Continuous
 62
     7
370
    50
100
AcDbLine
 10
64.49064724841226
 20
80.22950039810587
 30
0.0
 11
51.79064724841226
 21
80.22950039810587
 31
0.0
  0
LINE
  5
256
330
1F
100
AcDbEntity
  8
D-STR
  6
Continuous
 62
     7
370
    50
100
AcDbLine
 10
64.49064724841226
 20
77.22950039810587
 30
0.0
 11
51.79064724841226
 21
77.22950039810587
 31
0.0
  0
LINE
  5
257
330
1F
100
AcDbEntity
  8
D-STR
  6
Continuous
 62
     7
370
    50
100
AcDbLine
 10
63.19064724841225
 20
91.42935715810587
 30
0.0
 11
103.7906472484123
 21
92.24135715810587
 31
0.0
  0
LINE
  5
258
330
1F
100
AcDbEntity
  8
D-STR
  6
Continuous
 62
     7
370
    50
100
AcDbLine
 10
53.79064724841226
 20
91.42961151810587
 30
0.0
 11
53.79064724841226
 21
90.02950039810588
 31
0.0
  0
LINE
  5
259
330
1F
100
AcDbEntity
  8
D-STR
  6
Continuous
 62
     7
370
    50
100
AcDbLine
 10
53.79064724841226
 20
90.02950039810588
 30
0.0
 11
54.49064724841226
 21
89.02950039810588
 31
0.0
  0
LINE
  5
25A
330
1F
100
AcDbEntity
  8
D-STR
  6
Continuous
 62
     7
370
    50
100
AcDbLine
 10
63.49064724841226
 20
82.22950039810587
 30
0.0
 11
54.49064724841226
 21
82.22950039810587
 31
0.0
  0
LINE
  5
25B
330
1F
100
AcDbEntity
  8
D-STR
  6
Continuous
 62
     7
370
    50
100
AcDbLine
 10
153.7906472484123
 20
91.42961151810587
 30
0.0
 11
149.2706472484122
 21
91.32950039810588
 31
0.0
  0
ELLIPSE
  5
25C
330
1F
100
AcDbEntity
  8
D-STR-STR2
  6
Continuous
 62
   134
370
    13
100
AcDbEllipse
 10
155.3796600484123
 20
77.97950039810587
 30
0.0
 11
-0.1302361332502073
 21
0.7386058147591541
 31
0.0
210
0.0
220
0.0
230
1.0
 40
0.5
 41
0.0
 42
6.283185307179586
  0
ELLIPSE
  5
25D
330
1F
100
AcDbEntity
  8
D-STR-STR2
  6
Continuous
 62
   134
370
    13
100
AcDbEllipse
 10
154.6123026084123
 20
77.97950039810587
 30
0.0
 11
-0.1302361332502073
 21
0.7386058147591541
 31
0.0
210
0.0
220
0.0
230
1.0
 40
0.5
 41
0.0
 42
6.283185307179586
  0
ELLIPSE
  5
25E
330
1F
100
AcDbEntity
  8
D-STR-STR2
  6
Continuous
 62
   134
370
    13
100
AcDbEllipse
 10
153.8449451684123
 20
77.97950039810587
 30
0.0
 11
-0.1302361332502073
 21
0.7386058147591541
 31
0.0
210
0.0
220
0.0
230
1.0
 40
0.5
 41
0.0
 42
6.283185307179586
  0
ELLIPSE
  5
25F
330
1F
100
AcDbEntity
  8
D-STR-STR2
  6
Continuous
 62
   134
370
    13
100
AcDbEllipse
 10
155.3796600484123
 20
79.47950039810587
 30
0.0
 11
-0.1302361332502073
 21
0.7386058147591541
 31
0.0
210
0.0
220
0.0
230
1.0
 40
0.5
 41
0.0
 42
6.283185307179586
  0
ELLIPSE
  5
260
330
1F
100
AcDbEntity
  8
D-STR-STR2
  6
Continuous
 62
   134
370
    13
100
AcDbEllipse
 10
154.6123026084123
 20
79.47950039810587
 30
0.0
 11
-0.1302361332502073
 21
0.7386058147591541
 31
0.0
210
0.0
220
0.0
230
1.0
 40
0.5
 41
0.0
 42
6.283185307179586
  0
ELLIPSE
  5
261
330
1F
100
AcDbEntity
  8
D-STR-STR2
  6
Continuous
 62
   134
370
    13
100
AcDbEllipse
 10
153.8449451684123
 20
79.47950039810587
 30
0.0
 11
-0.1302361332502073
 21
0.7386058147591541
 31
0.0
210
0.0
220
0.0
230
1.0
 40
0.5
 41
0.0
 42
6.283185307179586
  0
LINE
  5
262
330
1F
100
AcDbEntity
  8
D-STR
  6
Continuous
 62
     7
370
    50
100
AcDbLine
 10
143.0906472484123
 20
80.22950039810587
 30
0.0
 11
155.7906472484123
 21
80.22950039810587
 31
0.0
  0
LINE
  5
263
330
1F
100
AcDbEntity
  8
D-STR
  6
Continuous
 62
     7
370
    50
100
AcDbLine
 10
143.0906472484123
 20
77.22950039810587
 30
0.0
 11
155.7906472484123
 21
77.22950039810587
 31
0.0
  0
LINE
  5
264
330
1F
100
AcDbEntity
  8
D-STR
  6
Continuous
 62
     7
370
    50
100
AcDbLine
 10
155.7906472484123
 20
91.42961151810587
 30
0.0
 11
155.7906472484123
 21
77.22950039810587
 31
0.0
  0
LINE
  5
265
330
1F
100
AcDbEntity
  8
D-STR
  6
Continuous
 62
     7
370
    50
100
AcDbLine
 10
153.7906472484123
 20
91.42961151810587
 30
0.0
 11
153.7906472484123
 21
90.02950039810588
 31
0.0
  0
LINE
  5
266
330
1F
100
AcDbEntity
  8
D-STR
  6
Continuous
 62
     7
370
    50
100
AcDbLine
 10
153.7906472484123
 20
90.02950039810588
 30
0.0
 11
153.0906472484123
 21
89.02950039810588
 31
0.0
  0
LINE
  5
267
330
1F
100
AcDbEntity
  8
D-STR
  6
Continuous
 62
     7
370
    50
100
AcDbLine
 10
152.8906472484123
 20
82.42950039810587
 30
0.0
 11
153.0906472484122
 21
82.42950039810587
 31
0.0
  0
LINE
  5
268
330
1F
100
AcDbEntity
  8
D-STR
  6
Continuous
 62
     7
370
    50
100
AcDbLine
 10
153.0906472484123
 20
82.62950039810588
 30
0.0
 11
152.8906472484123
 21
82.42950039810587
 31
0.0
  0
LINE
  5
269
330
1F
100
AcDbEntity
  8
D-STR
  6
Continuous
 62
     7
370
    50
100
AcDbLine
 10
145.2906472484123
 20
82.42950039810587
 30
0.0
 11
152.8906472484123
 21
82.42950039810587
 31
0.0
  0
LINE
  5
26A
330
1F
100
AcDbEntity
  8
D-STR
  6
Continuous
 62
     7
370
    50
100
AcDbLine
 10
152.7335771084123
 20
82.42950039810587
 30
0.0
 11
145.5335771084123
 21
82.42950039810587
 31
0.0
  0
LINE
  5
26B
330
1F
100
AcDbEntity
  8
D-STR
  6
Continuous
 62
     7
370
    50
100
AcDbLine
 10
153.0906472484123
 20
89.02950039810588
 30
0.0
 11
153.0906472484123
 21
82.62950039810588
 31
0.0
  0
LINE
  5
26C
330
1F
100
AcDbEntity
  8
D-STR
  6
Continuous
 62
     7
370
    50
100
AcDbLine
 10
148.8406472484123
 20
89.62950039810588
 30
0.0
 11
148.9706472484123
 21
91.26950039810588
 31
0.0
  0
LINE
  5
26D
330
1F
100
AcDbEntity
  8
D-STR
  6
Continuous
 62
     7
370
    50
100
AcDbLine
 10
149.3406472484123
 20
89.62950039810588
 30
0.0
 11
149.2106472484123
 21
91.26950039810588
 31
0.0
  0
ARC
  5
26E
330
1F
100
AcDbEntity
  8
D-STR
  6
Continuous
 62
     7
370
    50
100
AcDbCircle
 10
147.0906472484123
 20
88.62950039810588
 30
0.0
 40
1.0
100
AcDbArc
 50
90.0
 51
180.0
  0
LINE
  5
26F
330
1F
100
AcDbEntity
  8
D-STR
  6
Continuous
 62
     7
370
    50
100
AcDbLine
 10
146.0906472484123
 20
88.62950039810588
 30
0.0
 11
146.0906472484123
 21
85.04930429810588
 31
0.0
  0
ARC
  5
270
330
1F
100
AcDbEntity
  8
D-STR
  6
Continuous
 62
     7
370
    50
100
AcDbCircle
 10
147.0906472484123
 20
85.04930429810588
 30
0.0
 40
1.0
100
AcDbArc
 50
180.0
 51
258.6900676910885
  0
ARC
  5
271
330
1F
100
AcDbEntity
  8
D-STR
  6
Continuous
 62
     7
370
    50
100
AcDbCircle
 10
151.0906472484123
 20
88.62950039810588
 30
0.0
 40
1.0
100
AcDbArc
 50
0.0
 51
90.0
  0
LINE
  5
272
330
1F
100
AcDbEntity
  8
D-STR
  6
Continuous
 62
     7
370
    50
100
AcDbLine
 10
152.0906472484123
 20
88.62950039810588
 30
0.0
 11
152.0906472484123
 21
85.04930429810588
 31
0.0
  0
ARC
  5
273
330
1F
100
AcDbEntity
  8
D-STR
  6
Continuous
 62
     7
370
    50
100
AcDbCircle
 10
151.0906472484123
 20
85.04930429810588
 30
0.0
 40
1.0
100
AcDbArc
 50
281.3099323089115
 51
0.0
  0
LINE
  5
274
330
1F
100
AcDbEntity
  8
D-STR
  6
Continuous
 62
     7
370
    50
100
AcDbLine
 10
151.0906472484123
 20
89.62950039810588
 30
0.0
 11
147.0906472484123
 21
89.62950039810588
 31
0.0
  0
LINE
  5
275
330
1F
100
AcDbEntity
  8
D-STR
  6
Continuous
 62
     7
370
    50
100
AcDbLine
 10
151.2867633884123
 20
84.06872361810588
 30
0.0
 11
149.0906472484123
 21
83.62950039810588
 31
0.0
  0
LINE
  5
276
330
1F
100
AcDbEntity
  8
D-STR
  6
Continuous
 62
     7
370
    50
100
AcDbLine
 10
149.0906472484123
 20
83.62950039810588
 30
0.0
 11
146.8945311084123
 21
84.06872361810588
 31
0.0
  0
LINE
  5
277
330
1F
100
AcDbEntity
  8
D-STR
  6
Continuous
 62
     7
370
    50
100
AcDbLine
 10
148.9106472484123
 20
91.32950039810588
 30
0.0
 11
144.3906472484123
 21
91.42935715810587
 31
0.0
  0
LINE
  5
278
330
1F
100
AcDbEntity
  8
D-STR
  6
Continuous
 62
     7
370
    50
100
AcDbLine
 10
148.9906472484123
 20
90.92950039810587
 30
0.0
 11
148.9706472484123
 21
91.26950039810588
 31
0.0
  0
LINE
  5
279
330
1F
100
AcDbEntity
  8
D-STR
  6
Continuous
 62
     7
370
    50
100
AcDbLine
 10
149.1906472484123
 20
90.92950039810587
 30
0.0
 11
149.2106472484123
 21
91.26950039810588
 31
0.0
  0
LINE
  5
27A
330
1F
100
AcDbEntity
  8
D-STR
  6
Continuous
 62
     7
370
    50
100
AcDbLine
 10
149.1906472484123
 20
90.92950039810587
 30
0.0
 11
148.9906472484123
 21
90.92950039810587
 31
0.0
  0
LINE
  5
27B
330
1F
100
AcDbEntity
  8
D-STR
  6
Continuous
 62
     7
370
    50
100
AcDbLine
 10
149.2706472484122
 20
91.32950039810588
 30
0.0
 11
149.2106472484122
 21
91.26950039810588
 31
0.0
  0
LINE
  5
27C
330
1F
100
AcDbEntity
  8
D-STR
  6
Continuous
 62
     7
370
    50
100
AcDbLine
 10
148.9106472484123
 20
91.32950039810588
 30
0.0
 11
148.9706472484123
 21
91.26950039810588
 31
0.0
  0
LINE
  5
27D
330
1F
100
AcDbEntity
  8
D-STR
  6
Continuous
 62
     7
370
    50
100
AcDbLine
 10
143.0906472484123
 20
77.22950039810587
 30
0.0
 11
143.0906472484123
 21
80.22950039810587
 31
0.0
  0
LINE
  5
27E
330
1F
100
AcDbEntity
  8
D-STR
  6
Continuous
 62
     7
370
    50
100
AcDbLine
 10
144.0906472484123
 20
80.22950039810587
 30
0.0
 11
144.0906472484123
 21
82.22950039810587
 31
0.0
  0
LINE
  5
27F
330
1F
100
AcDbEntity
  8
D-STR
  6
Continuous
 62
     7
370
    50
100
AcDbLine
 10
145.0906472484123
 20
82.42950039810587
 30
0.0
 11
145.0906472484123
 21
82.22950039810587
 31
0.0
  0
LINE
  5
280
330
1F
100
AcDbEntity
  8
D-STR
  6
Continuous
 62
     7
370
    50
100
AcDbLine
 10
145.2906472484123
 20
82.42950039810587
 30
0.0
 11
145.0906472484123
 21
82.42950039810587
 31
0.0
  0
LINE
  5
281
330
1F
100
AcDbEntity
  8
D-STR
  6
Continuous
 62
     7
370
    50
100
AcDbLine
 10
145.2906472484123
 20
82.42950039810587
 30
0.0
 11
145.0906472484123
 21
82.62950039810588
 31
0.0
  0
LINE
  5
282
330
1F
100
AcDbEntity
  8
D-STR
  6
Continuous
 62
     7
370
    50
100
AcDbLine
 10
145.0906472484123
 20
89.02950039810588
 30
0.0
 11
145.0906472484123
 21
82.62950039810588
 31
0.0
  0
LINE
  5
283
330
1F
100
AcDbEntity
  8
D-STR
  6
Continuous
 62
     7
370
    50
100
AcDbLine
 10
144.3906472484123
 20
91.42935715810587
 30
0.0
 11
144.3906472484123
 21
90.02950039810588
 31
0.0
  0
LINE
  5
284
330
1F
100
AcDbEntity
  8
D-STR
  6
Continuous
 62
     7
370
    50
100
AcDbLine
 10
144.3906472484123
 20
90.02950039810588
 30
0.0
 11
145.0906472484122
 21
89.02950039810588
 31
0.0
  0
ELLIPSE
  5
285
330
1F
100
AcDbEntity
  8
D-STR-STR2
  6
Continuous
 62
   134
370
    13
100
AcDbEllipse
 10
153.0775877484123
 20
77.97950039810587
 30
0.0
 11
-0.1302361332502073
 21
0.7386058147591541
 31
0.0
210
0.0
220
0.0
230
1.0
 40
0.5
 41
0.0
 42
6.283185307179586
  0
ELLIPSE
  5
286
330
1F
100
AcDbEntity
  8
D-STR-STR2
  6
Continuous
 62
   134
370
    13
100
AcDbEllipse
 10
153.0775877484123
 20
79.47950039810587
 30
0.0
 11
-0.1302361332502073
 21
0.7386058147591541
 31
0.0
210
0.0
220
0.0
230
1.0
 40
0.5
 41
0.0
 42
6.283185307179586
  0
ELLIPSE
  5
287
330
1F
100
AcDbEntity
  8
D-STR-STR2
  6
Continuous
 62
   134
370
    13
100
AcDbEllipse
 10
145.7847041884123
 20
77.97950039810587
 30
0.0
 11
-0.1302361332502073
 21
0.7386058147591541
 31
0.0
210
0.0
220
0.0
230
1.0
 40
0.5
 41
0.0
 42
6.283185307179586
  0
ELLIPSE
  5
288
330
1F
100
AcDbEntity
  8
D-STR-STR2
  6
Continuous
 62
   134
370
    13
100
AcDbEllipse
 10
145.0173467684123
 20
77.97950039810587
 30
0.0
 11
-0.1302361332502073
 21
0.7386058147591541
 31
0.0
210
0.0
220
0.0
230
1.0
 40
0.5
 41
0.0
 42
6.283185307179586
  0
ELLIPSE
  5
289
330
1F
100
AcDbEntity
  8
D-STR-STR2
  6
Continuous
 62
   134
370
    13
100
AcDbEllipse
 10
144.2499893284123
 20
77.97950039810587
 30
0.0
 11
-0.1302361332502073
 21
0.7386058147591541
 31
0.0
210
0.0
220
0.0
230
1.0
 40
0.5
 41
0.0
 42
6.283185307179586
  0
ELLIPSE
  5
28A
330
1F
100
AcDbEntity
  8
D-STR-STR2
  6
Continuous
 62
   134
370
    13
100
AcDbEllipse
 10
145.7847041884123
 20
79.47950039810587
 30
0.0
 11
-0.1302361332502073
 21
0.7386058147591541
 31
0.0
210
0.0
220
0.0
230
1.0
 40
0.5
 41
0.0
 42
6.283185307179586
  0
ELLIPSE
  5
28B
330
1F
100
AcDbEntity
  8
D-STR-STR2
  6
Continuous
 62
   134
370
    13
100
AcDbEllipse
 10
145.0173467684123
 20
79.47950039810587
 30
0.0
 11
-0.1302361332502073
 21
0.7386058147591541
 31
0.0
210
0.0
220
0.0
230
1.0
 40
0.5
 41
0.0
 42
6.283185307179586
  0
ELLIPSE
  5
28C
330
1F
100
AcDbEntity
  8
D-STR-STR2
  6
Continuous
 62
   134
370
    13
100
AcDbEllipse
 10
144.2499893284123
 20
79.47950039810587
 30
0.0
 11
-0.1302361332502073
 21
0.7386058147591541
 31
0.0
210
0.0
220
0.0
230
1.0
 40
0.5
 41
0.0
 42
6.283185307179586
  0
ELLIPSE
  5
28D
330
1F
100
AcDbEntity
  8
D-STR-STR2
  6
Continuous
 62
   134
370
    13
100
AcDbEllipse
 10
143.4826318884122
 20
77.97950039810587
 30
0.0
 11
-0.1302361332502073
 21
0.7386058147591541
 31
0.0
210
0.0
220
0.0
230
1.0
 40
0.5
 41
0.0
 42
6.283185307179586
  0
ELLIPSE
  5
28E
330
1F
100
AcDbEntity
  8
D-STR-STR2
  6
Continuous
 62
   134
370
    13
100
AcDbEllipse
 10
143.4826318884122
 20
79.47950039810587
 30
0.0
 11
-0.1302361332502073
 21
0.7386058147591541
 31
0.0
210
0.0
220
0.0
230
1.0
 40
0.5
 41
0.0
 42
6.283185307179586
  0
HATCH
  5
28F
330
1F
100
AcDbEntity
  8
D-STR-STR2
  6
Continuous
 62
   134
370
    13
100
AcDbHatch
 10
0.0
 20
0.0
 30
0.0
210
0.0
220
0.0
230
1.0
  2
SOLID
 70
     1
 71
     0
 91
        1
 92
        3
 72
     0
 73
     1
 93
        6
 10
152.8906472484123
 20
82.42950039810587
 10
153.0906472484123
 20
82.42950039810587
 10
153.0906472484123
 20
82.22950039810587
 10
145.0906472484123
 20
82.22950039810587
 10
145.0906472484123
 20
82.42950039810587
 10
145.2906472484123
 20
82.42950039810587
 97
        0
 75
     0
 76
     1
 98
        0
  0
LINE
  5
290
330
1F
100
AcDbEntity
  8
D-STR
  6
Continuous
 62
     7
370
    50
100
AcDbLine
 10
153.0906472484123
 20
82.42950039810587
 30
0.0
 11
153.0906472484123
 21
82.22950039810587
 31
0.0
  0
LINE
  5
291
330
1F
100
AcDbEntity
  8
D-STR
  6
Continuous
 62
     7
370
    50
100
AcDbLine
 10
144.3906472484123
 20
91.42935715810587
 30
0.0
 11
103.7906472484123
 21
92.24135715810587
 31
0.0
  0
LINE
  5
292
330
1F
100
AcDbEntity
  8
D-STR
  6
Continuous
 62
     7
370
    50
100
AcDbLine
 10
144.0906472484123
 20
82.22950039810587
 30
0.0
 11
153.0906472484123
 21
82.22950039810587
 31
0.0
  0
LINE
  5
293
330
1F
100
AcDbEntity
  8
D-STR
  6
Continuous
 62
     7
370
    50
100
AcDbLine
 10
53.79064724841226
 20
91.42961151810587
 30
0.0
 11
51.79064724841226
 21
91.42961151810587
 31
0.0
  0
LINE
  5
294
330
1F
100
AcDbEntity
  8
D-STR
  6
Continuous
 62
     7
370
    50
100
AcDbLine
 10
51.79064724841226
 20
91.42961151810587
 30
0.0
 11
51.79064724841226
 21
77.22950039810587
 31
0.0
  0
LINE
  5
295
330
1F
100
AcDbEntity
  8
D-STR
  6
Continuous
 62
     7
370
    50
100
AcDbLine
 10
155.7906472484123
 20
91.42961151810587
 30
0.0
 11
153.7906472484123
 21
91.42961151810587
 31
0.0
  0
TEXT
  5
296
330
1F
100
AcDbEntity
  8
D-TTL
  6
Continuous
 62
     7
370
    13
100
AcDbText
 10
96.09376876121009
 20
116.6388742163991
 30
0.0
 40
2.777777777777778
  1
道路区域
  7
ＭＳ ゴシック
 11
96.09376876121009
 21
116.1314523413991
 31
0.0
100
AcDbText
 73
     1
  0
DIMENSION
  5
29D
330
1F
100
AcDbEntity
  8
D-STR-DIM
  6
Continuous
 62
     5
370
    13
100
AcDbDimension
  2
*D8
 10
155.7906472484123
 20
110.3494167917932
 30
0.0
 11
103.7906472484123
 21
113.0994167917932
 31
0.0
 70
   160
  1
有効幅員 5.0m以上
 71
     5
 42
104.0
  3
Standard
100
AcDbAlignedDimension
 13
51.79064724841226
 23
91.42961151810587
 33
0.0
 14
155.7906472484123
 24
91.42961151810587
 34
0.0
100
AcDbRotatedDimension
1001
ACAD
1000
DSTYLE
1002
{
1070
   271
1070
     2
1070
   178
1070
     5
1070
   177
1070
     5
1070
   176
1070
     5
1070
   289
1070
     3
1070
    77
1070
     1
1070
   174
1070
     1
1070
   172
1070
     1
1070
    73
1070
     0
1070
    74
1070
     0
1070
   173
1070
     1
1070
   279
1070
     2
1070
    44
1040
1.0
1070
    42
1040
5.0
1070
   147
1040
0.0
1070
   140
1040
2.777777777777778
1070
    41
1040
1.0
1070
   340
1005
4A
1070
   344
1005
297
1070
   343
1005
297
1002
}
  0
ENDSEC
  0
SECTION
  2
OBJECTS
  0
DICTIONARY
  5
C
330
0
100
AcDbDictionary
281
     1
  3
ACAD_GROUP
350
D
  3
ACAD_LAYOUT
350
1A
  3
ACAD_MATERIAL
350
3B
  3
ACAD_MLEADERSTYLE
350
2CE
  3
ACAD_MLINESTYLE
350
17
  3
ACAD_PLOTSETTINGS
350
19
  3
ACAD_PLOTSTYLENAME
350
E
  3
ACAD_SCALELIST
350
2AA
  3
ACAD_VISUALSTYLE
350
2A
  3
AcDbVariableDictionary
350
2CC
  0
DICTIONARY
  5
D
102
{ACAD_REACTORS
330
C
102
}
330
C
100
AcDbDictionary
281
     1
  0
DICTIONARY
  5
1A
102
{ACAD_REACTORS
330
C
102
}
330
C
100
AcDbDictionary
281
     1
  3
Layout1
350
1E
  3
Layout2
350
26
  3
Model
350
22
  0
DICTIONARY
  5
3B
102
{ACAD_REACTORS
330
C
102
}
330
C
100
AcDbDictionary
281
     1
  3
ByBlock
350
3D
  3
ByLayer
350
3C
  3
Global
350
3E
  0
DICTIONARY
  5
2CE
102
{ACAD_REACTORS
330
C
102
}
330
C
100
AcDbDictionary
281
     1
  0
DICTIONARY
  5
17
102
{ACAD_REACTORS
330
C
102
}
330
C
100
AcDbDictionary
281
     1
  3
Standard
350
18
  0
DICTIONARY
  5
19
102
{ACAD_REACTORS
330
C
102
}
330
C
100
AcDbDictionary
281
     1
  0
ACDBDICTIONARYWDFLT
  5
E
102
{ACAD_REACTORS
330
C
102
}
330
C
100
AcDbDictionary
281
     1
  3
Normal
350
F
100
AcDbDictionaryWithDefault
340
F
  0
DICTIONARY
  5
2AA
102
{ACAD_REACTORS
330
C
102
}
330
C
100
AcDbDictionary
281
     1
  3
A0
350
2AB
  3
A1
350
2AC
  3
A2
350
2AD
  3
A3
350
2AE
  3
A4
350
2AF
  3
A5
350
2B0
  3
A6
350
2B1
  3
A7
350
2B2
  3
A8
350
2B3
  3
A9
350
2B4
  3
B0
350
2B5
  3
B1
350
2B6
  3
B2
350
2B7
  3
B3
350
2B8
  3
B4
350
2B9
  3
B5
350
2BA
  3
B6
350
2BB
  3
B7
350
2BC
  3
B8
350
2BD
  3
B9
350
2BE
  3
C0
350
2BF
  3
C1
350
2C0
  3
C2
350
2C1
  3
C3
350
2C2
  3
C4
350
2C3
  3
C5
350
2C4
  3
C6
350
2C5
  3
C7
350
2C6
  3
C8
350
2C7
  3
C9
350
2C8
  3
D0
350
2C9
  3
D1
350
2CA
  3
D2
350
2CB
  0
DICTIONARY
  5
2A
102
{ACAD_REACTORS
330
C
102
}
330
C
100
AcDbDictionary
281
     1
  3
2dWireframe
350
2F
  3
3D Hidden
350
31
  3
3dWireframe
350
30
  3
Basic
350
32
  3
Brighten
350
36
  3
ColorChange
350
3A
  3
Conceptual
350
34
  3
Dim
350
35
  3
Facepattern
350
39
  3
Flat
350
2B
  3
FlatWithEdges
350
2C
  3
Gouraud
350
2D
  3
GouraudWithEdges
350
2E
  3
Linepattern
350
38
  3
Realistic
350
33
  3
Thicken
350
37
  0
DICTIONARY
  5
2CC
102
{ACAD_REACTORS
330
C
102
}
330
C
100
AcDbDictionary
281
     1
  3
CANNOSCALE
350
2CF
  3
DIMASSOC
350
2D0
  3
HIDETEXT
350
2D1
  0
LAYOUT
  5
1E
102
{ACAD_REACTORS
330
1A
102
}
330
1A
100
AcDbPlotSettings
  1

  2
none_device
  4

  6

 40
0.0
 41
0.0
 42
0.0
 43
0.0
 44
0.0
 45
0.0
 46
0.0
 47
0.0
 48
0.0
 49
0.0
140
0.0
141
0.0
142
1.0
143
1.0
 70
   688
 72
     0
 73
     0
 74
     5
  7

 75
    16
147
1.0
148
0.0
149
0.0
100
AcDbLayout
  1
Layout1
 70
     1
 71
     1
 10
0.0
 20
0.0
 11
12.0
 21
9.0
 12
0.0
 22
0.0
 32
0.0
 14
1.000000000000000E+20
 24
1.000000000000000E+20
 34
1.000000000000000E+20
 15
-1.000000000000000E+20
 25
-1.000000000000000E+20
 35
-1.000000000000000E+20
146
0.0
 13
0.0
 23
0.0
 33
0.0
 16
1.0
 26
0.0
 36
0.0
 17
0.0
 27
1.0
 37
0.0
 76
     0
330
1B
  0
LAYOUT
  5
26
102
{ACAD_REACTORS
330
1A
102
}
330
1A
100
AcDbPlotSettings
  1

  2
none_device
  4

  6

 40
0.0
 41
0.0
 42
0.0
 43
0.0
 44
0.0
 45
0.0
 46
0.0
 47
0.0
 48
0.0
 49
0.0
140
0.0
141
0.0
142
1.0
143
1.0
 70
   688
 72
     0
 73
     0
 74
     5
  7

 75
    16
147
1.0
148
0.0
149
0.0
100
AcDbLayout
  1
Layout2
 70
     1
 71
     2
 10
0.0
 20
0.0
 11
0.0
 21
0.0
 12
0.0
 22
0.0
 32
0.0
 14
0.0
 24
0.0
 34
0.0
 15
0.0
 25
0.0
 35
0.0
146
0.0
 13
0.0
 23
0.0
 33
0.0
 16
1.0
 26
0.0
 36
0.0
 17
0.0
 27
1.0
 37
0.0
 76
     0
330
23
  0
LAYOUT
  5
22
102
{ACAD_REACTORS
330
1A
102
}
330
1A
100
AcDbPlotSettings
  1

  2
none_device
  4

  6

 40
0.0
 41
0.0
 42
0.0
 43
0.0
 44
0.0
 45
0.0
 46
0.0
 47
0.0
 48
0.0
 49
0.0
140
0.0
141
0.0
142
1.0
143
1.0
 70
  1712
 72
     0
 73
     0
 74
     0
  7

 75
     0
147
1.0
148
0.0
149
0.0
100
AcDbLayout
  1
Model
 70
     1
 71
     0
 10
32.39221543841225
 20
27.81160611999999
 11
235.12986904
 21
263.4126422413371
 12
0.0
 22
0.0
 32
0.0
 14
32.39221543841225
 24
27.81160611999999
 34
0.0
 15
235.12986904
 25
263.4126422413371
 35
0.0
146
0.0
 13
0.0
 23
0.0
 33
0.0
 16
1.0
 26
0.0
 36
0.0
 17
0.0
 27
1.0
 37
0.0
 76
     0
330
1F
331
29
  0
MATERIAL
  5
3D
102
{ACAD_REACTORS
330
3B
102
}
102
{ACAD_XDICTIONARY
360
2F4
102
}
330
3B
100
AcDbMaterial
  1
ByBlock
  0
MATERIAL
  5
3C
102
{ACAD_REACTORS
330
3B
102
}
102
{ACAD_XDICTIONARY
360
2F2
102
}
330
3B
100
AcDbMaterial
  1
ByLayer
  0
MATERIAL
  5
3E
102
{ACAD_REACTORS
330
3B
102
}
102
{ACAD_XDICTIONARY
360
2F6
102
}
330
3B
100
AcDbMaterial
  1
Global
  0
MLINESTYLE
  5
18
102
{ACAD_REACTORS
330
17
102
}
330
17
100
AcDbMlineStyle
  2
Standard
 70
     0
  3

 62
   256
 51
90.0
 52
90.0
 71
     2
 49
0.5
 62
   256
  6
BYLAYER
 49
-0.5
 62
   256
  6
BYLAYER
  0
ACDBPLACEHOLDER
  5
F
102
{ACAD_REACTORS
330
E
102
}
330
E
  0
SCALE
  5
2AB
102
{ACAD_REACTORS
330
2AA
102
}
330
2AA
100
AcDbScale
 70
     0
300
1:1
140
1.0
141
1.0
290
     1
  0
SCALE
  5
2AC
102
{ACAD_REACTORS
330
2AA
102
}
330
2AA
100
AcDbScale
 70
     0
300
1:2
140
1.0
141
2.0
290
     0
  0
SCALE
  5
2AD
102
{ACAD_REACTORS
330
2AA
102
}
330
2AA
100
AcDbScale
 70
     0
300
1:4
140
1.0
141
4.0
290
     0
  0
SCALE
  5
2AE
102
{ACAD_REACTORS
330
2AA
102
}
330
2AA
100
AcDbScale
 70
     0
300
1:5
140
1.0
141
5.0
290
     0
  0
SCALE
  5
2AF
102
{ACAD_REACTORS
330
2AA
102
}
330
2AA
100
AcDbScale
 70
     0
300
1:8
140
1.0
141
8.0
290
     0
  0
SCALE
  5
2B0
102
{ACAD_REACTORS
330
2AA
102
}
330
2AA
100
AcDbScale
 70
     0
300
1:10
140
1.0
141
10.0
290
     0
  0
SCALE
  5
2B1
102
{ACAD_REACTORS
330
2AA
102
}
330
2AA
100
AcDbScale
 70
     0
300
1:16
140
1.0
141
16.0
290
     0
  0
SCALE
  5
2B2
102
{ACAD_REACTORS
330
2AA
102
}
330
2AA
100
AcDbScale
 70
     0
300
1:20
140
1.0
141
20.0
290
     0
  0
SCALE
  5
2B3
102
{ACAD_REACTORS
330
2AA
102
}
330
2AA
100
AcDbScale
 70
     0
300
1:30
140
1.0
141
30.0
290
     0
  0
SCALE
  5
2B4
102
{ACAD_REACTORS
330
2AA
102
}
330
2AA
100
AcDbScale
 70
     0
300
1:40
140
1.0
141
40.0
290
     0
  0
SCALE
  5
2B5
102
{ACAD_REACTORS
330
2AA
102
}
330
2AA
100
AcDbScale
 70
     0
300
1:50
140
1.0
141
50.0
290
     0
  0
SCALE
  5
2B6
102
{ACAD_REACTORS
330
2AA
102
}
330
2AA
100
AcDbScale
 70
     0
300
1:100
140
1.0
141
100.0
290
     0
  0
SCALE
  5
2B7
102
{ACAD_REACTORS
330
2AA
102
}
330
2AA
100
AcDbScale
 70
     0
300
2:1
140
2.0
141
1.0
290
     0
  0
SCALE
  5
2B8
102
{ACAD_REACTORS
330
2AA
102
}
330
2AA
100
AcDbScale
 70
     0
300
4:1
140
4.0
141
1.0
290
     0
  0
SCALE
  5
2B9
102
{ACAD_REACTORS
330
2AA
102
}
330
2AA
100
AcDbScale
 70
     0
300
8:1
140
8.0
141
1.0
290
     0
  0
SCALE
  5
2BA
102
{ACAD_REACTORS
330
2AA
102
}
330
2AA
100
AcDbScale
 70
     0
300
10:1
140
10.0
141
1.0
290
     0
  0
SCALE
  5
2BB
102
{ACAD_REACTORS
330
2AA
102
}
330
2AA
100
AcDbScale
 70
     0
300
100:1
140
100.0
141
1.0
290
     0
  0
SCALE
  5
2BC
102
{ACAD_REACTORS
330
2AA
102
}
330
2AA
100
AcDbScale
 70
     0
300
1/128" = 1'-0"
140
0.0078125
141
12.0
290
     0
  0
SCALE
  5
2BD
102
{ACAD_REACTORS
330
2AA
102
}
330
2AA
100
AcDbScale
 70
     0
300
1/64" = 1'-0"
140
0.015625
141
12.0
290
     0
  0
SCALE
  5
2BE
102
{ACAD_REACTORS
330
2AA
102
}
330
2AA
100
AcDbScale
 70
     0
300
1/32" = 1'-0"
140
0.03125
141
12.0
290
     0
  0
SCALE
  5
2BF
102
{ACAD_REACTORS
330
2AA
102
}
330
2AA
100
AcDbScale
 70
     0
300
1/16" = 1'-0"
140
0.0625
141
12.0
290
     0
  0
SCALE
  5
2C0
102
{ACAD_REACTORS
330
2AA
102
}
330
2AA
100
AcDbScale
 70
     0
300
3/32" = 1'-0"
140
0.09375
141
12.0
290
     0
  0
SCALE
  5
2C1
102
{ACAD_REACTORS
330
2AA
102
}
330
2AA
100
AcDbScale
 70
     0
300
1/8" = 1'-0"
140
0.125
141
12.0
290
     0
  0
SCALE
  5
2C2
102
{ACAD_REACTORS
330
2AA
102
}
330
2AA
100
AcDbScale
 70
     0
300
3/16" = 1'-0"
140
0.1875
141
12.0
290
     0
  0
SCALE
  5
2C3
102
{ACAD_REACTORS
330
2AA
102
}
330
2AA
100
AcDbScale
 70
     0
300
1/4" = 1'-0"
140
0.25
141
12.0
290
     0
  0
SCALE
  5
2C4
102
{ACAD_REACTORS
330
2AA
102
}
330
2AA
100
AcDbScale
 70
     0
300
3/8" = 1'-0"
140
0.375
141
12.0
290
     0
  0
SCALE
  5
2C5
102
{ACAD_REACTORS
330
2AA
102
}
330
2AA
100
AcDbScale
 70
     0
300
1/2" = 1'-0"
140
0.5
141
12.0
290
     0
  0
SCALE
  5
2C6
102
{ACAD_REACTORS
330
2AA
102
}
330
2AA
100
AcDbScale
 70
     0
300
3/4" = 1'-0"
140
0.75
141
12.0
290
     0
  0
SCALE
  5
2C7
102
{ACAD_REACTORS
330
2AA
102
}
330
2AA
100
AcDbScale
 70
     0
300
1" = 1'-0"
140
1.0
141
12.0
290
     0
  0
SCALE
  5
2C8
102
{ACAD_REACTORS
330
2AA
102
}
330
2AA
100
AcDbScale
 70
     0
300
1-1/2" = 1'-0"
140
1.5
141
12.0
290
     0
  0
SCALE
  5
2C9
102
{ACAD_REACTORS
330
2AA
102
}
330
2AA
100
AcDbScale
 70
     0
300
3" = 1'-0"
140
3.0
141
12.0
290
     0
  0
SCALE
  5
2CA
102
{ACAD_REACTORS
330
2AA
102
}
330
2AA
100
AcDbScale
 70
     0
300
6" = 1'-0"
140
6.0
141
12.0
290
     0
  0
SCALE
  5
2CB
102
{ACAD_REACTORS
330
2AA
102
}
330
2AA
100
AcDbScale
 70
     0
300
1'-0" = 1'-0"
140
12.0
141
12.0
290
     0
  0
VISUALSTYLE
  5
2F
102
{ACAD_REACTORS
330
2A
102
}
102
{ACAD_XDICTIONARY
360
2DA
102
}
330
2A
100
AcDbVisualStyle
  2
2dWireframe
 70
     4
 71
     0
 72
     2
 73
     0
 90
        0
 40
-0.6
 41
-30.0
 62
     5
 63
     7
 74
     1
 91
        4
 64
     7
 65
   257
 75
     1
175
     1
 42
1.0
 92
        0
 66
   257
 43
1.0
 76
     1
 77
     6
 78
     2
 67
     7
 79
     5
170
     0
171
     0
290
     0
174
     0
 93
        1
 44
0.0
173
     0
291
     0
 45
0.0
1001
ACAD
1000
AcDbSavedByObjectVersion
1070
     0
  0
VISUALSTYLE
  5
31
102
{ACAD_REACTORS
330
2A
102
}
102
{ACAD_XDICTIONARY
360
2DE
102
}
330
2A
100
AcDbVisualStyle
  2
3D Hidden
 70
     6
 71
     1
 72
     2
 73
     2
 90
        0
 40
-0.6
 41
-30.0
 62
     5
 63
     7
 74
     2
 91
        2
 64
     7
 65
   257
 75
     2
175
     1
 42
40.0
 92
        0
 66
   257
 43
1.0
 76
     1
 77
     6
 78
     2
 67
     7
 79
     3
170
     0
171
     0
290
     0
174
     0
 93
        1
 44
0.0
173
     0
291
     0
 45
0.0
1001
ACAD
1000
AcDbSavedByObjectVersion
1070
     0
  0
VISUALSTYLE
  5
30
102
{ACAD_REACTORS
330
2A
102
}
102
{ACAD_XDICTIONARY
360
2DC
102
}
330
2A
100
AcDbVisualStyle
  2
3dWireframe
 70
     5
 71
     0
 72
     2
 73
     0
 90
        0
 40
-0.6
 41
-30.0
 62
     5
 63
     7
 74
     1
 91
        4
 64
     7
 65
   257
 75
     1
175
     1
 42
1.0
 92
        0
 66
   257
 43
1.0
 76
     1
 77
     6
 78
     2
 67
     7
 79
     5
170
     0
171
     0
290
     0
174
     0
 93
        1
 44
0.0
173
     0
291
     0
 45
0.0
1001
ACAD
1000
AcDbSavedByObjectVersion
1070
     0
  0
VISUALSTYLE
  5
32
102
{ACAD_REACTORS
330
2A
102
}
102
{ACAD_XDICTIONARY
360
2E0
102
}
330
2A
100
AcDbVisualStyle
  2
Basic
 70
     7
 71
     1
 72
     0
 73
     1
 90
        0
 40
-0.6
 41
-30.0
 62
     5
 63
     7
 74
     0
 91
        4
 64
     7
 65
   257
 75
     1
175
     1
 42
1.0
 92
        8
 66
     7
 43
1.0
 76
     1
 77
     6
 78
     2
 67
     7
 79
     5
170
     0
171
     0
290
     0
174
     0
 93
        1
 44
0.0
173
     0
291
     1
 45
0.0
1001
ACAD
1000
AcDbSavedByObjectVersion
1070
     0
  0
VISUALSTYLE
  5
36
102
{ACAD_REACTORS
330
2A
102
}
102
{ACAD_XDICTIONARY
360
2E8
102
}
330
2A
100
AcDbVisualStyle
  2
Brighten
 70
    12
 71
     2
 72
     2
 73
     0
 90
        0
 40
-0.6
 41
-30.0
 62
     5
 63
     7
 74
     1
 91
        4
 64
     7
 65
   257
 75
     1
175
     1
 42
1.0
 92
        8
 66
     7
 43
1.0
 76
     1
 77
     6
 78
     2
 67
     7
 79
     5
170
     0
171
     0
290
     0
174
     0
 93
        1
 44
50.0
173
     0
291
     1
 45
0.0
1001
ACAD
1000
AcDbSavedByObjectVersion
1070
     0
  0
VISUALSTYLE
  5
3A
102
{ACAD_REACTORS
330
2A
102
}
102
{ACAD_XDICTIONARY
360
2F0
102
}
330
2A
100
AcDbVisualStyle
  2
ColorChange
 70
    16
 71
     2
 72
     2
 73
     3
 90
        0
 40
-0.6
 41
-30.0
 62
     5
 63
     8
 74
     1
 91
        4
 64
     7
 65
   257
 75
     1
175
     1
 42
1.0
 92
        8
 66
     8
 43
1.0
 76
     1
 77
     6
 78
     2
 67
     7
 79
     5
170
     0
171
     0
290
     0
174
     0
 93
        1
 44
0.0
173
     0
291
     1
 45
0.0
1001
ACAD
1000
AcDbSavedByObjectVersion
1070
     0
  0
VISUALSTYLE
  5
34
102
{ACAD_REACTORS
330
2A
102
}
102
{ACAD_XDICTIONARY
360
2E4
102
}
330
2A
100
AcDbVisualStyle
  2
Conceptual
 70
     9
 71
     3
 72
     2
 73
     0
 90
        0
 40
-0.6
 41
-30.0
 62
     5
 63
     7
 74
     2
 91
        2
 64
     7
 65
   257
 75
     1
175
     1
 42
40.0
 92
        8
 66
     7
 43
1.0
 76
     1
 77
     6
 78
     2
 67
     7
 79
     3
170
     0
171
     0
290
     0
174
     0
 93
        1
 44
0.0
173
     0
291
     0
 45
0.0
1001
ACAD
1000
AcDbSavedByObjectVersion
1070
     0
  0
VISUALSTYLE
  5
35
102
{ACAD_REACTORS
330
2A
102
}
102
{ACAD_XDICTIONARY
360
2E6
102
}
330
2A
100
AcDbVisualStyle
  2
Dim
 70
    11
 71
     2
 72
     2
 73
     0
 90
        0
 40
-0.6
 41
-30.0
 62
     5
 63
     7
 74
     1
 91
        4
 64
     7
 65
   257
 75
     1
175
     1
 42
1.0
 92
        8
 66
     7
 43
1.0
 76
     1
 77
     6
 78
     2
 67
     7
 79
     5
170
     0
171
     0
290
     0
174
     0
 93
        1
 44
-50.0
173
     0
291
     1
 45
0.0
1001
ACAD
1000
AcDbSavedByObjectVersion
1070
     0
  0
VISUALSTYLE
  5
39
102
{ACAD_REACTORS
330
2A
102
}
102
{ACAD_XDICTIONARY
360
2EE
102
}
330
2A
100
AcDbVisualStyle
  2
Facepattern
 70
    15
 71
     2
 72
     2
 73
     0
 90
        0
 40
-0.6
 41
-30.0
 62
     5
 63
     7
 74
     1
 91
        4
 64
     7
 65
   257
 75
     1
175
     1
 42
1.0
 92
        8
 66
     7
 43
1.0
 76
     1
 77
     6
 78
     2
 67
     7
 79
     5
170
     0
171
     0
290
     0
174
     0
 93
        1
 44
0.0
173
     0
291
     1
 45
0.0
1001
ACAD
1000
AcDbSavedByObjectVersion
1070
     0
  0
VISUALSTYLE
  5
2B
102
{ACAD_REACTORS
330
2A
102
}
102
{ACAD_XDICTIONARY
360
2D2
102
}
330
2A
100
AcDbVisualStyle
  2
Flat
 70
     0
 71
     2
 72
     1
 73
     1
 90
        2
 40
-0.6
 41
30.0
 62
     5
 63
     7
 74
     0
 91
        4
 64
     7
 65
   257
 75
     1
175
     1
 42
1.0
 92
        8
 66
     7
 43
1.0
 76
     1
 77
     6
 78
     2
 67
     7
 79
     5
170
     0
171
     0
290
     0
174
     0
 93
       13
 44
0.0
173
     0
291
     1
 45
0.0
1001
ACAD
1000
AcDbSavedByObjectVersion
1070
     0
  0
VISUALSTYLE
  5
2C
102
{ACAD_REACTORS
330
2A
102
}
102
{ACAD_XDICTIONARY
360
2D4
102
}
330
2A
100
AcDbVisualStyle
  2
FlatWithEdges
 70
     1
 71
     2
 72
     1
 73
     1
 90
        2
 40
-0.6
 41
30.0
 62
     5
 63
     7
 74
     1
 91
        4
 64
     7
 65
   257
 75
     1
175
     1
 42
1.0
 92
        0
 66
   257
 43
1.0
 76
     1
 77
     6
 78
     2
 67
     7
 79
     5
170
     0
171
     0
290
     0
174
     0
 93
       13
 44
0.0
173
     0
291
     1
 45
0.0
1001
ACAD
1000
AcDbSavedByObjectVersion
1070
     0
  0
VISUALSTYLE
  5
2D
102
{ACAD_REACTORS
330
2A
102
}
102
{ACAD_XDICTIONARY
360
2D6
102
}
330
2A
100
AcDbVisualStyle
  2
Gouraud
 70
     2
 71
     2
 72
     2
 73
     1
 90
        2
 40
-0.6
 41
30.0
 62
     5
 63
     7
 74
     0
 91
        4
 64
     7
 65
   257
 75
     1
175
     1
 42
1.0
 92
        0
 66
     7
 43
1.0
 76
     1
 77
     6
 78
     2
 67
     7
 79
     5
170
     0
171
     0
290
     0
174
     0
 93
       13
 44
0.0
173
     0
291
     1
 45
0.0
1001
ACAD
1000
AcDbSavedByObjectVersion
1070
     0
  0
VISUALSTYLE
  5
2E
102
{ACAD_REACTORS
330
2A
102
}
102
{ACAD_XDICTIONARY
360
2D8
102
}
330
2A
100
AcDbVisualStyle
  2
GouraudWithEdges
 70
     3
 71
     2
 72
     2
 73
     1
 90
        2
 40
-0.6
 41
30.0
 62
     5
 63
     7
 74
     1
 91
        4
 64
     7
 65
   257
 75
     1
175
     1
 42
1.0
 92
        0
 66
   257
 43
1.0
 76
     1
 77
     6
 78
     2
 67
     7
 79
     5
170
     0
171
     0
290
     0
174
     0
 93
       13
 44
0.0
173
     0
291
     1
 45
0.0
1001
ACAD
1000
AcDbSavedByObjectVersion
1070
     0
  0
VISUALSTYLE
  5
38
102
{ACAD_REACTORS
330
2A
102
}
102
{ACAD_XDICTIONARY
360
2EC
102
}
330
2A
100
AcDbVisualStyle
  2
Linepattern
 70
    14
 71
     2
 72
     2
 73
     0
 90
        0
 40
-0.6
 41
-30.0
 62
     5
 63
     7
 74
     1
 91
        4
 64
     7
 65
   257
 75
     7
175
     7
 42
1.0
 92
        8
 66
     7
 43
1.0
 76
     1
 77
     6
 78
     2
 67
     7
 79
     5
170
     0
171
     0
290
     0
174
     0
 93
        1
 44
0.0
173
     0
291
     1
 45
0.0
1001
ACAD
1000
AcDbSavedByObjectVersion
1070
     0
  0
VISUALSTYLE
  5
33
102
{ACAD_REACTORS
330
2A
102
}
102
{ACAD_XDICTIONARY
360
2E2
102
}
330
2A
100
AcDbVisualStyle
  2
Realistic
 70
     8
 71
     2
 72
     2
 73
     0
 90
        0
 40
-0.6
 41
-30.0
 62
     5
 63
     7
 74
     1
 91
        0
 64
     7
 65
   257
 75
     1
175
     1
 42
1.0
 92
        8
 66
     8
 43
1.0
 76
     1
 77
     6
 78
     2
 67
     7
 79
     5
170
     0
171
     0
290
     0
174
     0
 93
       13
 44
0.0
173
     0
291
     0
 45
0.0
1001
ACAD
1000
AcDbSavedByObjectVersion
1070
     0
  0
VISUALSTYLE
  5
37
102
{ACAD_REACTORS
330
2A
102
}
102
{ACAD_XDICTIONARY
360
2EA
102
}
330
2A
100
AcDbVisualStyle
  2
Thicken
 70
    13
 71
     2
 72
     2
 73
     0
 90
        0
 40
-0.6
 41
-30.0
 62
     5
 63
     7
 74
     1
 91
        4
 64
     7
 65
   257
 75
     1
175
     1
 42
1.0
 92
       12
 66
     7
 43
1.0
 76
     1
 77
     6
 78
     2
 67
     7
 79
     5
170
     0
171
     0
290
     0
174
     0
 93
        1
 44
0.0
173
     0
291
     1
 45
0.0
1001
ACAD
1000
AcDbSavedByObjectVersion
1070
     0
  0
DICTIONARYVAR
  5
2CF
102
{ACAD_REACTORS
330
2CC
102
}
330
2CC
100
DictionaryVariables
280
     0
  1
1:1
  0
DICTIONARYVAR
  5
2D0
102
{ACAD_REACTORS
330
2CC
102
}
330
2CC
100
DictionaryVariables
280
     0
  1
2
  0
DICTIONARYVAR
  5
2D1
102
{ACAD_REACTORS
330
2CC
102
}
330
2CC
100
DictionaryVariables
280
     0
  1
1
  0
DICTIONARY
  5
2F4
330
3D
100
AcDbDictionary
280
     1
281
     1
  3
ACAD_XREC_ROUNDTRIP
360
2F5
  0
DICTIONARY
  5
2F2
330
3C
100
AcDbDictionary
280
     1
281
     1
  3
ACAD_XREC_ROUNDTRIP
360
2F3
  0
DICTIONARY
  5
2F6
330
3E
100
AcDbDictionary
280
     1
281
     1
  3
ACAD_XREC_ROUNDTRIP
360
2F7
  0
DICTIONARY
  5
2DA
330
2F
100
AcDbDictionary
280
     1
281
     1
  3
ACAD_XREC_ROUNDTRIP
360
2DB
  0
DICTIONARY
  5
2DE
330
31
100
AcDbDictionary
280
     1
281
     1
  3
ACAD_XREC_ROUNDTRIP
360
2DF
  0
DICTIONARY
  5
2DC
330
30
100
AcDbDictionary
280
     1
281
     1
  3
ACAD_XREC_ROUNDTRIP
360
2DD
  0
DICTIONARY
  5
2E0
330
32
100
AcDbDictionary
280
     1
281
     1
  3
ACAD_XREC_ROUNDTRIP
360
2E1
  0
DICTIONARY
  5
2E8
330
36
100
AcDbDictionary
280
     1
281
     1
  3
ACAD_XREC_ROUNDTRIP
360
2E9
  0
DICTIONARY
  5
2F0
330
3A
100
AcDbDictionary
280
     1
281
     1
  3
ACAD_XREC_ROUNDTRIP
360
2F1
  0
DICTIONARY
  5
2E4
330
34
100
AcDbDictionary
280
     1
281
     1
  3
ACAD_XREC_ROUNDTRIP
360
2E5
  0
DICTIONARY
  5
2E6
330
35
100
AcDbDictionary
280
     1
281
     1
  3
ACAD_XREC_ROUNDTRIP
360
2E7
  0
DICTIONARY
  5
2EE
330
39
100
AcDbDictionary
280
     1
281
     1
  3
ACAD_XREC_ROUNDTRIP
360
2EF
  0
DICTIONARY
  5
2D2
330
2B
100
AcDbDictionary
280
     1
281
     1
  3
ACAD_XREC_ROUNDTRIP
360
2D3
  0
DICTIONARY
  5
2D4
330
2C
100
AcDbDictionary
280
     1
281
     1
  3
ACAD_XREC_ROUNDTRIP
360
2D5
  0
DICTIONARY
  5
2D6
330
2D
100
AcDbDictionary
280
     1
281
     1
  3
ACAD_XREC_ROUNDTRIP
360
2D7
  0
DICTIONARY
  5
2D8
330
2E
100
AcDbDictionary
280
     1
281
     1
  3
ACAD_XREC_ROUNDTRIP
360
2D9
  0
DICTIONARY
  5
2EC
330
38
100
AcDbDictionary
280
     1
281
     1
  3
ACAD_XREC_ROUNDTRIP
360
2ED
  0
DICTIONARY
  5
2E2
330
33
100
AcDbDictionary
280
     1
281
     1
  3
ACAD_XREC_ROUNDTRIP
360
2E3
  0
DICTIONARY
  5
2EA
330
37
100
AcDbDictionary
280
     1
281
     1
  3
ACAD_XREC_ROUNDTRIP
360
2EB
  0
XRECORD
  5
2F5
102
{ACAD_REACTORS
330
2F4
102
}
330
2F4
100
AcDbXrecord
280
     1
102
MATERIAL
148
0.0
149
0.0
149
0.0
 93
        0
 94
      127
282
     0
 72
     1
 77
     1
171
     1
175
     1
179
     1
273
     0
  0
XRECORD
  5
2F3
102
{ACAD_REACTORS
330
2F2
102
}
330
2F2
100
AcDbXrecord
280
     1
102
MATERIAL
148
0.0
149
0.0
149
0.0
 93
        0
 94
      127
282
     0
 72
     1
 77
     1
171
     1
175
     1
179
     1
273
     0
  0
XRECORD
  5
2F7
102
{ACAD_REACTORS
330
2F6
102
}
330
2F6
100
AcDbXrecord
280
     1
102
MATERIAL
148
0.0
149
0.0
149
0.0
 93
        0
 94
      127
282
     0
 72
     1
 77
     1
171
     1
175
     1
179
     1
273
     0
  0
XRECORD
  5
2DB
102
{ACAD_REACTORS
330
2DA
102
}
330
2DA
100
AcDbXrecord
280
     1
102
RTVSPropertyOp0
 70
     1
102
RTVSPropertyOp1
 70
     1
102
RTVSPropertyOp2
 70
     1
102
RTVSPropertyOp3
 70
     1
102
RTVSPropertyOp4
 70
     1
102
RTVSPropertyOp5
 70
     1
102
RTVSPropertyOp6
 70
     1
102
RTVSPropertyOp7
 70
     1
102
RTVSPropertyOp8
 70
     1
102
RTVSPropertyOp9
 70
     1
102
RTVSPropertyOp10
 70
     1
102
RTVSPropertyOp11
 70
     1
102
RTVSPropertyOp12
 70
     1
102
RTVSPropertyOp13
 70
     1
102
RTVSPropertyOp14
 70
     1
102
RTVSPropertyOp15
 70
     1
102
RTVSPropertyOp16
 70
     1
102
RTVSPropertyOp17
 70
     1
102
RTVSPropertyOp18
 70
     1
102
RTVSPropertyOp19
 70
     1
102
RTVSPropertyOp20
 70
     1
102
RTVSPropertyOp21
 70
     1
102
RTVSPropertyOp22
 70
     1
102
RTVSPropertyOp23
 70
     1
102
RTVSPropertyOp24
 70
     1
102
RTVSPropertyOp25
 70
     1
102
RTVSPropertyOp26
 70
     1
102
RTVSPropertyOp27
 70
     1
  0
XRECORD
  5
2DF
102
{ACAD_REACTORS
330
2DE
102
}
330
2DE
100
AcDbXrecord
280
     1
102
RTVSPropertyOp0
 70
     1
102
RTVSPropertyOp1
 70
     1
102
RTVSPropertyOp2
 70
     1
102
RTVSPropertyOp3
 70
     1
102
RTVSPropertyOp4
 70
     1
102
RTVSPropertyOp5
 70
     1
102
RTVSPropertyOp6
 70
     1
102
RTVSPropertyOp7
 70
     1
102
RTVSPropertyOp8
 70
     1
102
RTVSPropertyOp9
 70
     1
102
RTVSPropertyOp10
 70
     1
102
RTVSPropertyOp11
 70
     1
102
RTVSPropertyOp12
 70
     1
102
RTVSPropertyOp13
 70
     1
102
RTVSPropertyOp14
 70
     1
102
RTVSPropertyOp15
 70
     1
102
RTVSPropertyOp16
 70
     1
102
RTVSPropertyOp17
 70
     1
102
RTVSPropertyOp18
 70
     1
102
RTVSPropertyOp19
 70
     1
102
RTVSPropertyOp20
 70
     1
102
RTVSPropertyOp21
 70
     1
102
RTVSPropertyOp22
 70
     1
102
RTVSPropertyOp23
 70
     1
102
RTVSPropertyOp24
 70
     1
102
RTVSPropertyOp25
 70
     1
102
RTVSPropertyOp26
 70
     1
102
RTVSPropertyOp27
 70
     1
  0
XRECORD
  5
2DD
102
{ACAD_REACTORS
330
2DC
102
}
330
2DC
100
AcDbXrecord
280
     1
102
RTVSPropertyOp0
 70
     1
102
RTVSPropertyOp1
 70
     1
102
RTVSPropertyOp2
 70
     1
102
RTVSPropertyOp3
 70
     1
102
RTVSPropertyOp4
 70
     1
102
RTVSPropertyOp5
 70
     1
102
RTVSPropertyOp6
 70
     1
102
RTVSPropertyOp7
 70
     1
102
RTVSPropertyOp8
 70
     1
102
RTVSPropertyOp9
 70
     1
102
RTVSPropertyOp10
 70
     1
102
RTVSPropertyOp11
 70
     1
102
RTVSPropertyOp12
 70
     1
102
RTVSPropertyOp13
 70
     1
102
RTVSPropertyOp14
 70
     1
102
RTVSPropertyOp15
 70
     1
102
RTVSPropertyOp16
 70
     1
102
RTVSPropertyOp17
 70
     1
102
RTVSPropertyOp18
 70
     1
102
RTVSPropertyOp19
 70
     1
102
RTVSPropertyOp20
 70
     1
102
RTVSPropertyOp21
 70
     1
102
RTVSPropertyOp22
 70
     1
102
RTVSPropertyOp23
 70
     1
102
RTVSPropertyOp24
 70
     1
102
RTVSPropertyOp25
 70
     1
102
RTVSPropertyOp26
 70
     1
102
RTVSPropertyOp27
 70
     1
  0
XRECORD
  5
2E1
102
{ACAD_REACTORS
330
2E0
102
}
330
2E0
100
AcDbXrecord
280
     1
102
RTVSPropertyOp0
 70
     1
102
RTVSPropertyOp1
 70
     1
102
RTVSPropertyOp2
 70
     1
102
RTVSPropertyOp3
 70
     1
102
RTVSPropertyOp4
 70
     1
102
RTVSPropertyOp5
 70
     1
102
RTVSPropertyOp6
 70
     1
102
RTVSPropertyOp7
 70
     1
102
RTVSPropertyOp8
 70
     1
102
RTVSPropertyOp9
 70
     1
102
RTVSPropertyOp10
 70
     1
102
RTVSPropertyOp11
 70
     1
102
RTVSPropertyOp12
 70
     1
102
RTVSPropertyOp13
 70
     1
102
RTVSPropertyOp14
 70
     1
102
RTVSPropertyOp15
 70
     1
102
RTVSPropertyOp16
 70
     1
102
RTVSPropertyOp17
 70
     1
102
RTVSPropertyOp18
 70
     1
102
RTVSPropertyOp19
 70
     1
102
RTVSPropertyOp20
 70
     1
102
RTVSPropertyOp21
 70
     1
102
RTVSPropertyOp22
 70
     1
102
RTVSPropertyOp23
 70
     1
102
RTVSPropertyOp24
 70
     1
102
RTVSPropertyOp25
 70
     1
102
RTVSPropertyOp26
 70
     1
102
RTVSPropertyOp27
 70
     1
  0
XRECORD
  5
2E9
102
{ACAD_REACTORS
330
2E8
102
}
330
2E8
100
AcDbXrecord
280
     1
102
RTVSPropertyOp0
 70
     1
102
RTVSPropertyOp1
 70
     1
102
RTVSPropertyOp2
 70
     1
102
RTVSPropertyOp3
 70
     1
102
RTVSPropertyOp4
 70
     1
102
RTVSPropertyOp5
 70
     1
102
RTVSPropertyOp6
 70
     1
102
RTVSPropertyOp7
 70
     1
102
RTVSPropertyOp8
 70
     1
102
RTVSPropertyOp9
 70
     1
102
RTVSPropertyOp10
 70
     1
102
RTVSPropertyOp11
 70
     1
102
RTVSPropertyOp12
 70
     1
102
RTVSPropertyOp13
 70
     1
102
RTVSPropertyOp14
 70
     1
102
RTVSPropertyOp15
 70
     1
102
RTVSPropertyOp16
 70
     1
102
RTVSPropertyOp17
 70
     1
102
RTVSPropertyOp18
 70
     1
102
RTVSPropertyOp19
 70
     1
102
RTVSPropertyOp20
 70
     1
102
RTVSPropertyOp21
 70
     1
102
RTVSPropertyOp22
 70
     1
102
RTVSPropertyOp23
 70
     1
102
RTVSPropertyOp24
 70
     1
102
RTVSPropertyOp25
 70
     1
102
RTVSPropertyOp26
 70
     1
102
RTVSPropertyOp27
 70
     1
  0
XRECORD
  5
2F1
102
{ACAD_REACTORS
330
2F0
102
}
330
2F0
100
AcDbXrecord
280
     1
102
RTVSPropertyOp0
 70
     1
102
RTVSPropertyOp1
 70
     1
102
RTVSPropertyOp2
 70
     1
102
RTVSPropertyOp3
 70
     1
102
RTVSPropertyOp4
 70
     1
102
RTVSPropertyOp5
 70
     1
102
RTVSPropertyOp6
 70
     1
102
RTVSPropertyOp7
 70
     1
102
RTVSPropertyOp8
 70
     1
102
RTVSPropertyOp9
 70
     1
102
RTVSPropertyOp10
 70
     1
102
RTVSPropertyOp11
 70
     1
102
RTVSPropertyOp12
 70
     1
102
RTVSPropertyOp13
 70
     1
102
RTVSPropertyOp14
 70
     1
102
RTVSPropertyOp15
 70
     1
102
RTVSPropertyOp16
 70
     1
102
RTVSPropertyOp17
 70
     1
102
RTVSPropertyOp18
 70
     1
102
RTVSPropertyOp19
 70
     1
102
RTVSPropertyOp20
 70
     1
102
RTVSPropertyOp21
 70
     1
102
RTVSPropertyOp22
 70
     1
102
RTVSPropertyOp23
 70
     1
102
RTVSPropertyOp24
 70
     1
102
RTVSPropertyOp25
 70
     1
102
RTVSPropertyOp26
 70
     1
102
RTVSPropertyOp27
 70
     1
  0
XRECORD
  5
2E5
102
{ACAD_REACTORS
330
2E4
102
}
330
2E4
100
AcDbXrecord
280
     1
102
RTVSPropertyOp0
 70
     1
102
RTVSPropertyOp1
 70
     1
102
RTVSPropertyOp2
 70
     1
102
RTVSPropertyOp3
 70
     1
102
RTVSPropertyOp4
 70
     1
102
RTVSPropertyOp5
 70
     1
102
RTVSPropertyOp6
 70
     1
102
RTVSPropertyOp7
 70
     1
102
RTVSPropertyOp8
 70
     1
102
RTVSPropertyOp9
 70
     1
102
RTVSPropertyOp10
 70
     1
102
RTVSPropertyOp11
 70
     1
102
RTVSPropertyOp12
 70
     1
102
RTVSPropertyOp13
 70
     1
102
RTVSPropertyOp14
 70
     1
102
RTVSPropertyOp15
 70
     1
102
RTVSPropertyOp16
 70
     1
102
RTVSPropertyOp17
 70
     1
102
RTVSPropertyOp18
 70
     1
102
RTVSPropertyOp19
 70
     1
102
RTVSPropertyOp20
 70
     1
102
RTVSPropertyOp21
 70
     1
102
RTVSPropertyOp22
 70
     1
102
RTVSPropertyOp23
 70
     1
102
RTVSPropertyOp24
 70
     1
102
RTVSPropertyOp25
 70
     1
102
RTVSPropertyOp26
 70
     1
102
RTVSPropertyOp27
 70
     1
  0
XRECORD
  5
2E7
102
{ACAD_REACTORS
330
2E6
102
}
330
2E6
100
AcDbXrecord
280
     1
102
RTVSPropertyOp0
 70
     1
102
RTVSPropertyOp1
 70
     1
102
RTVSPropertyOp2
 70
     1
102
RTVSPropertyOp3
 70
     1
102
RTVSPropertyOp4
 70
     1
102
RTVSPropertyOp5
 70
     1
102
RTVSPropertyOp6
 70
     1
102
RTVSPropertyOp7
 70
     1
102
RTVSPropertyOp8
 70
     1
102
RTVSPropertyOp9
 70
     1
102
RTVSPropertyOp10
 70
     1
102
RTVSPropertyOp11
 70
     1
102
RTVSPropertyOp12
 70
     1
102
RTVSPropertyOp13
 70
     1
102
RTVSPropertyOp14
 70
     1
102
RTVSPropertyOp15
 70
     1
102
RTVSPropertyOp16
 70
     1
102
RTVSPropertyOp17
 70
     1
102
RTVSPropertyOp18
 70
     1
102
RTVSPropertyOp19
 70
     1
102
RTVSPropertyOp20
 70
     1
102
RTVSPropertyOp21
 70
     1
102
RTVSPropertyOp22
 70
     1
102
RTVSPropertyOp23
 70
     1
102
RTVSPropertyOp24
 70
     1
102
RTVSPropertyOp25
 70
     1
102
RTVSPropertyOp26
 70
     1
102
RTVSPropertyOp27
 70
     1
  0
XRECORD
  5
2EF
102
{ACAD_REACTORS
330
2EE
102
}
330
2EE
100
AcDbXrecord
280
     1
102
RTVSPropertyOp0
 70
     1
102
RTVSPropertyOp1
 70
     1
102
RTVSPropertyOp2
 70
     1
102
RTVSPropertyOp3
 70
     1
102
RTVSPropertyOp4
 70
     1
102
RTVSPropertyOp5
 70
     1
102
RTVSPropertyOp6
 70
     1
102
RTVSPropertyOp7
 70
     1
102
RTVSPropertyOp8
 70
     1
102
RTVSPropertyOp9
 70
     1
102
RTVSPropertyOp10
 70
     1
102
RTVSPropertyOp11
 70
     1
102
RTVSPropertyOp12
 70
     1
102
RTVSPropertyOp13
 70
     1
102
RTVSPropertyOp14
 70
     1
102
RTVSPropertyOp15
 70
     1
102
RTVSPropertyOp16
 70
     1
102
RTVSPropertyOp17
 70
     1
102
RTVSPropertyOp18
 70
     1
102
RTVSPropertyOp19
 70
     1
102
RTVSPropertyOp20
 70
     1
102
RTVSPropertyOp21
 70
     1
102
RTVSPropertyOp22
 70
     1
102
RTVSPropertyOp23
 70
     1
102
RTVSPropertyOp24
 70
     1
102
RTVSPropertyOp25
 70
     1
102
RTVSPropertyOp26
 70
     1
102
RTVSPropertyOp27
 70
     1
  0
XRECORD
  5
2D3
102
{ACAD_REACTORS
330
2D2
102
}
330
2D2
100
AcDbXrecord
280
     1
102
RTVSPropertyOp0
 70
     1
102
RTVSPropertyOp1
 70
     1
102
RTVSPropertyOp2
 70
     1
102
RTVSPropertyOp3
 70
     1
102
RTVSPropertyOp4
 70
     1
102
RTVSPropertyOp5
 70
     1
102
RTVSPropertyOp6
 70
     1
102
RTVSPropertyOp7
 70
     1
102
RTVSPropertyOp8
 70
     1
102
RTVSPropertyOp9
 70
     1
102
RTVSPropertyOp10
 70
     1
102
RTVSPropertyOp11
 70
     1
102
RTVSPropertyOp12
 70
     1
102
RTVSPropertyOp13
 70
     1
102
RTVSPropertyOp14
 70
     1
102
RTVSPropertyOp15
 70
     1
102
RTVSPropertyOp16
 70
     1
102
RTVSPropertyOp17
 70
     1
102
RTVSPropertyOp18
 70
     1
102
RTVSPropertyOp19
 70
     1
102
RTVSPropertyOp20
 70
     1
102
RTVSPropertyOp21
 70
     1
102
RTVSPropertyOp22
 70
     1
102
RTVSPropertyOp23
 70
     1
102
RTVSPropertyOp24
 70
     1
102
RTVSPropertyOp25
 70
     1
102
RTVSPropertyOp26
 70
     1
102
RTVSPropertyOp27
 70
     1
  0
XRECORD
  5
2D5
102
{ACAD_REACTORS
330
2D4
102
}
330
2D4
100
AcDbXrecord
280
     1
102
RTVSPropertyOp0
 70
     1
102
RTVSPropertyOp1
 70
     1
102
RTVSPropertyOp2
 70
     1
102
RTVSPropertyOp3
 70
     1
102
RTVSPropertyOp4
 70
     1
102
RTVSPropertyOp5
 70
     1
102
RTVSPropertyOp6
 70
     1
102
RTVSPropertyOp7
 70
     1
102
RTVSPropertyOp8
 70
     1
102
RTVSPropertyOp9
 70
     1
102
RTVSPropertyOp10
 70
     1
102
RTVSPropertyOp11
 70
     1
102
RTVSPropertyOp12
 70
     1
102
RTVSPropertyOp13
 70
     1
102
RTVSPropertyOp14
 70
     1
102
RTVSPropertyOp15
 70
     1
102
RTVSPropertyOp16
 70
     1
102
RTVSPropertyOp17
 70
     1
102
RTVSPropertyOp18
 70
     1
102
RTVSPropertyOp19
 70
     1
102
RTVSPropertyOp20
 70
     1
102
RTVSPropertyOp21
 70
     1
102
RTVSPropertyOp22
 70
     1
102
RTVSPropertyOp23
 70
     1
102
RTVSPropertyOp24
 70
     1
102
RTVSPropertyOp25
 70
     1
102
RTVSPropertyOp26
 70
     1
102
RTVSPropertyOp27
 70
     1
  0
XRECORD
  5
2D7
102
{ACAD_REACTORS
330
2D6
102
}
330
2D6
100
AcDbXrecord
280
     1
102
RTVSPropertyOp0
 70
     1
102
RTVSPropertyOp1
 70
     1
102
RTVSPropertyOp2
 70
     1
102
RTVSPropertyOp3
 70
     1
102
RTVSPropertyOp4
 70
     1
102
RTVSPropertyOp5
 70
     1
102
RTVSPropertyOp6
 70
     1
102
RTVSPropertyOp7
 70
     1
102
RTVSPropertyOp8
 70
     1
102
RTVSPropertyOp9
 70
     1
102
RTVSPropertyOp10
 70
     1
102
RTVSPropertyOp11
 70
     1
102
RTVSPropertyOp12
 70
     1
102
RTVSPropertyOp13
 70
     1
102
RTVSPropertyOp14
 70
     1
102
RTVSPropertyOp15
 70
     1
102
RTVSPropertyOp16
 70
     1
102
RTVSPropertyOp17
 70
     1
102
RTVSPropertyOp18
 70
     1
102
RTVSPropertyOp19
 70
     1
102
RTVSPropertyOp20
 70
     1
102
RTVSPropertyOp21
 70
     1
102
RTVSPropertyOp22
 70
     1
102
RTVSPropertyOp23
 70
     1
102
RTVSPropertyOp24
 70
     1
102
RTVSPropertyOp25
 70
     1
102
RTVSPropertyOp26
 70
     1
102
RTVSPropertyOp27
 70
     1
  0
XRECORD
  5
2D9
102
{ACAD_REACTORS
330
2D8
102
}
330
2D8
100
AcDbXrecord
280
     1
102
RTVSPropertyOp0
 70
     1
102
RTVSPropertyOp1
 70
     1
102
RTVSPropertyOp2
 70
     1
102
RTVSPropertyOp3
 70
     1
102
RTVSPropertyOp4
 70
     1
102
RTVSPropertyOp5
 70
     1
102
RTVSPropertyOp6
 70
     1
102
RTVSPropertyOp7
 70
     1
102
RTVSPropertyOp8
 70
     1
102
RTVSPropertyOp9
 70
     1
102
RTVSPropertyOp10
 70
     1
102
RTVSPropertyOp11
 70
     1
102
RTVSPropertyOp12
 70
     1
102
RTVSPropertyOp13
 70
     1
102
RTVSPropertyOp14
 70
     1
102
RTVSPropertyOp15
 70
     1
102
RTVSPropertyOp16
 70
     1
102
RTVSPropertyOp17
 70
     1
102
RTVSPropertyOp18
 70
     1
102
RTVSPropertyOp19
 70
     1
102
RTVSPropertyOp20
 70
     1
102
RTVSPropertyOp21
 70
     1
102
RTVSPropertyOp22
 70
     1
102
RTVSPropertyOp23
 70
     1
102
RTVSPropertyOp24
 70
     1
102
RTVSPropertyOp25
 70
     1
102
RTVSPropertyOp26
 70
     1
102
RTVSPropertyOp27
 70
     1
  0
XRECORD
  5
2ED
102
{ACAD_REACTORS
330
2EC
102
}
330
2EC
100
AcDbXrecord
280
     1
102
RTVSPropertyOp0
 70
     1
102
RTVSPropertyOp1
 70
     1
102
RTVSPropertyOp2
 70
     1
102
RTVSPropertyOp3
 70
     1
102
RTVSPropertyOp4
 70
     1
102
RTVSPropertyOp5
 70
     1
102
RTVSPropertyOp6
 70
     1
102
RTVSPropertyOp7
 70
     1
102
RTVSPropertyOp8
 70
     1
102
RTVSPropertyOp9
 70
     1
102
RTVSPropertyOp10
 70
     1
102
RTVSPropertyOp11
 70
     1
102
RTVSPropertyOp12
 70
     1
102
RTVSPropertyOp13
 70
     1
102
RTVSPropertyOp14
 70
     1
102
RTVSPropertyOp15
 70
     1
102
RTVSPropertyOp16
 70
     1
102
RTVSPropertyOp17
 70
     1
102
RTVSPropertyOp18
 70
     1
102
RTVSPropertyOp19
 70
     1
102
RTVSPropertyOp20
 70
     1
102
RTVSPropertyOp21
 70
     1
102
RTVSPropertyOp22
 70
     1
102
RTVSPropertyOp23
 70
     1
102
RTVSPropertyOp24
 70
     1
102
RTVSPropertyOp25
 70
     1
102
RTVSPropertyOp26
 70
     1
102
RTVSPropertyOp27
 70
     1
  0
XRECORD
  5
2E3
102
{ACAD_REACTORS
330
2E2
102
}
330
2E2
100
AcDbXrecord
280
     1
102
RTVSPropertyOp0
 70
     1
102
RTVSPropertyOp1
 70
     1
102
RTVSPropertyOp2
 70
     1
102
RTVSPropertyOp3
 70
     1
102
RTVSPropertyOp4
 70
     1
102
RTVSPropertyOp5
 70
     1
102
RTVSPropertyOp6
 70
     1
102
RTVSPropertyOp7
 70
     1
102
RTVSPropertyOp8
 70
     1
102
RTVSPropertyOp9
 70
     1
102
RTVSPropertyOp10
 70
     1
102
RTVSPropertyOp11
 70
     1
102
RTVSPropertyOp12
 70
     1
102
RTVSPropertyOp13
 70
     1
102
RTVSPropertyOp14
 70
     1
102
RTVSPropertyOp15
 70
     1
102
RTVSPropertyOp16
 70
     1
102
RTVSPropertyOp17
 70
     1
102
RTVSPropertyOp18
 70
     1
102
RTVSPropertyOp19
 70
     1
102
RTVSPropertyOp20
 70
     1
102
RTVSPropertyOp21
 70
     1
102
RTVSPropertyOp22
 70
     1
102
RTVSPropertyOp23
 70
     1
102
RTVSPropertyOp24
 70
     1
102
RTVSPropertyOp25
 70
     1
102
RTVSPropertyOp26
 70
     1
102
RTVSPropertyOp27
 70
     1
  0
XRECORD
  5
2EB
102
{ACAD_REACTORS
330
2EA
102
}
330
2EA
100
AcDbXrecord
280
     1
102
RTVSPropertyOp0
 70
     1
102
RTVSPropertyOp1
 70
     1
102
RTVSPropertyOp2
 70
     1
102
RTVSPropertyOp3
 70
     1
102
RTVSPropertyOp4
 70
     1
102
RTVSPropertyOp5
 70
     1
102
RTVSPropertyOp6
 70
     1
102
RTVSPropertyOp7
 70
     1
102
RTVSPropertyOp8
 70
     1
102
RTVSPropertyOp9
 70
     1
102
RTVSPropertyOp10
 70
     1
102
RTVSPropertyOp11
 70
     1
102
RTVSPropertyOp12
 70
     1
102
RTVSPropertyOp13
 70
     1
102
RTVSPropertyOp14
 70
     1
102
RTVSPropertyOp15
 70
     1
102
RTVSPropertyOp16
 70
     1
102
RTVSPropertyOp17
 70
     1
102
RTVSPropertyOp18
 70
     1
102
RTVSPropertyOp19
 70
     1
102
RTVSPropertyOp20
 70
     1
102
RTVSPropertyOp21
 70
     1
102
RTVSPropertyOp22
 70
     1
102
RTVSPropertyOp23
 70
     1
102
RTVSPropertyOp24
 70
     1
102
RTVSPropertyOp25
 70
     1
102
RTVSPropertyOp26
 70
     1
102
RTVSPropertyOp27
 70
     1
  0
ENDSEC
  0
EOF
