  0
SECTION
  2
HEADER
  9
$ACADVER
  1
AC1015
  9
$ACADMAINTVER
 70
     6
  9
$DWGCODEPAGE
  3
ANSI_932
  9
$INSBASE
 10
0.0
 20
0.0
 30
0.0
  9
$EXTMIN
 10
23.55308219178082
 20
32.1837433
 30
0.0
  9
$EXTMAX
 10
214.451458
 20
275.5251580611169
 30
0.0
  9
$LIMMIN
 10
23.55308219178082
 20
32.1837433
  9
$LIMMAX
 10
214.451458
 20
275.5251580611169
  9
$ORTHOMODE
 70
     0
  9
$REGENMODE
 70
     1
  9
$FILLMODE
 70
     1
  9
$QTEXTMODE
 70
     0
  9
$MIRRTEXT
 70
     1
  9
$LTSCALE
 40
1.0
  9
$ATTMODE
 70
     1
  9
$TEXTSIZE
 40
0.2
  9
$TRACEWID
 40
0.05
  9
$TEXTSTYLE
  7
Standard
  9
$CLAYER
  8
0
  9
$CELTYPE
  6
ByLayer
  9
$CECOLOR
 62
   256
  9
$CELTSCALE
 40
1.0
  9
$DISPSILH
 70
     0
  9
$DIMSCALE
 40
1.0
  9
$DIMASZ
 40
0.18
  9
$DIMEXO
 40
0.0625
  9
$DIMDLI
 40
0.38
  9
$DIMRND
 40
0.0
  9
$DIMDLE
 40
0.0
  9
$DIMEXE
 40
0.18
  9
$DIMTP
 40
0.0
  9
$DIMTM
 40
0.0
  9
$DIMTXT
 40
0.18
  9
$DIMCEN
 40
0.09
  9
$DIMTSZ
 40
0.0
  9
$DIMTOL
 70
     0
  9
$DIMLIM
 70
     0
  9
$DIMTIH
 70
     1
  9
$DIMTOH
 70
     1
  9
$DIMSE1
 70
     0
  9
$DIMSE2
 70
     0
  9
$DIMTAD
 70
     0
  9
$DIMZIN
 70
     0
  9
$DIMBLK
  1

  9
$DIMASO
 70
     1
  9
$DIMSHO
 70
     1
  9
$DIMPOST
  1

  9
$DIMAPOST
  1

  9
$DIMALT
 70
     0
  9
$DIMALTD
 70
     2
  9
$DIMALTF
 40
25.4
  9
$DIMLFAC
 40
1.0
  9
$DIMTOFL
 70
     0
  9
$DIMTVP
 40
0.0
  9
$DIMTIX
 70
     0
  9
$DIMSOXD
 70
     0
  9
$DIMSAH
 70
     0
  9
$DIMBLK1
  1

  9
$DIMBLK2
  1

  9
$DIMSTYLE
  2
Standard
  9
$DIMCLRD
 70
     0
  9
$DIMCLRE
 70
     0
  9
$DIMCLRT
 70
     0
  9
$DIMTFAC
 40
1.0
  9
$DIMGAP
 40
0.09
  9
$DIMJUST
 70
     0
  9
$DIMSD1
 70
     0
  9
$DIMSD2
 70
     0
  9
$DIMTOLJ
 70
     1
  9
$DIMTZIN
 70
     0
  9
$DIMALTZ
 70
     0
  9
$DIMALTTZ
 70
     0
  9
$DIMUPT
 70
     0
  9
$DIMDEC
 70
     4
  9
$DIMTDEC
 70
     4
  9
$DIMALTU
 70
     2
  9
$DIMALTTD
 70
     2
  9
$DIMTXSTY
  7
Standard
  9
$DIMAUNIT
 70
     0
  9
$DIMADEC
 70
     0
  9
$DIMALTRND
 40
0.0
  9
$DIMAZIN
 70
     0
  9
$DIMDSEP
 70
    46
  9
$DIMATFIT
 70
     3
  9
$DIMFRAC
 70
     0
  9
$DIMLDRBLK
  1

  9
$DIMLUNIT
 70
     2
  9
$DIMLWD
 70
    -2
  9
$DIMLWE
 70
    -2
  9
$DIMTMOVE
 70
     0
  9
$LUNITS
 70
     2
  9
$LUPREC
 70
     4
  9
$SKETCHINC
 40
0.1
  9
$FILLETRAD
 40
0.5
  9
$AUNITS
 70
     0
  9
$AUPREC
 70
     0
  9
$MENU
  1
.
  9
$ELEVATION
 40
0.0
  9
$PELEVATION
 40
0.0
  9
$THICKNESS
 40
0.0
  9
$LIMCHECK
 70
     0
  9
$CHAMFERA
 40
0.5
  9
$CHAMFERB
 40
0.5
  9
$CHAMFERC
 40
1.0
  9
$CHAMFERD
 40
0.0
  9
$SKPOLY
 70
     0
  9
$TDCREATE
 40
2456238.385965116
  9
$TDUCREATE
 40
2456238.010965116
  9
$TDUPDATE
 40
2456238.385965127
  9
$TDUUPDATE
 40
2456238.010965127
  9
$TDINDWG
 40
0.0000000116
  9
$TDUSRTIMER
 40
0.0000000116
  9
$USRTIMER
 70
     1
  9
$ANGBASE
 50
0.0
  9
$ANGDIR
 70
     0
  9
$PDMODE
 70
     0
  9
$PDSIZE
 40
0.0
  9
$PLINEWID
 40
0.0
  9
$SPLFRAME
 70
     0
  9
$SPLINETYPE
 70
     6
  9
$SPLINESEGS
 70
     8
  9
$HANDSEED
  5
289
  9
$SURFTAB1
 70
     6
  9
$SURFTAB2
 70
     6
  9
$SURFTYPE
 70
     6
  9
$SURFU
 70
     6
  9
$SURFV
 70
     6
  9
$UCSBASE
  2

  9
$UCSNAME
  2

  9
$UCSORG
 10
0.0
 20
0.0
 30
0.0
  9
$UCSXDIR
 10
1.0
 20
0.0
 30
0.0
  9
$UCSYDIR
 10
0.0
 20
1.0
 30
0.0
  9
$UCSORTHOREF
  2

  9
$UCSORTHOVIEW
 70
     0
  9
$UCSORGTOP
 10
0.0
 20
0.0
 30
0.0
  9
$UCSORGBOTTOM
 10
0.0
 20
0.0
 30
0.0
  9
$UCSORGLEFT
 10
0.0
 20
0.0
 30
0.0
  9
$UCSORGRIGHT
 10
0.0
 20
0.0
 30
0.0
  9
$UCSORGFRONT
 10
0.0
 20
0.0
 30
0.0
  9
$UCSORGBACK
 10
0.0
 20
0.0
 30
0.0
  9
$PUCSBASE
  2

  9
$PUCSNAME
  2

  9
$PUCSORG
 10
0.0
 20
0.0
 30
0.0
  9
$PUCSXDIR
 10
1.0
 20
0.0
 30
0.0
  9
$PUCSYDIR
 10
0.0
 20
1.0
 30
0.0
  9
$PUCSORTHOREF
  2

  9
$PUCSORTHOVIEW
 70
     0
  9
$PUCSORGTOP
 10
0.0
 20
0.0
 30
0.0
  9
$PUCSORGBOTTOM
 10
0.0
 20
0.0
 30
0.0
  9
$PUCSORGLEFT
 10
0.0
 20
0.0
 30
0.0
  9
$PUCSORGRIGHT
 10
0.0
 20
0.0
 30
0.0
  9
$PUCSORGFRONT
 10
0.0
 20
0.0
 30
0.0
  9
$PUCSORGBACK
 10
0.0
 20
0.0
 30
0.0
  9
$USERI1
 70
     0
  9
$USERI2
 70
     0
  9
$USERI3
 70
     0
  9
$USERI4
 70
     0
  9
$USERI5
 70
     0
  9
$USERR1
 40
0.0
  9
$USERR2
 40
0.0
  9
$USERR3
 40
0.0
  9
$USERR4
 40
0.0
  9
$USERR5
 40
0.0
  9
$WORLDVIEW
 70
     1
  9
$SHADEDGE
 70
     3
  9
$SHADEDIF
 70
    70
  9
$TILEMODE
 70
     1
  9
$MAXACTVP
 70
    64
  9
$PINSBASE
 10
0.0
 20
0.0
 30
0.0
  9
$PLIMCHECK
 70
     0
  9
$PEXTMIN
 10
1.000000000000000E+20
 20
1.000000000000000E+20
 30
1.000000000000000E+20
  9
$PEXTMAX
 10
-1.000000000000000E+20
 20
-1.000000000000000E+20
 30
-1.000000000000000E+20
  9
$PLIMMIN
 10
0.0
 20
0.0
  9
$PLIMMAX
 10
12.0
 20
9.0
  9
$UNITMODE
 70
     0
  9
$VISRETAIN
 70
     1
  9
$PLINEGEN
 70
     0
  9
$PSLTSCALE
 70
     1
  9
$TREEDEPTH
 70
  3020
  9
$CMLSTYLE
  2
Standard
  9
$CMLJUST
 70
     0
  9
$CMLSCALE
 40
1.0
  9
$PROXYGRAPHICS
 70
     1
  9
$MEASUREMENT
 70
     0
  9
$CELWEIGHT
370
    -1
  9
$ENDCAPS
280
     0
  9
$JOINSTYLE
280
     0
  9
$LWDISPLAY
290
     0
  9
$INSUNITS
 70
     4
  9
$HYPERLINKBASE
  1

  9
$STYLESHEET
  1

  9
$XEDIT
290
     1
  9
$CEPSNTYPE
380
     0
  9
$PSTYLEMODE
290
     1
  9
$FINGERPRINTGUID
  2
{A109C868-66C4-4376-B38D-3B352CCAE78F}
  9
$VERSIONGUID
  2
{FAEB1C32-E019-11D5-929B-00C0DF256EC4}
  9
$EXTNAMES
290
     1
  9
$PSVPSCALE
 40
0.0
  9
$OLESTARTUP
290
     0
  0
ENDSEC
  0
SECTION
  2
CLASSES
  0
CLASS
  1
ACDBDICTIONARYWDFLT
  2
AcDbDictionaryWithDefault
  3
ObjectDBX Classes
 90
        0
280
     0
281
     0
  0
CLASS
  1
VISUALSTYLE
  2
AcDbVisualStyle
  3
ObjectDBX Classes
 90
     4095
280
     0
281
     0
  0
CLASS
  1
MATERIAL
  2
AcDbMaterial
  3
ObjectDBX Classes
 90
     1153
280
     0
281
     0
  0
CLASS
  1
SCALE
  2
AcDbScale
  3
ObjectDBX Classes
 90
     1153
280
     0
281
     0
  0
CLASS
  1
DICTIONARYVAR
  2
AcDbDictionaryVar
  3
ObjectDBX Classes
 90
        0
280
     0
281
     0
  0
CLASS
  1
ACDBPLACEHOLDER
  2
AcDbPlaceHolder
  3
ObjectDBX Classes
 90
        0
280
     0
281
     0
  0
CLASS
  1
LAYOUT
  2
AcDbLayout
  3
ObjectDBX Classes
 90
        0
280
     0
281
     0
  0
ENDSEC
  0
SECTION
  2
TABLES
  0
TABLE
  2
VPORT
  5
8
330
0
100
AcDbSymbolTable
 70
     1
  0
VPORT
  5
29
330
8
100
AcDbSymbolTableRecord
100
AcDbViewportTableRecord
  2
*Active
 70
     0
 10
0.0
 20
0.0
 11
1.0
 21
1.0
 12
119.0022700958904
 22
153.9318316329394
 13
0.0
 23
0.0
 14
0.5
 24
0.5
 15
0.5
 25
0.5
 16
0.0
 26
0.0
 36
1.0
 17
0.0
 27
0.0
 37
0.0
 40
248.3661001991964
 41
0.7839892125705387
 42
50.0
 43
0.0
 44
0.0
 50
0.0
 51
0.0
 71
     0
 72
  1000
 73
     1
 74
     3
 75
     0
 76
     0
 77
     0
 78
     0
281
     0
 65
     1
110
0.0
120
0.0
130
0.0
111
1.0
121
0.0
131
0.0
112
0.0
122
1.0
132
0.0
 79
     0
146
0.0
  0
ENDTAB
  0
TABLE
  2
LTYPE
  5
5
330
0
100
AcDbSymbolTable
 70
     4
  0
LTYPE
  5
14
330
5
100
AcDbSymbolTableRecord
100
AcDbLinetypeTableRecord
  2
ByBlock
 70
     0
  3

 72
    65
 73
     0
 40
0.0
  0
LTYPE
  5
15
330
5
100
AcDbSymbolTableRecord
100
AcDbLinetypeTableRecord
  2
ByLayer
 70
     0
  3

 72
    65
 73
     0
 40
0.0
  0
LTYPE
  5
16
330
5
100
AcDbSymbolTableRecord
100
AcDbLinetypeTableRecord
  2
Continuous
 70
     0
  3
Solid line
 72
    65
 73
     0
 40
0.0
  0
LTYPE
  5
3F
330
5
100
AcDbSymbolTableRecord
100
AcDbLinetypeTableRecord
  2
chain
 70
     0
  3
_____ __ _____ __ _____
 72
    65
 73
     4
 40
18.5
 49
12.0
 74
     4
 75
     0
340
0
 46
1.0
 50
0.0
 44
0.0
 45
0.0
 49
-1.5
 74
     4
 75
     0
340
0
 46
1.0
 50
0.0
 44
0.0
 45
0.0
 49
3.5
 74
     4
 75
     0
340
0
 46
1.0
 50
0.0
 44
0.0
 45
0.0
 49
-1.5
 74
     4
 75
     0
340
0
 46
1.0
 50
0.0
 44
0.0
 45
0.0
  0
LTYPE
  5
40
330
5
100
AcDbSymbolTableRecord
100
AcDbLinetypeTableRecord
  2
dashed dotted
 70
     0
  3
_____  _  _____  _  _____
 72
    65
 73
     4
 40
9.3
 49
6.0
 74
     4
 75
     0
340
0
 46
1.0
 50
0.0
 44
0.0
 45
0.0
 49
-1.5
 74
     4
 75
     0
340
0
 46
1.0
 50
0.0
 44
0.0
 45
0.0
 49
0.25
 74
     4
 75
     0
340
0
 46
1.0
 50
0.0
 44
0.0
 45
0.0
 49
-1.5
 74
     4
 75
     0
340
0
 46
1.0
 50
0.0
 44
0.0
 45
0.0
  0
LTYPE
  5
41
330
5
100
AcDbSymbolTableRecord
100
AcDbLinetypeTableRecord
  2
USER_1
 70
     0
  3
UserDefineLineType1
 72
    65
 73
     2
 40
0.75
 49
0.5
 74
     4
 75
     0
340
0
 46
1.0
 50
0.0
 44
0.0
 45
0.0
 49
-0.25
 74
     4
 75
     0
340
0
 46
1.0
 50
0.0
 44
0.0
 45
0.0
  0
ENDTAB
  0
TABLE
  2
LAYER
  5
2
330
0
100
AcDbSymbolTable
 70
    13
  0
LAYER
  5
10
330
2
100
AcDbSymbolTableRecord
100
AcDbLayerTableRecord
  2
0
 70
     0
 62
     7
  6
Continuous
370
    -3
390
F
  0
LAYER
  5
42
330
2
100
AcDbSymbolTableRecord
100
AcDbLayerTableRecord
  2
D-TTL
 70
     0
 62
     7
  6
Continuous
370
    -3
390
F
  0
LAYER
  5
43
330
2
100
AcDbSymbolTableRecord
100
AcDbLayerTableRecord
  2
D-TTL-TXT
 70
     0
 62
     7
  6
Continuous
370
    -3
390
F
  0
LAYER
  5
44
330
2
100
AcDbSymbolTableRecord
100
AcDbLayerTableRecord
  2
D-BGD-TXT
 70
     0
 62
     7
  6
Continuous
370
    -3
390
F
  0
LAYER
  5
45
330
2
100
AcDbSymbolTableRecord
100
AcDbLayerTableRecord
  2
D-BMK
 70
     0
 62
     5
  6
dashed dotted
370
    -3
390
F
  0
LAYER
  5
46
330
2
100
AcDbSymbolTableRecord
100
AcDbLayerTableRecord
  2
D-STR
 70
     0
 62
     1
  6
Continuous
370
    -3
390
F
  0
LAYER
  5
47
330
2
100
AcDbSymbolTableRecord
100
AcDbLayerTableRecord
  2
D-STR-DIM
 70
     0
 62
     5
  6
Continuous
370
    -3
390
F
  0
LAYER
  5
48
330
2
100
AcDbSymbolTableRecord
100
AcDbLayerTableRecord
  2
D-MTR
 70
     0
 62
     7
  6
Continuous
370
    -3
390
F
  0
LAYER
  5
49
330
2
100
AcDbSymbolTableRecord
100
AcDbLayerTableRecord
  2
D-MTR-FRAM
 70
     0
 62
     7
  6
Continuous
370
    -3
390
F
  0
LAYER
  5
4A
330
2
100
AcDbSymbolTableRecord
100
AcDbLayerTableRecord
  2
D-MTR-TXT
 70
     0
 62
     7
  6
Continuous
370
    -3
390
F
  0
LAYER
  5
4B
330
2
100
AcDbSymbolTableRecord
100
AcDbLayerTableRecord
  2
D-DCR-HCH2
 70
     0
 62
   134
  6
Continuous
370
    -3
390
F
  0
LAYER
  5
4C
330
2
100
AcDbSymbolTableRecord
100
AcDbLayerTableRecord
  2
D-STR-STR5
 70
     0
 62
   134
  6
Continuous
370
    -3
390
F
  0
LAYER
  5
91
330
2
100
AcDbSymbolTableRecord
100
AcDbLayerTableRecord
  2
Defpoints
 70
     0
 62
     7
  6
Continuous
290
     0
370
    -3
390
F
  0
ENDTAB
  0
TABLE
  2
STYLE
  5
3
330
0
100
AcDbSymbolTable
 70
     3
  0
STYLE
  5
11
330
3
100
AcDbSymbolTableRecord
100
AcDbTextStyleTableRecord
  2
Standard
 70
     0
 40
0.0
 41
1.0
 50
0.0
 71
     0
 42
0.2
  3
txt
  4

  0
STYLE
  5
4D
330
3
100
AcDbSymbolTableRecord
100
AcDbTextStyleTableRecord
  2
STANDARD-FC
 70
     0
 40
0.0
 41
1.0
 50
0.0
 71
     0
 42
0.2
  3
txt
  4
bigfont
  0
STYLE
  5
4E
330
3
100
AcDbSymbolTableRecord
100
AcDbTextStyleTableRecord
  2
ＭＳ ゴシック
 70
     0
 40
0.0
 41
1.0
 50
0.0
 71
     0
 42
0.2
  3
msgothic.ttc
  4

1001
ACAD
1000
MS Gothic
1071
    32817
  0
ENDTAB
  0
TABLE
  2
VIEW
  5
6
330
0
100
AcDbSymbolTable
 70
     0
  0
ENDTAB
  0
TABLE
  2
UCS
  5
7
330
0
100
AcDbSymbolTable
 70
     0
  0
ENDTAB
  0
TABLE
  2
APPID
  5
9
330
0
100
AcDbSymbolTable
 70
     1
  0
APPID
  5
12
330
9
100
AcDbSymbolTableRecord
100
AcDbRegAppTableRecord
  2
ACAD
 70
     0
  0
ENDTAB
  0
TABLE
  2
DIMSTYLE
  5
A
330
0
100
AcDbSymbolTable
 70
     1
100
AcDbDimStyleTable
  0
DIMSTYLE
105
27
102
{ACAD_REACTORS
330
90
330
9B
330
A8
330
B5
330
C2
330
CF
330
DC
330
E9
330
F6
330
103
330
112
330
1AA
330
1B7
330
1C4
330
1D1
330
1DE
330
1EB
330
1F8
330
22D
102
}
330
A
100
AcDbSymbolTableRecord
100
AcDbDimStyleTableRecord
  2
Standard
 70
     0
178
     0
340
11
  0
ENDTAB
  0
TABLE
  2
BLOCK_RECORD
  5
1
330
0
100
AcDbSymbolTable
 70
    21
  0
BLOCK_RECORD
  5
1F
330
1
100
AcDbSymbolTableRecord
100
AcDbBlockTableRecord
  2
*Model_Space
340
22
  0
BLOCK_RECORD
  5
1B
330
1
100
AcDbSymbolTableRecord
100
AcDbBlockTableRecord
  2
*Paper_Space
340
1E
  0
BLOCK_RECORD
  5
23
330
1
100
AcDbSymbolTableRecord
100
AcDbBlockTableRecord
  2
*Paper_Space0
340
26
  0
BLOCK_RECORD
  5
8A
330
1
100
AcDbSymbolTableRecord
100
AcDbBlockTableRecord
  2
_Open
340
0
102
{BLKREFS
331
95
331
96
331
A0
331
A1
331
AD
331
AE
331
BA
331
BB
331
C7
331
C8
331
D4
331
D5
331
E1
331
E2
331
EE
331
EF
331
FB
331
FC
331
10A
331
10B
331
117
331
118
331
232
331
233
102
}
  0
BLOCK_RECORD
  5
92
330
1
100
AcDbSymbolTableRecord
100
AcDbBlockTableRecord
  2
*D2
340
0
  0
BLOCK_RECORD
  5
9C
330
1
100
AcDbSymbolTableRecord
100
AcDbBlockTableRecord
  2
*D3
340
0
  0
BLOCK_RECORD
  5
A9
330
1
100
AcDbSymbolTableRecord
100
AcDbBlockTableRecord
  2
*D4
340
0
  0
BLOCK_RECORD
  5
B6
330
1
100
AcDbSymbolTableRecord
100
AcDbBlockTableRecord
  2
*D5
340
0
  0
BLOCK_RECORD
  5
C3
330
1
100
AcDbSymbolTableRecord
100
AcDbBlockTableRecord
  2
*D6
340
0
  0
BLOCK_RECORD
  5
D0
330
1
100
AcDbSymbolTableRecord
100
AcDbBlockTableRecord
  2
*D7
340
0
  0
BLOCK_RECORD
  5
DD
330
1
100
AcDbSymbolTableRecord
100
AcDbBlockTableRecord
  2
*D8
340
0
  0
BLOCK_RECORD
  5
EA
330
1
100
AcDbSymbolTableRecord
100
AcDbBlockTableRecord
  2
*D9
340
0
  0
BLOCK_RECORD
  5
F7
330
1
100
AcDbSymbolTableRecord
100
AcDbBlockTableRecord
  2
*D10
340
0
  0
BLOCK_RECORD
  5
104
330
1
100
AcDbSymbolTableRecord
100
AcDbBlockTableRecord
  2
*D11
340
0
  0
BLOCK_RECORD
  5
113
330
1
100
AcDbSymbolTableRecord
100
AcDbBlockTableRecord
  2
*D12
340
0
  0
BLOCK_RECORD
  5
1AB
330
1
100
AcDbSymbolTableRecord
100
AcDbBlockTableRecord
  2
*D13
340
0
  0
BLOCK_RECORD
  5
1B8
330
1
100
AcDbSymbolTableRecord
100
AcDbBlockTableRecord
  2
*D14
340
0
  0
BLOCK_RECORD
  5
1C5
330
1
100
AcDbSymbolTableRecord
100
AcDbBlockTableRecord
  2
*D15
340
0
  0
BLOCK_RECORD
  5
1D2
330
1
100
AcDbSymbolTableRecord
100
AcDbBlockTableRecord
  2
*D16
340
0
  0
BLOCK_RECORD
  5
1DF
330
1
100
AcDbSymbolTableRecord
100
AcDbBlockTableRecord
  2
*D17
340
0
  0
BLOCK_RECORD
  5
1EC
330
1
100
AcDbSymbolTableRecord
100
AcDbBlockTableRecord
  2
*D18
340
0
  0
BLOCK_RECORD
  5
1F9
330
1
100
AcDbSymbolTableRecord
100
AcDbBlockTableRecord
  2
*D19
340
0
  0
BLOCK_RECORD
  5
22E
330
1
100
AcDbSymbolTableRecord
100
AcDbBlockTableRecord
  2
*D20
340
0
  0
ENDTAB
  0
ENDSEC
  0
SECTION
  2
BLOCKS
  0
BLOCK
  5
20
330
1F
100
AcDbEntity
  8
0
100
AcDbBlockBegin
  2
*Model_Space
 70
     0
 10
0.0
 20
0.0
 30
0.0
  3
*Model_Space
  1

  0
ENDBLK
  5
21
330
1F
100
AcDbEntity
  8
0
100
AcDbBlockEnd
  0
BLOCK
  5
1C
330
1B
100
AcDbEntity
 67
     1
  8
0
100
AcDbBlockBegin
  2
*Paper_Space
 70
     0
 10
0.0
 20
0.0
 30
0.0
  3
*Paper_Space
  1

  0
ENDBLK
  5
1D
330
1B
100
AcDbEntity
 67
     1
  8
0
100
AcDbBlockEnd
  0
BLOCK
  5
24
330
23
100
AcDbEntity
  8
0
100
AcDbBlockBegin
  2
*Paper_Space0
 70
     0
 10
0.0
 20
0.0
 30
0.0
  3
*Paper_Space0
  1

  0
ENDBLK
  5
25
330
23
100
AcDbEntity
  8
0
100
AcDbBlockEnd
  0
BLOCK
  5
8E
330
8A
100
AcDbEntity
  8
0
100
AcDbBlockBegin
  2
_Open
 70
     0
 10
0.0
 20
0.0
 30
0.0
  3
_Open
  1

  0
LINE
  5
8B
330
8A
100
AcDbEntity
  8
0
 62
     0
100
AcDbLine
 10
-1.0
 20
0.1666666666666667
 30
0.0
 11
0.0
 21
0.0
 31
0.0
  0
LINE
  5
8C
330
8A
100
AcDbEntity
  8
0
 62
     0
100
AcDbLine
 10
-1.0
 20
-0.1666666666666667
 30
0.0
 11
0.0
 21
0.0
 31
0.0
  0
LINE
  5
8D
330
8A
100
AcDbEntity
  8
0
 62
     0
100
AcDbLine
 10
0.0
 20
0.0
 30
0.0
 11
-1.0
 21
0.0
 31
0.0
  0
ENDBLK
  5
8F
330
8A
100
AcDbEntity
  8
0
100
AcDbBlockEnd
  0
BLOCK
  5
99
330
92
100
AcDbEntity
  8
0
100
AcDbBlockBegin
  2
*D2
 70
     1
 10
0.0
 20
0.0
 30
0.0
  3
*D2
  1

  0
LINE
  5
93
330
92
100
AcDbEntity
  8
D-STR-DIM
  6
Continuous
 62
     5
370
    -2
100
AcDbLine
 10
132.7539031327683
 20
192.4131487967211
 30
0.0
 11
109.8242256672317
 21
178.1572765032789
 31
0.0
  0
MTEXT
  5
94
330
92
100
AcDbEntity
  8
D-STR-DIM
 62
     5
370
    13
100
AcDbMText
 10
119.7473684803694
 20
186.9761120956392
 30
0.0
 40
2.777777777777778
 41
0.0
 71
     5
 72
     1
  1
\A1;φ=300
  7
ＭＳ ゴシック
 11
0.8492473114878096
 21
0.5279952688525978
 31
0.0
 73
     1
 44
1.0
1001
ACAD
1000
ACAD_MTEXT_DEFINED_HEIGHT_BEGIN
1070
    46
1040
0.2
1000
ACAD_MTEXT_DEFINED_HEIGHT_END
  0
INSERT
  5
95
330
92
100
AcDbEntity
  8
D-STR-DIM
 62
     5
370
    -2
100
AcDbBlockReference
  2
_Open
 10
108.5503547
 20
177.3652836
 30
0.0
 41
1.5
 42
1.5
 43
1.5
 50
211.870103026971
  0
INSERT
  5
96
330
92
100
AcDbEntity
  8
D-STR-DIM
 62
     5
370
    -2
100
AcDbBlockReference
  2
_Open
 10
134.0277741
 20
193.2051417
 30
0.0
 41
1.5
 42
1.5
 43
1.5
 50
31.87010302697104
  0
POINT
  5
97
330
92
100
AcDbEntity
  8
Defpoints
 62
     0
100
AcDbPoint
 10
134.0277741
 20
193.2051417
 30
0.0
  0
POINT
  5
98
330
92
100
AcDbEntity
  8
Defpoints
 62
     0
100
AcDbPoint
 10
108.5503547
 20
177.3652836
 30
0.0
  0
ENDBLK
  5
9A
330
92
100
AcDbEntity
  8
0
100
AcDbBlockEnd
  0
BLOCK
  5
A6
330
9C
100
AcDbEntity
  8
0
100
AcDbBlockBegin
  2
*D3
 70
     1
 10
0.0
 20
0.0
 30
0.0
  3
*D3
  1

  0
LINE
  5
9D
330
9C
100
AcDbEntity
  8
D-STR-DIM
  6
Continuous
 62
     5
370
    -2
100
AcDbLine
 10
142.2890644
 20
204.2852126
 30
0.0
 11
142.2890644
 21
224.2852126000001
 31
0.0
  0
LINE
  5
9E
330
9C
100
AcDbEntity
  8
D-STR-DIM
  6
Continuous
 62
     5
370
    -2
100
AcDbLine
 10
136.2890644
 20
204.2852126
 30
0.0
 11
136.2890644
 21
224.2852126000001
 31
0.0
  0
LINE
  5
9F
330
9C
100
AcDbEntity
  8
D-STR-DIM
  6
Continuous
 62
     5
370
    -2
100
AcDbLine
 10
140.7890644
 20
223.2852126
 30
0.0
 11
137.7890644
 21
223.2852126
 31
0.0
  0
INSERT
  5
A0
330
9C
100
AcDbEntity
  8
D-STR-DIM
 62
     5
370
    -2
100
AcDbBlockReference
  2
_Open
 10
142.2890644
 20
223.2852126
 30
0.0
 41
1.5
 42
1.5
 43
1.5
  0
INSERT
  5
A1
330
9C
100
AcDbEntity
  8
D-STR-DIM
 62
     5
370
    -2
100
AcDbBlockReference
  2
_Open
 10
136.2890644
 20
223.2852126
 30
0.0
 41
1.5
 42
1.5
 43
1.5
 50
180.0
  0
MTEXT
  5
A2
330
9C
100
AcDbEntity
  8
D-STR-DIM
 62
     5
370
    13
100
AcDbMText
 10
139.2890644
 20
225.5352126
 30
0.0
 40
2.777777777777778
 41
0.0
 71
     5
 72
     1
  1
\A1;60
  7
ＭＳ ゴシック
 73
     1
 44
1.0
1001
ACAD
1000
ACAD_MTEXT_DEFINED_HEIGHT_BEGIN
1070
    46
1040
0.2
1000
ACAD_MTEXT_DEFINED_HEIGHT_END
  0
POINT
  5
A3
330
9C
100
AcDbEntity
  8
Defpoints
 62
     0
100
AcDbPoint
 10
142.2890644
 20
203.2852126
 30
0.0
  0
POINT
  5
A4
330
9C
100
AcDbEntity
  8
Defpoints
 62
     0
100
AcDbPoint
 10
136.2890644
 20
203.2852126
 30
0.0
  0
POINT
  5
A5
330
9C
100
AcDbEntity
  8
Defpoints
 62
     0
100
AcDbPoint
 10
136.2890644
 20
223.2852126
 30
0.0
  0
ENDBLK
  5
A7
330
9C
100
AcDbEntity
  8
0
100
AcDbBlockEnd
  0
BLOCK
  5
B3
330
A9
100
AcDbEntity
  8
0
100
AcDbBlockBegin
  2
*D4
 70
     1
 10
0.0
 20
0.0
 30
0.0
  3
*D4
  1

  0
LINE
  5
AA
330
A9
100
AcDbEntity
  8
D-STR-DIM
  6
Continuous
 62
     5
370
    -2
100
AcDbLine
 10
136.2890644
 20
204.2852126
 30
0.0
 11
136.2890644
 21
224.2852126000001
 31
0.0
  0
LINE
  5
AB
330
A9
100
AcDbEntity
  8
D-STR-DIM
  6
Continuous
 62
     5
370
    -2
100
AcDbLine
 10
106.2890644
 20
204.2852126
 30
0.0
 11
106.2890644
 21
224.2852126000001
 31
0.0
  0
LINE
  5
AC
330
A9
100
AcDbEntity
  8
D-STR-DIM
  6
Continuous
 62
     5
370
    -2
100
AcDbLine
 10
134.7890644
 20
223.2852126
 30
0.0
 11
107.7890644
 21
223.2852126
 31
0.0
  0
INSERT
  5
AD
330
A9
100
AcDbEntity
  8
D-STR-DIM
 62
     5
370
    -2
100
AcDbBlockReference
  2
_Open
 10
136.2890644
 20
223.2852126
 30
0.0
 41
1.5
 42
1.5
 43
1.5
  0
INSERT
  5
AE
330
A9
100
AcDbEntity
  8
D-STR-DIM
 62
     5
370
    -2
100
AcDbBlockReference
  2
_Open
 10
106.2890644
 20
223.2852126
 30
0.0
 41
1.5
 42
1.5
 43
1.5
 50
180.0
  0
MTEXT
  5
AF
330
A9
100
AcDbEntity
  8
D-STR-DIM
 62
     5
370
    13
100
AcDbMText
 10
121.2890644
 20
225.5352126
 30
0.0
 40
2.777777777777778
 41
0.0
 71
     5
 72
     1
  1
\A1;300
  7
ＭＳ ゴシック
 73
     1
 44
1.0
1001
ACAD
1000
ACAD_MTEXT_DEFINED_HEIGHT_BEGIN
1070
    46
1040
0.2
1000
ACAD_MTEXT_DEFINED_HEIGHT_END
  0
POINT
  5
B0
330
A9
100
AcDbEntity
  8
Defpoints
 62
     0
100
AcDbPoint
 10
136.2890644
 20
203.2852126
 30
0.0
  0
POINT
  5
B1
330
A9
100
AcDbEntity
  8
Defpoints
 62
     0
100
AcDbPoint
 10
106.2890644
 20
203.2852126
 30
0.0
  0
POINT
  5
B2
330
A9
100
AcDbEntity
  8
Defpoints
 62
     0
100
AcDbPoint
 10
106.2890644
 20
223.2852126
 30
0.0
  0
ENDBLK
  5
B4
330
A9
100
AcDbEntity
  8
0
100
AcDbBlockEnd
  0
BLOCK
  5
C0
330
B6
100
AcDbEntity
  8
0
100
AcDbBlockBegin
  2
*D5
 70
     1
 10
0.0
 20
0.0
 30
0.0
  3
*D5
  1

  0
LINE
  5
B7
330
B6
100
AcDbEntity
  8
D-STR-DIM
  6
Continuous
 62
     5
370
    -2
100
AcDbLine
 10
106.2890644
 20
204.2852126
 30
0.0
 11
106.2890644
 21
224.2852126000001
 31
0.0
  0
LINE
  5
B8
330
B6
100
AcDbEntity
  8
D-STR-DIM
  6
Continuous
 62
     5
370
    -2
100
AcDbLine
 10
100.2890644
 20
203.8653246
 30
0.0
 11
100.2890644
 21
224.2852126000001
 31
0.0
  0
LINE
  5
B9
330
B6
100
AcDbEntity
  8
D-STR-DIM
  6
Continuous
 62
     5
370
    -2
100
AcDbLine
 10
104.7890644
 20
223.2852126
 30
0.0
 11
101.7890644
 21
223.2852126
 31
0.0
  0
INSERT
  5
BA
330
B6
100
AcDbEntity
  8
D-STR-DIM
 62
     5
370
    -2
100
AcDbBlockReference
  2
_Open
 10
106.2890644
 20
223.2852126
 30
0.0
 41
1.5
 42
1.5
 43
1.5
  0
INSERT
  5
BB
330
B6
100
AcDbEntity
  8
D-STR-DIM
 62
     5
370
    -2
100
AcDbBlockReference
  2
_Open
 10
100.2890644
 20
223.2852126
 30
0.0
 41
1.5
 42
1.5
 43
1.5
 50
180.0
  0
MTEXT
  5
BC
330
B6
100
AcDbEntity
  8
D-STR-DIM
 62
     5
370
    13
100
AcDbMText
 10
103.2890644
 20
225.5352126
 30
0.0
 40
2.777777777777778
 41
0.0
 71
     5
 72
     1
  1
\A1;60
  7
ＭＳ ゴシック
 73
     1
 44
1.0
1001
ACAD
1000
ACAD_MTEXT_DEFINED_HEIGHT_BEGIN
1070
    46
1040
0.2
1000
ACAD_MTEXT_DEFINED_HEIGHT_END
  0
POINT
  5
BD
330
B6
100
AcDbEntity
  8
Defpoints
 62
     0
100
AcDbPoint
 10
106.2890644
 20
203.2852126
 30
0.0
  0
POINT
  5
BE
330
B6
100
AcDbEntity
  8
Defpoints
 62
     0
100
AcDbPoint
 10
100.2890644
 20
202.8653246
 30
0.0
  0
POINT
  5
BF
330
B6
100
AcDbEntity
  8
Defpoints
 62
     0
100
AcDbPoint
 10
100.2890644
 20
223.2852126
 30
0.0
  0
ENDBLK
  5
C1
330
B6
100
AcDbEntity
  8
0
100
AcDbBlockEnd
  0
BLOCK
  5
CD
330
C3
100
AcDbEntity
  8
0
100
AcDbBlockBegin
  2
*D6
 70
     1
 10
0.0
 20
0.0
 30
0.0
  3
*D6
  1

  0
LINE
  5
C4
330
C3
100
AcDbEntity
  8
D-STR-DIM
  6
Continuous
 62
     5
370
    -2
100
AcDbLine
 10
142.2890644
 20
204.2852126
 30
0.0
 11
142.2890644
 21
232.2852126000001
 31
0.0
  0
LINE
  5
C5
330
C3
100
AcDbEntity
  8
D-STR-DIM
  6
Continuous
 62
     5
370
    -2
100
AcDbLine
 10
100.2890644
 20
203.8653246
 30
0.0
 11
100.2890644
 21
232.2852126000001
 31
0.0
  0
LINE
  5
C6
330
C3
100
AcDbEntity
  8
D-STR-DIM
  6
Continuous
 62
     5
370
    -2
100
AcDbLine
 10
140.7890644
 20
231.2852126
 30
0.0
 11
101.7890644
 21
231.2852126
 31
0.0
  0
INSERT
  5
C7
330
C3
100
AcDbEntity
  8
D-STR-DIM
 62
     5
370
    -2
100
AcDbBlockReference
  2
_Open
 10
142.2890644
 20
231.2852126
 30
0.0
 41
1.5
 42
1.5
 43
1.5
  0
INSERT
  5
C8
330
C3
100
AcDbEntity
  8
D-STR-DIM
 62
     5
370
    -2
100
AcDbBlockReference
  2
_Open
 10
100.2890644
 20
231.2852126
 30
0.0
 41
1.5
 42
1.5
 43
1.5
 50
180.0
  0
MTEXT
  5
C9
330
C3
100
AcDbEntity
  8
D-STR-DIM
 62
     5
370
    13
100
AcDbMText
 10
121.2890644
 20
233.5352126
 30
0.0
 40
2.777777777777778
 41
0.0
 71
     5
 72
     1
  1
\A1;420
  7
ＭＳ ゴシック
 73
     1
 44
1.0
1001
ACAD
1000
ACAD_MTEXT_DEFINED_HEIGHT_BEGIN
1070
    46
1040
0.2
1000
ACAD_MTEXT_DEFINED_HEIGHT_END
  0
POINT
  5
CA
330
C3
100
AcDbEntity
  8
Defpoints
 62
     0
100
AcDbPoint
 10
142.2890644
 20
203.2852126
 30
0.0
  0
POINT
  5
CB
330
C3
100
AcDbEntity
  8
Defpoints
 62
     0
100
AcDbPoint
 10
100.2890644
 20
202.8653246
 30
0.0
  0
POINT
  5
CC
330
C3
100
AcDbEntity
  8
Defpoints
 62
     0
100
AcDbPoint
 10
100.2890644
 20
231.2852126
 30
0.0
  0
ENDBLK
  5
CE
330
C3
100
AcDbEntity
  8
0
100
AcDbBlockEnd
  0
BLOCK
  5
DA
330
D0
100
AcDbEntity
  8
0
100
AcDbBlockBegin
  2
*D7
 70
     1
 10
0.0
 20
0.0
 30
0.0
  3
*D7
  1

  0
LINE
  5
D1
330
D0
100
AcDbEntity
  8
D-STR-DIM
  6
Continuous
 62
     5
370
    -2
100
AcDbLine
 10
140.2890644
 20
206.2852126
 30
0.0
 11
163.2890644
 21
206.2852126
 31
0.0
  0
LINE
  5
D2
330
D0
100
AcDbEntity
  8
D-STR-DIM
  6
Continuous
 62
     5
370
    -2
100
AcDbLine
 10
140.2890644
 20
200.2852126
 30
0.0
 11
163.2890644
 21
200.2852126
 31
0.0
  0
LINE
  5
D3
330
D0
100
AcDbEntity
  8
D-STR-DIM
  6
Continuous
 62
     5
370
    -2
100
AcDbLine
 10
162.2890644
 20
204.7852126
 30
0.0
 11
162.2890644
 21
201.7852126
 31
0.0
  0
INSERT
  5
D4
330
D0
100
AcDbEntity
  8
D-STR-DIM
 62
     5
370
    -2
100
AcDbBlockReference
  2
_Open
 10
162.2890644
 20
206.2852126
 30
0.0
 41
1.5
 42
1.5
 43
1.5
 50
90.0
  0
INSERT
  5
D5
330
D0
100
AcDbEntity
  8
D-STR-DIM
 62
     5
370
    -2
100
AcDbBlockReference
  2
_Open
 10
162.2890644
 20
200.2852126
 30
0.0
 41
1.5
 42
1.5
 43
1.5
 50
270.0
  0
MTEXT
  5
D6
330
D0
100
AcDbEntity
  8
D-STR-DIM
 62
     5
370
    13
100
AcDbMText
 10
160.0390644
 20
203.2852126
 30
0.0
 40
2.777777777777778
 41
0.0
 71
     5
 72
     1
  1
\A1;60
  7
ＭＳ ゴシック
 11
6.123233995736766E-17
 21
1.0
 31
0.0
 73
     1
 44
1.0
1001
ACAD
1000
ACAD_MTEXT_DEFINED_HEIGHT_BEGIN
1070
    46
1040
0.2
1000
ACAD_MTEXT_DEFINED_HEIGHT_END
  0
POINT
  5
D7
330
D0
100
AcDbEntity
  8
Defpoints
 62
     0
100
AcDbPoint
 10
139.2890644
 20
206.2852126
 30
0.0
  0
POINT
  5
D8
330
D0
100
AcDbEntity
  8
Defpoints
 62
     0
100
AcDbPoint
 10
139.2890644
 20
200.2852126
 30
0.0
  0
POINT
  5
D9
330
D0
100
AcDbEntity
  8
Defpoints
 62
     0
100
AcDbPoint
 10
162.2890644
 20
200.2852126
 30
0.0
  0
ENDBLK
  5
DB
330
D0
100
AcDbEntity
  8
0
100
AcDbBlockEnd
  0
BLOCK
  5
E7
330
DD
100
AcDbEntity
  8
0
100
AcDbBlockBegin
  2
*D8
 70
     1
 10
0.0
 20
0.0
 30
0.0
  3
*D8
  1

  0
LINE
  5
DE
330
DD
100
AcDbEntity
  8
D-STR-DIM
  6
Continuous
 62
     5
370
    -2
100
AcDbLine
 10
140.2890644
 20
200.2852126
 30
0.0
 11
163.2890644
 21
200.2852126
 31
0.0
  0
LINE
  5
DF
330
DD
100
AcDbEntity
  8
D-STR-DIM
  6
Continuous
 62
     5
370
    -2
100
AcDbLine
 10
140.2890644
 20
170.2852126
 30
0.0
 11
163.2890644
 21
170.2852126
 31
0.0
  0
LINE
  5
E0
330
DD
100
AcDbEntity
  8
D-STR-DIM
  6
Continuous
 62
     5
370
    -2
100
AcDbLine
 10
162.2890644
 20
198.7852126
 30
0.0
 11
162.2890644
 21
171.7852126
 31
0.0
  0
INSERT
  5
E1
330
DD
100
AcDbEntity
  8
D-STR-DIM
 62
     5
370
    -2
100
AcDbBlockReference
  2
_Open
 10
162.2890644
 20
200.2852126
 30
0.0
 41
1.5
 42
1.5
 43
1.5
 50
90.0
  0
INSERT
  5
E2
330
DD
100
AcDbEntity
  8
D-STR-DIM
 62
     5
370
    -2
100
AcDbBlockReference
  2
_Open
 10
162.2890644
 20
170.2852126
 30
0.0
 41
1.5
 42
1.5
 43
1.5
 50
270.0
  0
MTEXT
  5
E3
330
DD
100
AcDbEntity
  8
D-STR-DIM
 62
     5
370
    13
100
AcDbMText
 10
160.0390644
 20
185.2852126
 30
0.0
 40
2.777777777777778
 41
0.0
 71
     5
 72
     1
  1
\A1;300
  7
ＭＳ ゴシック
 11
6.123233995736766E-17
 21
1.0
 31
0.0
 73
     1
 44
1.0
1001
ACAD
1000
ACAD_MTEXT_DEFINED_HEIGHT_BEGIN
1070
    46
1040
0.2
1000
ACAD_MTEXT_DEFINED_HEIGHT_END
  0
POINT
  5
E4
330
DD
100
AcDbEntity
  8
Defpoints
 62
     0
100
AcDbPoint
 10
139.2890644
 20
200.2852126
 30
0.0
  0
POINT
  5
E5
330
DD
100
AcDbEntity
  8
Defpoints
 62
     0
100
AcDbPoint
 10
139.2890644
 20
170.2852126
 30
0.0
  0
POINT
  5
E6
330
DD
100
AcDbEntity
  8
Defpoints
 62
     0
100
AcDbPoint
 10
162.2890644
 20
170.2852126
 30
0.0
  0
ENDBLK
  5
E8
330
DD
100
AcDbEntity
  8
0
100
AcDbBlockEnd
  0
BLOCK
  5
F4
330
EA
100
AcDbEntity
  8
0
100
AcDbBlockBegin
  2
*D9
 70
     1
 10
0.0
 20
0.0
 30
0.0
  3
*D9
  1

  0
LINE
  5
EB
330
EA
100
AcDbEntity
  8
D-STR-DIM
  6
Continuous
 62
     5
370
    -2
100
AcDbLine
 10
140.2890644
 20
170.2852126
 30
0.0
 11
163.2890644
 21
170.2852126
 31
0.0
  0
LINE
  5
EC
330
EA
100
AcDbEntity
  8
D-STR-DIM
  6
Continuous
 62
     5
370
    -2
100
AcDbLine
 10
143.2890644
 20
164.2852126
 30
0.0
 11
163.2890644
 21
164.2852126
 31
0.0
  0
LINE
  5
ED
330
EA
100
AcDbEntity
  8
D-STR-DIM
  6
Continuous
 62
     5
370
    -2
100
AcDbLine
 10
162.2890644
 20
168.7852126
 30
0.0
 11
162.2890644
 21
165.7852126
 31
0.0
  0
INSERT
  5
EE
330
EA
100
AcDbEntity
  8
D-STR-DIM
 62
     5
370
    -2
100
AcDbBlockReference
  2
_Open
 10
162.2890644
 20
170.2852126
 30
0.0
 41
1.5
 42
1.5
 43
1.5
 50
90.0
  0
INSERT
  5
EF
330
EA
100
AcDbEntity
  8
D-STR-DIM
 62
     5
370
    -2
100
AcDbBlockReference
  2
_Open
 10
162.2890644
 20
164.2852126
 30
0.0
 41
1.5
 42
1.5
 43
1.5
 50
270.0
  0
MTEXT
  5
F0
330
EA
100
AcDbEntity
  8
D-STR-DIM
 62
     5
370
    13
100
AcDbMText
 10
160.0390644
 20
167.2852126
 30
0.0
 40
2.777777777777778
 41
0.0
 71
     5
 72
     1
  1
\A1;60
  7
ＭＳ ゴシック
 11
6.123233995736766E-17
 21
1.0
 31
0.0
 73
     1
 44
1.0
1001
ACAD
1000
ACAD_MTEXT_DEFINED_HEIGHT_BEGIN
1070
    46
1040
0.2
1000
ACAD_MTEXT_DEFINED_HEIGHT_END
  0
POINT
  5
F1
330
EA
100
AcDbEntity
  8
Defpoints
 62
     0
100
AcDbPoint
 10
139.2890644
 20
170.2852126
 30
0.0
  0
POINT
  5
F2
330
EA
100
AcDbEntity
  8
Defpoints
 62
     0
100
AcDbPoint
 10
142.2890644
 20
164.2852126
 30
0.0
  0
POINT
  5
F3
330
EA
100
AcDbEntity
  8
Defpoints
 62
     0
100
AcDbPoint
 10
162.2890644
 20
164.2852126
 30
0.0
  0
ENDBLK
  5
F5
330
EA
100
AcDbEntity
  8
0
100
AcDbBlockEnd
  0
BLOCK
  5
101
330
F7
100
AcDbEntity
  8
0
100
AcDbBlockBegin
  2
*D10
 70
     1
 10
0.0
 20
0.0
 30
0.0
  3
*D10
  1

  0
LINE
  5
F8
330
F7
100
AcDbEntity
  8
D-STR-DIM
  6
Continuous
 62
     5
370
    -2
100
AcDbLine
 10
140.2890644
 20
206.2852126
 30
0.0
 11
171.2890644
 21
206.2852126
 31
0.0
  0
LINE
  5
F9
330
F7
100
AcDbEntity
  8
D-STR-DIM
  6
Continuous
 62
     5
370
    -2
100
AcDbLine
 10
143.2890644
 20
164.2852126
 30
0.0
 11
171.2890644
 21
164.2852126
 31
0.0
  0
LINE
  5
FA
330
F7
100
AcDbEntity
  8
D-STR-DIM
  6
Continuous
 62
     5
370
    -2
100
AcDbLine
 10
170.2890644
 20
204.7852126
 30
0.0
 11
170.2890644
 21
165.7852126
 31
0.0
  0
INSERT
  5
FB
330
F7
100
AcDbEntity
  8
D-STR-DIM
 62
     5
370
    -2
100
AcDbBlockReference
  2
_Open
 10
170.2890644
 20
206.2852126
 30
0.0
 41
1.5
 42
1.5
 43
1.5
 50
90.0
  0
INSERT
  5
FC
330
F7
100
AcDbEntity
  8
D-STR-DIM
 62
     5
370
    -2
100
AcDbBlockReference
  2
_Open
 10
170.2890644
 20
164.2852126
 30
0.0
 41
1.5
 42
1.5
 43
1.5
 50
270.0
  0
MTEXT
  5
FD
330
F7
100
AcDbEntity
  8
D-STR-DIM
 62
     5
370
    13
100
AcDbMText
 10
168.0390644
 20
185.2852126
 30
0.0
 40
2.777777777777778
 41
0.0
 71
     5
 72
     1
  1
\A1;420
  7
ＭＳ ゴシック
 11
6.123233995736766E-17
 21
1.0
 31
0.0
 73
     1
 44
1.0
1001
ACAD
1000
ACAD_MTEXT_DEFINED_HEIGHT_BEGIN
1070
    46
1040
0.2
1000
ACAD_MTEXT_DEFINED_HEIGHT_END
  0
POINT
  5
FE
330
F7
100
AcDbEntity
  8
Defpoints
 62
     0
100
AcDbPoint
 10
139.2890644
 20
206.2852126
 30
0.0
  0
POINT
  5
FF
330
F7
100
AcDbEntity
  8
Defpoints
 62
     0
100
AcDbPoint
 10
142.2890644
 20
164.2852126
 30
0.0
  0
POINT
  5
100
330
F7
100
AcDbEntity
  8
Defpoints
 62
     0
100
AcDbPoint
 10
170.2890644
 20
164.2852126
 30
0.0
  0
ENDBLK
  5
102
330
F7
100
AcDbEntity
  8
0
100
AcDbBlockEnd
  0
BLOCK
  5
110
330
104
100
AcDbEntity
  8
0
100
AcDbBlockBegin
  2
*D11
 70
     1
 10
0.0
 20
0.0
 30
0.0
  3
*D11
  1

  0
LINE
  5
105
330
104
100
AcDbEntity
  8
D-STR-DIM
  6
Continuous
 62
     5
370
    -2
100
AcDbLine
 10
143.2890644
 20
164.2852126
 30
0.0
 11
171.2890644
 21
164.2852126
 31
0.0
  0
LINE
  5
106
330
104
100
AcDbEntity
  8
D-STR-DIM
  6
Continuous
 62
     5
370
    -2
100
AcDbLine
 10
148.2890644
 20
163.2852126
 30
0.0
 11
171.2890644
 21
163.2852126
 31
0.0
  0
LINE
  5
107
330
104
100
AcDbEntity
  8
D-STR-DIM
  6
Continuous
 62
     5
370
    -2
100
AcDbLine
 10
170.2890644
 20
164.2852126
 30
0.0
 11
170.2890644
 21
163.2852126
 31
0.0
  0
LINE
  5
108
330
104
100
AcDbEntity
  8
D-STR-DIM
  6
Continuous
 62
     5
370
    -2
100
AcDbLine
 10
170.2890644
 20
165.7852126
 30
0.0
 11
170.2890644
 21
167.2852126
 31
0.0
  0
LINE
  5
109
330
104
100
AcDbEntity
  8
D-STR-DIM
  6
Continuous
 62
     5
370
    -2
100
AcDbLine
 10
170.2890644
 20
161.7852126
 30
0.0
 11
170.2890644
 21
160.2852126
 31
0.0
  0
INSERT
  5
10A
330
104
100
AcDbEntity
  8
D-STR-DIM
 62
     5
370
    -2
100
AcDbBlockReference
  2
_Open
 10
170.2890644
 20
164.2852126
 30
0.0
 41
1.5
 42
1.5
 43
1.5
 50
270.0
  0
INSERT
  5
10B
330
104
100
AcDbEntity
  8
D-STR-DIM
 62
     5
370
    -2
100
AcDbBlockReference
  2
_Open
 10
170.2890644
 20
163.2852126
 30
0.0
 41
1.5
 42
1.5
 43
1.5
 50
90.0
  0
MTEXT
  5
10C
330
104
100
AcDbEntity
  8
D-STR-DIM
 62
     5
370
    13
100
AcDbMText
 10
173.8137287
 20
164.0151544
 30
0.0
 40
2.777777777777778
 41
0.0
 71
     5
 72
     1
  1
\A1;10
  7
ＭＳ ゴシック
 11
6.123233995736766E-17
 21
1.0
 31
0.0
 73
     1
 44
1.0
1001
ACAD
1000
ACAD_MTEXT_DEFINED_HEIGHT_BEGIN
1070
    46
1040
0.2
1000
ACAD_MTEXT_DEFINED_HEIGHT_END
  0
POINT
  5
10D
330
104
100
AcDbEntity
  8
Defpoints
 62
     0
100
AcDbPoint
 10
142.2890644
 20
164.2852126
 30
0.0
  0
POINT
  5
10E
330
104
100
AcDbEntity
  8
Defpoints
 62
     0
100
AcDbPoint
 10
147.2890644
 20
163.2852126
 30
0.0
  0
POINT
  5
10F
330
104
100
AcDbEntity
  8
Defpoints
 62
     0
100
AcDbPoint
 10
170.2890644
 20
163.2852126
 30
0.0
  0
ENDBLK
  5
111
330
104
100
AcDbEntity
  8
0
100
AcDbBlockEnd
  0
BLOCK
  5
11D
330
113
100
AcDbEntity
  8
0
100
AcDbBlockBegin
  2
*D12
 70
     1
 10
0.0
 20
0.0
 30
0.0
  3
*D12
  1

  0
LINE
  5
114
330
113
100
AcDbEntity
  8
D-STR-DIM
  6
Continuous
 62
     5
370
    -2
100
AcDbLine
 10
148.2890644
 20
163.2852126
 30
0.0
 11
171.2890644
 21
163.2852126
 31
0.0
  0
LINE
  5
115
330
113
100
AcDbEntity
  8
D-STR-DIM
  6
Continuous
 62
     5
370
    -2
100
AcDbLine
 10
138.5641329
 20
153.2852126
 30
0.0
 11
171.2890644
 21
153.2852126
 31
0.0
  0
LINE
  5
116
330
113
100
AcDbEntity
  8
D-STR-DIM
  6
Continuous
 62
     5
370
    -2
100
AcDbLine
 10
170.2890644
 20
161.7852126
 30
0.0
 11
170.2890644
 21
154.7852126
 31
0.0
  0
INSERT
  5
117
330
113
100
AcDbEntity
  8
D-STR-DIM
 62
     5
370
    -2
100
AcDbBlockReference
  2
_Open
 10
170.2890644
 20
163.2852126
 30
0.0
 41
1.5
 42
1.5
 43
1.5
 50
90.0
  0
INSERT
  5
118
330
113
100
AcDbEntity
  8
D-STR-DIM
 62
     5
370
    -2
100
AcDbBlockReference
  2
_Open
 10
170.2890644
 20
153.2852126
 30
0.0
 41
1.5
 42
1.5
 43
1.5
 50
270.0
  0
MTEXT
  5
119
330
113
100
AcDbEntity
  8
D-STR-DIM
 62
     5
370
    13
100
AcDbMText
 10
168.0390644
 20
158.2852126
 30
0.0
 40
2.777777777777778
 41
0.0
 71
     5
 72
     1
  1
\A1;100
  7
ＭＳ ゴシック
 11
6.123233995736766E-17
 21
1.0
 31
0.0
 73
     1
 44
1.0
1001
ACAD
1000
ACAD_MTEXT_DEFINED_HEIGHT_BEGIN
1070
    46
1040
0.2
1000
ACAD_MTEXT_DEFINED_HEIGHT_END
  0
POINT
  5
11A
330
113
100
AcDbEntity
  8
Defpoints
 62
     0
100
AcDbPoint
 10
147.2890644
 20
163.2852126
 30
0.0
  0
POINT
  5
11B
330
113
100
AcDbEntity
  8
Defpoints
 62
     0
100
AcDbPoint
 10
137.5641329
 20
153.2852126
 30
0.0
  0
POINT
  5
11C
330
113
100
AcDbEntity
  8
Defpoints
 62
     0
100
AcDbPoint
 10
170.2890644
 20
153.2852126
 30
0.0
  0
ENDBLK
  5
11E
330
113
100
AcDbEntity
  8
0
100
AcDbBlockEnd
  0
BLOCK
  5
1B5
330
1AB
100
AcDbEntity
  8
0
100
AcDbBlockBegin
  2
*D13
 70
     1
 10
0.0
 20
0.0
 30
0.0
  3
*D13
  1

  0
LINE
  5
1AC
330
1AB
100
AcDbEntity
  8
D-STR-DIM
  6
Continuous
 62
     5
370
    -2
100
AcDbLine
 10
95.2890644
 20
137.2852126
 30
0.0
 11
95.2890644
 21
127.2852126
 31
0.0
  0
LINE
  5
1AD
330
1AB
100
AcDbEntity
  8
D-STR-DIM
  6
Continuous
 62
     5
370
    -2
100
AcDbLine
 10
100.2890644
 20
137.2852126
 30
0.0
 11
100.2890644
 21
127.2852126
 31
0.0
  0
LINE
  5
1AE
330
1AB
100
AcDbEntity
  8
D-STR-DIM
  6
Continuous
 62
     5
370
    -2
100
AcDbLine
 10
96.28906439999997
 20
128.2852126
 30
0.0
 11
99.28906440000003
 21
128.2852126
 31
0.0
  0
SOLID
  5
1AF
330
1AB
100
AcDbEntity
  8
D-STR-DIM
 62
     5
100
AcDbTrace
 10
96.28906439999997
 20
128.4518792666667
 30
0.0
 11
96.28906439999997
 21
128.1185459333333
 31
0.0
 12
95.2890644
 22
128.2852126
 32
0.0
 13
95.2890644
 23
128.2852126
 33
0.0
  0
SOLID
  5
1B0
330
1AB
100
AcDbEntity
  8
D-STR-DIM
 62
     5
100
AcDbTrace
 10
99.28906440000003
 20
128.1185459333333
 30
0.0
 11
99.28906440000003
 21
128.4518792666667
 31
0.0
 12
100.2890644
 22
128.2852126
 32
0.0
 13
100.2890644
 23
128.2852126
 33
0.0
  0
MTEXT
  5
1B1
330
1AB
100
AcDbEntity
  8
D-STR-DIM
 62
     5
370
    13
100
AcDbMText
 10
97.7890644
 20
130.5352126
 30
0.0
 40
2.777777777777778
 41
0.0
 71
     5
 72
     1
  1
\A1;50
  7
ＭＳ ゴシック
 73
     1
 44
1.0
1001
ACAD
1000
ACAD_MTEXT_DEFINED_HEIGHT_BEGIN
1070
    46
1040
0.2
1000
ACAD_MTEXT_DEFINED_HEIGHT_END
  0
POINT
  5
1B2
330
1AB
100
AcDbEntity
  8
Defpoints
 62
     0
100
AcDbPoint
 10
95.2890644
 20
138.2852126
 30
0.0
  0
POINT
  5
1B3
330
1AB
100
AcDbEntity
  8
Defpoints
 62
     0
100
AcDbPoint
 10
100.2890644
 20
138.2852126
 30
0.0
  0
POINT
  5
1B4
330
1AB
100
AcDbEntity
  8
Defpoints
 62
     0
100
AcDbPoint
 10
100.2890644
 20
128.2852126
 30
0.0
  0
ENDBLK
  5
1B6
330
1AB
100
AcDbEntity
  8
0
100
AcDbBlockEnd
  0
BLOCK
  5
1C2
330
1B8
100
AcDbEntity
  8
0
100
AcDbBlockBegin
  2
*D14
 70
     1
 10
0.0
 20
0.0
 30
0.0
  3
*D14
  1

  0
LINE
  5
1B9
330
1B8
100
AcDbEntity
  8
D-STR-DIM
  6
Continuous
 62
     5
370
    -2
100
AcDbLine
 10
100.2890644
 20
137.2852126
 30
0.0
 11
100.2890644
 21
127.2852126
 31
0.0
  0
LINE
  5
1BA
330
1B8
100
AcDbEntity
  8
D-STR-DIM
  6
Continuous
 62
     5
370
    -2
100
AcDbLine
 10
142.2890644
 20
137.2852126
 30
0.0
 11
142.2890644
 21
127.2852126
 31
0.0
  0
LINE
  5
1BB
330
1B8
100
AcDbEntity
  8
D-STR-DIM
  6
Continuous
 62
     5
370
    -2
100
AcDbLine
 10
101.2890644
 20
128.2852126
 30
0.0
 11
141.2890644
 21
128.2852126
 31
0.0
  0
SOLID
  5
1BC
330
1B8
100
AcDbEntity
  8
D-STR-DIM
 62
     5
100
AcDbTrace
 10
101.2890644
 20
128.4518792666667
 30
0.0
 11
101.2890644
 21
128.1185459333333
 31
0.0
 12
100.2890644
 22
128.2852126
 32
0.0
 13
100.2890644
 23
128.2852126
 33
0.0
  0
SOLID
  5
1BD
330
1B8
100
AcDbEntity
  8
D-STR-DIM
 62
     5
100
AcDbTrace
 10
141.2890644
 20
128.1185459333333
 30
0.0
 11
141.2890644
 21
128.4518792666667
 31
0.0
 12
142.2890644
 22
128.2852126
 32
0.0
 13
142.2890644
 23
128.2852126
 33
0.0
  0
MTEXT
  5
1BE
330
1B8
100
AcDbEntity
  8
D-STR-DIM
 62
     5
370
    13
100
AcDbMText
 10
121.2890644
 20
130.5352126
 30
0.0
 40
2.777777777777778
 41
0.0
 71
     5
 72
     1
  1
\A1;420
  7
ＭＳ ゴシック
 73
     1
 44
1.0
1001
ACAD
1000
ACAD_MTEXT_DEFINED_HEIGHT_BEGIN
1070
    46
1040
0.2
1000
ACAD_MTEXT_DEFINED_HEIGHT_END
  0
POINT
  5
1BF
330
1B8
100
AcDbEntity
  8
Defpoints
 62
     0
100
AcDbPoint
 10
100.2890644
 20
138.2852126
 30
0.0
  0
POINT
  5
1C0
330
1B8
100
AcDbEntity
  8
Defpoints
 62
     0
100
AcDbPoint
 10
142.2890644
 20
138.2852126
 30
0.0
  0
POINT
  5
1C1
330
1B8
100
AcDbEntity
  8
Defpoints
 62
     0
100
AcDbPoint
 10
142.2890644
 20
128.2852126
 30
0.0
  0
ENDBLK
  5
1C3
330
1B8
100
AcDbEntity
  8
0
100
AcDbBlockEnd
  0
BLOCK
  5
1CF
330
1C5
100
AcDbEntity
  8
0
100
AcDbBlockBegin
  2
*D15
 70
     1
 10
0.0
 20
0.0
 30
0.0
  3
*D15
  1

  0
LINE
  5
1C6
330
1C5
100
AcDbEntity
  8
D-STR-DIM
  6
Continuous
 62
     5
370
    -2
100
AcDbLine
 10
142.2890644
 20
137.2852126
 30
0.0
 11
142.2890644
 21
127.2852126
 31
0.0
  0
LINE
  5
1C7
330
1C5
100
AcDbEntity
  8
D-STR-DIM
  6
Continuous
 62
     5
370
    -2
100
AcDbLine
 10
147.2890644
 20
137.2852126
 30
0.0
 11
147.2890644
 21
127.2852126
 31
0.0
  0
LINE
  5
1C8
330
1C5
100
AcDbEntity
  8
D-STR-DIM
  6
Continuous
 62
     5
370
    -2
100
AcDbLine
 10
143.2890644
 20
128.2852126
 30
0.0
 11
146.2890644
 21
128.2852126
 31
0.0
  0
SOLID
  5
1C9
330
1C5
100
AcDbEntity
  8
D-STR-DIM
 62
     5
100
AcDbTrace
 10
143.2890644
 20
128.4518792666667
 30
0.0
 11
143.2890644
 21
128.1185459333333
 31
0.0
 12
142.2890644
 22
128.2852126
 32
0.0
 13
142.2890644
 23
128.2852126
 33
0.0
  0
SOLID
  5
1CA
330
1C5
100
AcDbEntity
  8
D-STR-DIM
 62
     5
100
AcDbTrace
 10
146.2890644
 20
128.1185459333333
 30
0.0
 11
146.2890644
 21
128.4518792666667
 31
0.0
 12
147.2890644
 22
128.2852126
 32
0.0
 13
147.2890644
 23
128.2852126
 33
0.0
  0
MTEXT
  5
1CB
330
1C5
100
AcDbEntity
  8
D-STR-DIM
 62
     5
370
    13
100
AcDbMText
 10
144.7890644
 20
130.5352126
 30
0.0
 40
2.777777777777778
 41
0.0
 71
     5
 72
     1
  1
\A1;50
  7
ＭＳ ゴシック
 73
     1
 44
1.0
1001
ACAD
1000
ACAD_MTEXT_DEFINED_HEIGHT_BEGIN
1070
    46
1040
0.2
1000
ACAD_MTEXT_DEFINED_HEIGHT_END
  0
POINT
  5
1CC
330
1C5
100
AcDbEntity
  8
Defpoints
 62
     0
100
AcDbPoint
 10
142.2890644
 20
138.2852126
 30
0.0
  0
POINT
  5
1CD
330
1C5
100
AcDbEntity
  8
Defpoints
 62
     0
100
AcDbPoint
 10
147.2890644
 20
138.2852126
 30
0.0
  0
POINT
  5
1CE
330
1C5
100
AcDbEntity
  8
Defpoints
 62
     0
100
AcDbPoint
 10
147.2890644
 20
128.2852126
 30
0.0
  0
ENDBLK
  5
1D0
330
1C5
100
AcDbEntity
  8
0
100
AcDbBlockEnd
  0
BLOCK
  5
1DC
330
1D2
100
AcDbEntity
  8
0
100
AcDbBlockBegin
  2
*D16
 70
     1
 10
0.0
 20
0.0
 30
0.0
  3
*D16
  1

  0
LINE
  5
1D3
330
1D2
100
AcDbEntity
  8
D-STR-DIM
  6
Continuous
 62
     5
370
    -2
100
AcDbLine
 10
90.2890644
 20
137.2852126
 30
0.0
 11
90.2890644
 21
119.2852126
 31
0.0
  0
LINE
  5
1D4
330
1D2
100
AcDbEntity
  8
D-STR-DIM
  6
Continuous
 62
     5
370
    -2
100
AcDbLine
 10
95.2890644
 20
137.2852126
 30
0.0
 11
95.2890644
 21
119.2852126
 31
0.0
  0
LINE
  5
1D5
330
1D2
100
AcDbEntity
  8
D-STR-DIM
  6
Continuous
 62
     5
370
    -2
100
AcDbLine
 10
91.28906439999997
 20
120.2852126
 30
0.0
 11
94.28906440000003
 21
120.2852126
 31
0.0
  0
SOLID
  5
1D6
330
1D2
100
AcDbEntity
  8
D-STR-DIM
 62
     5
100
AcDbTrace
 10
91.28906439999997
 20
120.4518792666667
 30
0.0
 11
91.28906439999997
 21
120.1185459333334
 31
0.0
 12
90.2890644
 22
120.2852126
 32
0.0
 13
90.2890644
 23
120.2852126
 33
0.0
  0
SOLID
  5
1D7
330
1D2
100
AcDbEntity
  8
D-STR-DIM
 62
     5
100
AcDbTrace
 10
94.28906440000003
 20
120.1185459333334
 30
0.0
 11
94.28906440000003
 21
120.4518792666667
 31
0.0
 12
95.2890644
 22
120.2852126
 32
0.0
 13
95.2890644
 23
120.2852126
 33
0.0
  0
MTEXT
  5
1D8
330
1D2
100
AcDbEntity
  8
D-STR-DIM
 62
     5
370
    13
100
AcDbMText
 10
92.7890644
 20
122.5352126
 30
0.0
 40
2.777777777777778
 41
0.0
 71
     5
 72
     1
  1
\A1;50
  7
ＭＳ ゴシック
 73
     1
 44
1.0
1001
ACAD
1000
ACAD_MTEXT_DEFINED_HEIGHT_BEGIN
1070
    46
1040
0.2
1000
ACAD_MTEXT_DEFINED_HEIGHT_END
  0
POINT
  5
1D9
330
1D2
100
AcDbEntity
  8
Defpoints
 62
     0
100
AcDbPoint
 10
90.2890644
 20
138.2852126
 30
0.0
  0
POINT
  5
1DA
330
1D2
100
AcDbEntity
  8
Defpoints
 62
     0
100
AcDbPoint
 10
95.2890644
 20
138.2852126
 30
0.0
  0
POINT
  5
1DB
330
1D2
100
AcDbEntity
  8
Defpoints
 62
     0
100
AcDbPoint
 10
95.2890644
 20
120.2852126
 30
0.0
  0
ENDBLK
  5
1DD
330
1D2
100
AcDbEntity
  8
0
100
AcDbBlockEnd
  0
BLOCK
  5
1E9
330
1DF
100
AcDbEntity
  8
0
100
AcDbBlockBegin
  2
*D17
 70
     1
 10
0.0
 20
0.0
 30
0.0
  3
*D17
  1

  0
LINE
  5
1E0
330
1DF
100
AcDbEntity
  8
D-STR-DIM
  6
Continuous
 62
     5
370
    -2
100
AcDbLine
 10
95.2890644
 20
137.2852126
 30
0.0
 11
95.2890644
 21
119.2852126
 31
0.0
  0
LINE
  5
1E1
330
1DF
100
AcDbEntity
  8
D-STR-DIM
  6
Continuous
 62
     5
370
    -2
100
AcDbLine
 10
147.2890644
 20
137.2852126
 30
0.0
 11
147.2890644
 21
119.2852126
 31
0.0
  0
LINE
  5
1E2
330
1DF
100
AcDbEntity
  8
D-STR-DIM
  6
Continuous
 62
     5
370
    -2
100
AcDbLine
 10
96.28906439999997
 20
120.2852126
 30
0.0
 11
146.2890644
 21
120.2852126
 31
0.0
  0
SOLID
  5
1E3
330
1DF
100
AcDbEntity
  8
D-STR-DIM
 62
     5
100
AcDbTrace
 10
96.28906439999997
 20
120.4518792666667
 30
0.0
 11
96.28906439999997
 21
120.1185459333334
 31
0.0
 12
95.2890644
 22
120.2852126
 32
0.0
 13
95.2890644
 23
120.2852126
 33
0.0
  0
SOLID
  5
1E4
330
1DF
100
AcDbEntity
  8
D-STR-DIM
 62
     5
100
AcDbTrace
 10
146.2890644
 20
120.1185459333334
 30
0.0
 11
146.2890644
 21
120.4518792666667
 31
0.0
 12
147.2890644
 22
120.2852126
 32
0.0
 13
147.2890644
 23
120.2852126
 33
0.0
  0
MTEXT
  5
1E5
330
1DF
100
AcDbEntity
  8
D-STR-DIM
 62
     5
370
    13
100
AcDbMText
 10
121.2890644
 20
122.5352126
 30
0.0
 40
2.777777777777778
 41
0.0
 71
     5
 72
     1
  1
\A1;520
  7
ＭＳ ゴシック
 73
     1
 44
1.0
1001
ACAD
1000
ACAD_MTEXT_DEFINED_HEIGHT_BEGIN
1070
    46
1040
0.2
1000
ACAD_MTEXT_DEFINED_HEIGHT_END
  0
POINT
  5
1E6
330
1DF
100
AcDbEntity
  8
Defpoints
 62
     0
100
AcDbPoint
 10
95.2890644
 20
138.2852126
 30
0.0
  0
POINT
  5
1E7
330
1DF
100
AcDbEntity
  8
Defpoints
 62
     0
100
AcDbPoint
 10
147.2890644
 20
138.2852126
 30
0.0
  0
POINT
  5
1E8
330
1DF
100
AcDbEntity
  8
Defpoints
 62
     0
100
AcDbPoint
 10
147.2890644
 20
120.2852126
 30
0.0
  0
ENDBLK
  5
1EA
330
1DF
100
AcDbEntity
  8
0
100
AcDbBlockEnd
  0
BLOCK
  5
1F6
330
1EC
100
AcDbEntity
  8
0
100
AcDbBlockBegin
  2
*D18
 70
     1
 10
0.0
 20
0.0
 30
0.0
  3
*D18
  1

  0
LINE
  5
1ED
330
1EC
100
AcDbEntity
  8
D-STR-DIM
  6
Continuous
 62
     5
370
    -2
100
AcDbLine
 10
147.2890644
 20
137.2852126
 30
0.0
 11
147.2890644
 21
119.2852126
 31
0.0
  0
LINE
  5
1EE
330
1EC
100
AcDbEntity
  8
D-STR-DIM
  6
Continuous
 62
     5
370
    -2
100
AcDbLine
 10
152.2890644
 20
137.2852126
 30
0.0
 11
152.2890644
 21
119.2852126
 31
0.0
  0
LINE
  5
1EF
330
1EC
100
AcDbEntity
  8
D-STR-DIM
  6
Continuous
 62
     5
370
    -2
100
AcDbLine
 10
148.2890644
 20
120.2852126
 30
0.0
 11
151.2890644
 21
120.2852126
 31
0.0
  0
SOLID
  5
1F0
330
1EC
100
AcDbEntity
  8
D-STR-DIM
 62
     5
100
AcDbTrace
 10
148.2890644
 20
120.4518792666667
 30
0.0
 11
148.2890644
 21
120.1185459333334
 31
0.0
 12
147.2890644
 22
120.2852126
 32
0.0
 13
147.2890644
 23
120.2852126
 33
0.0
  0
SOLID
  5
1F1
330
1EC
100
AcDbEntity
  8
D-STR-DIM
 62
     5
100
AcDbTrace
 10
151.2890644
 20
120.1185459333334
 30
0.0
 11
151.2890644
 21
120.4518792666667
 31
0.0
 12
152.2890644
 22
120.2852126
 32
0.0
 13
152.2890644
 23
120.2852126
 33
0.0
  0
MTEXT
  5
1F2
330
1EC
100
AcDbEntity
  8
D-STR-DIM
 62
     5
370
    13
100
AcDbMText
 10
149.7890644
 20
122.5352126
 30
0.0
 40
2.777777777777778
 41
0.0
 71
     5
 72
     1
  1
\A1;50
  7
ＭＳ ゴシック
 73
     1
 44
1.0
1001
ACAD
1000
ACAD_MTEXT_DEFINED_HEIGHT_BEGIN
1070
    46
1040
0.2
1000
ACAD_MTEXT_DEFINED_HEIGHT_END
  0
POINT
  5
1F3
330
1EC
100
AcDbEntity
  8
Defpoints
 62
     0
100
AcDbPoint
 10
147.2890644
 20
138.2852126
 30
0.0
  0
POINT
  5
1F4
330
1EC
100
AcDbEntity
  8
Defpoints
 62
     0
100
AcDbPoint
 10
152.2890644
 20
138.2852126
 30
0.0
  0
POINT
  5
1F5
330
1EC
100
AcDbEntity
  8
Defpoints
 62
     0
100
AcDbPoint
 10
152.2890644
 20
120.2852126
 30
0.0
  0
ENDBLK
  5
1F7
330
1EC
100
AcDbEntity
  8
0
100
AcDbBlockEnd
  0
BLOCK
  5
203
330
1F9
100
AcDbEntity
  8
0
100
AcDbBlockBegin
  2
*D19
 70
     1
 10
0.0
 20
0.0
 30
0.0
  3
*D19
  1

  0
LINE
  5
1FA
330
1F9
100
AcDbEntity
  8
D-STR-DIM
  6
Continuous
 62
     5
370
    -2
100
AcDbLine
 10
90.2890644
 20
137.2852126
 30
0.0
 11
90.2890644
 21
111.2852126
 31
0.0
  0
LINE
  5
1FB
330
1F9
100
AcDbEntity
  8
D-STR-DIM
  6
Continuous
 62
     5
370
    -2
100
AcDbLine
 10
152.2890644
 20
137.2852126
 30
0.0
 11
152.2890644
 21
111.2852126
 31
0.0
  0
LINE
  5
1FC
330
1F9
100
AcDbEntity
  8
D-STR-DIM
  6
Continuous
 62
     5
370
    -2
100
AcDbLine
 10
91.28906439999997
 20
112.2852126
 30
0.0
 11
151.2890644
 21
112.2852126
 31
0.0
  0
SOLID
  5
1FD
330
1F9
100
AcDbEntity
  8
D-STR-DIM
 62
     5
100
AcDbTrace
 10
91.28906439999997
 20
112.4518792666667
 30
0.0
 11
91.28906439999997
 21
112.1185459333334
 31
0.0
 12
90.2890644
 22
112.2852126
 32
0.0
 13
90.2890644
 23
112.2852126
 33
0.0
  0
SOLID
  5
1FE
330
1F9
100
AcDbEntity
  8
D-STR-DIM
 62
     5
100
AcDbTrace
 10
151.2890644
 20
112.1185459333334
 30
0.0
 11
151.2890644
 21
112.4518792666667
 31
0.0
 12
152.2890644
 22
112.2852126
 32
0.0
 13
152.2890644
 23
112.2852126
 33
0.0
  0
MTEXT
  5
1FF
330
1F9
100
AcDbEntity
  8
D-STR-DIM
 62
     5
370
    13
100
AcDbMText
 10
121.2890644
 20
114.5352126
 30
0.0
 40
2.777777777777778
 41
0.0
 71
     5
 72
     1
  1
\A1;620
  7
ＭＳ ゴシック
 73
     1
 44
1.0
1001
ACAD
1000
ACAD_MTEXT_DEFINED_HEIGHT_BEGIN
1070
    46
1040
0.2
1000
ACAD_MTEXT_DEFINED_HEIGHT_END
  0
POINT
  5
200
330
1F9
100
AcDbEntity
  8
Defpoints
 62
     0
100
AcDbPoint
 10
90.2890644
 20
138.2852126
 30
0.0
  0
POINT
  5
201
330
1F9
100
AcDbEntity
  8
Defpoints
 62
     0
100
AcDbPoint
 10
152.2890644
 20
138.2852126
 30
0.0
  0
POINT
  5
202
330
1F9
100
AcDbEntity
  8
Defpoints
 62
     0
100
AcDbPoint
 10
152.2890644
 20
112.2852126
 30
0.0
  0
ENDBLK
  5
204
330
1F9
100
AcDbEntity
  8
0
100
AcDbBlockEnd
  0
BLOCK
  5
238
330
22E
100
AcDbEntity
  8
0
100
AcDbBlockBegin
  2
*D20
 70
     1
 10
0.0
 20
0.0
 30
0.0
  3
*D20
  1

  0
LINE
  5
22F
330
22E
100
AcDbEntity
  8
D-STR-DIM
  6
Continuous
 62
     5
370
    -2
100
AcDbLine
 10
157.2890644
 20
143.2852126
 30
0.0
 11
171.2937925778489
 21
143.2852126
 31
0.0
  0
LINE
  5
230
330
22E
100
AcDbEntity
  8
D-STR-DIM
  6
Continuous
 62
     5
370
    -2
100
AcDbLine
 10
157.2890644
 20
153.2852126
 30
0.0
 11
171.2937925778489
 21
153.2852126
 31
0.0
  0
LINE
  5
231
330
22E
100
AcDbEntity
  8
D-STR-DIM
  6
Continuous
 62
     5
370
    -2
100
AcDbLine
 10
170.2937925778489
 20
144.2852126
 30
0.0
 11
170.2937925778489
 21
152.2852126
 31
0.0
  0
INSERT
  5
232
330
22E
100
AcDbEntity
  8
D-STR-DIM
 62
     5
370
    -2
100
AcDbBlockReference
  2
_Open
 10
170.2937925778489
 20
143.2852126
 30
0.0
 50
270.0
  0
INSERT
  5
233
330
22E
100
AcDbEntity
  8
D-STR-DIM
 62
     5
370
    -2
100
AcDbBlockReference
  2
_Open
 10
170.2937925778489
 20
153.2852126
 30
0.0
 50
90.0
  0
MTEXT
  5
234
330
22E
100
AcDbEntity
  8
D-STR-DIM
 62
     5
370
    13
100
AcDbMText
 10
168.5437925778489
 20
148.2758497140156
 30
0.0
 40
2.777777777777778
 41
0.0
 71
     5
 72
     1
  1
\A1;100
  7
ＭＳ ゴシック
 11
6.123233995736766E-17
 21
1.0
 31
0.0
 73
     1
 44
1.0
1001
ACAD
1000
ACAD_MTEXT_DEFINED_HEIGHT_BEGIN
1070
    46
1040
0.2
1000
ACAD_MTEXT_DEFINED_HEIGHT_END
  0
POINT
  5
235
330
22E
100
AcDbEntity
  8
Defpoints
 62
     0
100
AcDbPoint
 10
152.2890644
 20
143.2852126
 30
0.0
  0
POINT
  5
236
330
22E
100
AcDbEntity
  8
Defpoints
 62
     0
100
AcDbPoint
 10
152.2890644
 20
153.2852126
 30
0.0
  0
POINT
  5
237
330
22E
100
AcDbEntity
  8
Defpoints
 62
     0
100
AcDbPoint
 10
170.2937925778489
 20
153.2852126
 30
0.0
  0
ENDBLK
  5
239
330
22E
100
AcDbEntity
  8
0
100
AcDbBlockEnd
  0
ENDSEC
  0
SECTION
  2
ENTITIES
  0
LINE
  5
4F
330
1F
100
AcDbEntity
  8
D-MTR-FRAM
  6
Continuous
 62
     7
370
    13
100
AcDbLine
 10
44.451458
 20
32.1837433
 30
0.0
 11
214.451458
 21
32.1837433
 31
0.0
  0
LINE
  5
50
330
1F
100
AcDbEntity
  8
D-MTR-FRAM
  6
Continuous
 62
     7
370
    13
100
AcDbLine
 10
44.451458
 20
42.1837433
 30
0.0
 11
214.451458
 21
42.1837433
 31
0.0
  0
LINE
  5
51
330
1F
100
AcDbEntity
  8
D-MTR-FRAM
  6
Continuous
 62
     7
370
    13
100
AcDbLine
 10
44.451458
 20
92.1837433
 30
0.0
 11
214.451458
 21
92.1837433
 31
0.0
  0
LINE
  5
52
330
1F
100
AcDbEntity
  8
D-MTR-FRAM
  6
Continuous
 62
     7
370
    13
100
AcDbLine
 10
44.451458
 20
102.1837433
 30
0.0
 11
214.451458
 21
102.1837433
 31
0.0
  0
TEXT
  5
53
330
1F
100
AcDbEntity
  8
D-MTR
  6
Continuous
 62
     7
370
    13
100
AcDbText
 10
56.16540078492129
 20
103.5489413928571
 30
0.0
 40
3.968253968253968
  1
材料表
 50
0.000017
 41
0.8000000000000002
  7
ＭＳ ゴシック
 11
56.165401
 21
102.824053
 31
0.0
100
AcDbText
 73
     1
  0
LINE
  5
54
330
1F
100
AcDbEntity
  8
D-MTR-FRAM
  6
Continuous
 62
     7
370
    13
100
AcDbLine
 10
44.451458
 20
102.1837433
 30
0.0
 11
44.451458
 21
32.1837433
 31
0.0
  0
LINE
  5
55
330
1F
100
AcDbEntity
  8
D-MTR-FRAM
  6
Continuous
 62
     7
370
    13
100
AcDbLine
 10
214.451458
 20
102.1837433
 30
0.0
 11
214.451458
 21
32.1837433
 31
0.0
  0
TEXT
  5
56
330
1F
100
AcDbEntity
  8
D-BGD-TXT
  6
Continuous
 62
     7
370
    13
100
AcDbText
 10
142.9309149
 20
247.018274875
 30
0.0
 40
2.777777777777778
  1
S=1：10
 41
0.8000000000000002
  7
ＭＳ ゴシック
 11
142.9309149
 21
246.510853
 31
0.0
100
AcDbText
 73
     1
  0
TEXT
  5
57
330
1F
100
AcDbEntity
  8
D-BGD-TXT
  6
Continuous
 62
     7
370
    13
100
AcDbText
 10
106.0905526555556
 20
246.3360595222222
 30
0.0
 40
5.555555555555555
  1
横断暗渠工
 41
0.8000000000000002
  7
ＭＳ ゴシック
 72
     1
 11
120.5349971
 21
249.1138373
 31
0.0
100
AcDbText
 73
     2
  0
CIRCLE
  5
58
330
1F
100
AcDbEntity
  8
D-STR
  6
Continuous
 62
     1
370
    50
100
AcDbCircle
 10
121.2890644
 20
185.2852126
 30
0.0
 40
15.0
  0
LINE
  5
59
330
1F
100
AcDbEntity
  8
D-STR
  6
Continuous
 62
     1
370
    50
100
AcDbLine
 10
139.2890644
 20
206.2852126
 30
0.0
 11
142.2890644
 21
203.2852126
 31
0.0
  0
LINE
  5
5A
330
1F
100
AcDbEntity
  8
D-STR
  6
Continuous
 62
     1
370
    50
100
AcDbLine
 10
142.2890644
 20
203.2852126
 30
0.0
 11
142.2890644
 21
167.2852126
 31
0.0
  0
LINE
  5
5B
330
1F
100
AcDbEntity
  8
D-STR
  6
Continuous
 62
     1
370
    50
100
AcDbLine
 10
139.2890644
 20
164.2852126
 30
0.0
 11
142.2890644
 21
167.2852126
 31
0.0
  0
LINE
  5
5C
330
1F
100
AcDbEntity
  8
D-STR
  6
Continuous
 62
     1
370
    50
100
AcDbLine
 10
139.2890644
 20
164.2852126
 30
0.0
 11
103.2890644
 21
164.2852126
 31
0.0
  0
LINE
  5
5D
330
1F
100
AcDbEntity
  8
D-STR
  6
Continuous
 62
     1
370
    50
100
AcDbLine
 10
103.2890644
 20
164.2852126
 30
0.0
 11
100.2890644
 21
167.2852126
 31
0.0
  0
LINE
  5
5E
330
1F
100
AcDbEntity
  8
D-STR
  6
Continuous
 62
     1
370
    50
100
AcDbLine
 10
100.2890644
 20
167.2852126
 30
0.0
 11
100.2890644
 21
203.2852126
 31
0.0
  0
LINE
  5
5F
330
1F
100
AcDbEntity
  8
D-STR
  6
Continuous
 62
     1
370
    50
100
AcDbLine
 10
103.2890644
 20
206.2852126
 30
0.0
 11
139.2890644
 21
206.2852126
 31
0.0
  0
LINE
  5
60
330
1F
100
AcDbEntity
  8
D-STR
  6
Continuous
 62
     1
370
    50
100
AcDbLine
 10
100.2890644
 20
203.2852126
 30
0.0
 11
103.2890644
 21
206.2852126000001
 31
0.0
  0
LINE
  5
61
330
1F
100
AcDbEntity
  8
D-STR
  6
Continuous
 62
     1
370
    50
100
AcDbLine
 10
139.2890644
 20
163.2852126
 30
0.0
 11
103.2890644
 21
163.2852126
 31
0.0
  0
LINE
  5
62
330
1F
100
AcDbEntity
  8
D-STR
  6
Continuous
 62
     1
370
    50
100
AcDbLine
 10
139.2890644
 20
163.2852126
 30
0.0
 11
142.2890644
 21
163.2852126
 31
0.0
  0
LINE
  5
63
330
1F
100
AcDbEntity
  8
D-STR
  6
Continuous
 62
     1
370
    50
100
AcDbLine
 10
142.2890644
 20
163.2852126
 30
0.0
 11
147.2890644
 21
163.2852126
 31
0.0
  0
LINE
  5
64
330
1F
100
AcDbEntity
  8
D-STR
  6
Continuous
 62
     1
370
    50
100
AcDbLine
 10
147.2890644
 20
163.2852126
 30
0.0
 11
147.2890644
 21
153.2852126
 31
0.0
  0
LINE
  5
65
330
1F
100
AcDbEntity
  8
D-STR
  6
Continuous
 62
     1
370
    50
100
AcDbLine
 10
95.2890644
 20
153.2852126
 30
0.0
 11
95.2890644
 21
163.2852126
 31
0.0
  0
LINE
  5
66
330
1F
100
AcDbEntity
  8
D-STR
  6
Continuous
 62
     1
370
    50
100
AcDbLine
 10
95.2890644
 20
163.2852126
 30
0.0
 11
103.2890644
 21
163.2852126
 31
0.0
  0
LINE
  5
67
330
1F
100
AcDbEntity
  8
D-STR
  6
Continuous
 62
     1
370
    50
100
AcDbLine
 10
139.2890644
 20
164.2852126
 30
0.0
 11
142.2890644
 21
164.2852126
 31
0.0
  0
LINE
  5
68
330
1F
100
AcDbEntity
  8
D-STR
  6
Continuous
 62
     1
370
    50
100
AcDbLine
 10
142.2890644
 20
164.2852126
 30
0.0
 11
142.2890644
 21
163.2852126
 31
0.0
  0
LINE
  5
69
330
1F
100
AcDbEntity
  8
D-STR
  6
Continuous
 62
     1
370
    50
100
AcDbLine
 10
103.2890644
 20
164.2852126
 30
0.0
 11
100.2890644
 21
164.2852126
 31
0.0
  0
LINE
  5
6A
330
1F
100
AcDbEntity
  8
D-STR
  6
Continuous
 62
     1
370
    50
100
AcDbLine
 10
100.2890644
 20
164.2852126
 30
0.0
 11
100.2890644
 21
163.2852126
 31
0.0
  0
LINE
  5
6B
330
1F
100
AcDbEntity
  8
D-DCR-HCH2
  6
Continuous
 62
   134
370
    13
100
AcDbLine
 10
100.2890644
 20
196.5989211
 30
0.0
 11
109.9753564
 21
206.2852126
 31
0.0
  0
LINE
  5
6C
330
1F
100
AcDbEntity
  8
D-DCR-HCH2
  6
Continuous
 62
   134
370
    13
100
AcDbLine
 10
119.6263157
 20
203.20825
 30
0.0
 11
122.7032784
 21
206.2852126000001
 31
0.0
  0
LINE
  5
6D
330
1F
100
AcDbEntity
  8
D-STR
  6
Continuous
 62
     1
370
    50
100
AcDbLine
 10
100.2890644
 20
193.7704946
 30
0.0
 11
100.3844264
 21
193.8658566
 31
0.0
  0
LINE
  5
6E
330
1F
100
AcDbEntity
  8
D-STR
  6
Continuous
 62
     1
370
    50
100
AcDbLine
 10
100.2890644
 20
195.1847076
 30
0.0
 11
100.6511944
 21
195.5468376
 31
0.0
  0
LINE
  5
6F
330
1F
100
AcDbEntity
  8
D-DCR-HCH2
  6
Continuous
 62
   134
370
    13
100
AcDbLine
 10
134.0169865
 20
198.0131347
 30
0.0
 11
140.7890644
 21
204.7852126
 31
0.0
  0
LINE
  5
70
330
1F
100
AcDbEntity
  8
D-DCR-HCH2
  6
Continuous
 62
   134
370
    13
100
AcDbLine
 10
100.2890644
 20
195.1847076
 30
0.0
 11
111.3895694
 21
206.2852126000001
 31
0.0
  0
LINE
  5
71
330
1F
100
AcDbEntity
  8
D-DCR-HCH2
  6
Continuous
 62
   134
370
    13
100
AcDbLine
 10
100.3844269
 20
193.8658561
 30
0.0
 11
112.8037834
 21
206.2852126
 31
0.0
  0
LINE
  5
72
330
1F
100
AcDbEntity
  8
D-DCR-HCH2
  6
Continuous
 62
   134
370
    13
100
AcDbLine
 10
116.1152625
 20
202.5256237
 30
0.0
 11
119.8748514
 21
206.2852126
 31
0.0
  0
LINE
  5
73
330
1F
100
AcDbEntity
  8
D-DCR-HCH2
  6
Continuous
 62
   134
370
    13
100
AcDbLine
 10
117.9828117
 20
202.9789599
 30
0.0
 11
121.2890644
 21
206.2852126
 31
0.0
  0
LINE
  5
74
330
1F
100
AcDbEntity
  8
D-DCR-HCH2
  6
Continuous
 62
   134
370
    13
100
AcDbLine
 10
131.3886764
 20
164.3913665
 30
0.0
 11
142.2890644
 21
175.2917545
 31
0.0
  0
LINE
  5
75
330
1F
100
AcDbEntity
  8
D-DCR-HCH2
  6
Continuous
 62
   134
370
    13
100
AcDbLine
 10
130.0494843
 20
164.4663884
 30
0.0
 11
142.2890644
 21
176.7059685
 31
0.0
  0
LINE
  5
76
330
1F
100
AcDbEntity
  8
D-DCR-HCH2
  6
Continuous
 62
   134
370
    13
100
AcDbLine
 10
128.3213173
 20
164.1524344
 30
0.0
 11
142.2890644
 21
178.1201815
 31
0.0
  0
LINE
  5
77
330
1F
100
AcDbEntity
  8
D-DCR-HCH2
  6
Continuous
 62
   134
370
    13
100
AcDbLine
 10
139.2870763
 20
185.0176884
 30
0.0
 11
142.0892662
 21
187.8198783
 31
0.0
  0
LINE
  5
78
330
1F
100
AcDbEntity
  8
D-DCR-HCH2
  6
Continuous
 62
   134
370
    13
100
AcDbLine
 10
139.2021582
 20
183.5185573
 30
0.0
 11
142.2890644
 21
186.6054635
 31
0.0
  0
LINE
  5
79
330
1F
100
AcDbEntity
  8
D-DCR-HCH2
  6
Continuous
 62
   134
370
    13
100
AcDbLine
 10
100.323324
 20
172.8047542
 30
0.0
 11
105.0464235
 21
177.5278538
 31
0.0
  0
LINE
  5
7A
330
1F
100
AcDbEntity
  8
D-DCR-HCH2
  6
Continuous
 62
   134
370
    13
100
AcDbLine
 10
100.0538149
 20
173.9494581
 30
0.0
 11
104.6132775
 21
178.5089208
 31
0.0
  0
LINE
  5
7B
330
1F
100
AcDbEntity
  8
D-DCR-HCH2
  6
Continuous
 62
   134
370
    13
100
AcDbLine
 10
100.2219024
 20
175.5317601
 30
0.0
 11
104.2304557
 21
179.5403132
 31
0.0
  0
LINE
  5
7C
330
1F
100
AcDbEntity
  8
D-DCR-HCH2
  6
Continuous
 62
   134
370
    13
100
AcDbLine
 10
101.0819574
 20
166.4923196
 30
0.0
 11
107.8736924
 21
173.2840546
 31
0.0
  0
LINE
  5
7D
330
1F
100
AcDbEntity
  8
D-DCR-HCH2
  6
Continuous
 62
   134
370
    13
100
AcDbLine
 10
101.7890644
 20
165.7852126
 30
0.0
 11
108.5611424
 21
172.5572906
 31
0.0
  0
LINE
  5
7E
330
1F
100
AcDbEntity
  8
D-DCR-HCH2
  6
Continuous
 62
   134
370
    13
100
AcDbLine
 10
102.4961719
 20
165.0781052
 30
0.0
 11
109.2879065
 21
171.8698406
 31
0.0
  0
LINE
  5
7F
330
1F
100
AcDbEntity
  8
D-DCR-HCH2
  6
Continuous
 62
   134
370
    13
100
AcDbLine
 10
108.6551044
 20
164.2852126
 30
0.0
 11
113.4511718
 21
169.0812798
 31
0.0
  0
LINE
  5
80
330
1F
100
AcDbEntity
  8
D-DCR-HCH2
  6
Continuous
 62
   134
370
    13
100
AcDbLine
 10
110.0693186
 20
164.2852126
 30
0.0
 11
114.4281636
 21
168.6440577
 31
0.0
  0
LINE
  5
81
330
1F
100
AcDbEntity
  8
D-DCR-HCH2
  6
Continuous
 62
   134
370
    13
100
AcDbLine
 10
111.4835316
 20
164.2852126
 30
0.0
 11
115.4551573
 21
168.2568384
 31
0.0
  0
LINE
  5
82
330
1F
100
AcDbEntity
  8
D-DCR-HCH2
  6
Continuous
 62
   134
370
    13
100
AcDbLine
 10
127.0339647
 20
202.3438211
 30
0.0
 11
130.9753565
 21
206.2852126000001
 31
0.0
  0
LINE
  5
83
330
1F
100
AcDbEntity
  8
D-DCR-HCH2
  6
Continuous
 62
   134
370
    13
100
AcDbLine
 10
129.046424
 20
201.5278532
 30
0.0
 11
133.8037834
 21
206.2852126
 31
0.0
  0
LINE
  5
84
330
1F
100
AcDbEntity
  8
D-DCR-HCH2
  6
Continuous
 62
   134
370
    13
100
AcDbLine
 10
128.0653563
 20
201.9609995
 30
0.0
 11
132.3895694
 21
206.2852126
 31
0.0
  0
LINE
  5
85
330
1F
100
AcDbEntity
  8
D-DCR-HCH2
  6
Continuous
 62
   134
370
    13
100
AcDbLine
 10
134.7044364
 20
197.2863707
 30
0.0
 11
141.4961714
 21
204.0781056
 31
0.0
  0
LINE
  5
86
330
1F
100
AcDbEntity
  8
D-DCR-HCH2
  6
Continuous
 62
   134
370
    13
100
AcDbLine
 10
133.290223
 20
198.7005842
 30
0.0
 11
140.0819579
 21
205.4923191
 31
0.0
  0
LINE
  5
87
330
1F
100
AcDbEntity
  8
D-STR-DIM
  6
Continuous
 62
     5
370
    13
100
AcDbLine
 10
121.3360455
 20
164.2382316
 30
0.0
 11
121.3917414
 21
164.2939275
 31
0.0
  0
LINE
  5
88
330
1F
100
AcDbEntity
  8
D-DCR-HCH2
  6
Continuous
 62
   134
370
    13
100
AcDbLine
 10
119.9688136
 20
164.2852126
 30
0.0
 11
123.0557198
 21
167.3721189
 31
0.0
  0
LINE
  5
89
330
1F
100
AcDbEntity
  8
D-DCR-HCH2
  6
Continuous
 62
   134
370
    13
100
AcDbLine
 10
118.5545996
 20
164.2852126
 30
0.0
 11
121.5565877
 21
167.2872008
 31
0.0
  0
DIMENSION
  5
90
330
1F
100
AcDbEntity
  8
D-STR-DIM
  6
Continuous
 62
     5
370
    13
100
AcDbDimension
  2
*D2
 10
108.5503547
 20
177.3652836
 30
0.0
 11
119.7473684803694
 21
186.9761120956392
 31
0.0
 70
   163
  1
φ=300
 71
     5
 42
30.00000006519386
  3
Standard
100
AcDbDiametricDimension
 15
134.0277741
 25
193.2051417
 35
0.0
 40
0.0
1001
ACAD
1000
DSTYLE
1002
{
1070
   271
1070
     2
1070
   178
1070
     5
1070
   177
1070
     5
1070
   176
1070
     5
1070
   289
1070
     3
1070
    77
1070
     1
1070
   174
1070
     1
1070
   172
1070
     1
1070
    73
1070
     0
1070
    74
1070
     0
1070
   173
1070
     1
1070
   279
1070
     2
1070
    44
1040
0.0
1070
    42
1040
0.0
1070
   147
1040
0.0
1070
   140
1040
2.777777777777778
1070
    41
1040
1.5
1070
   340
1005
4E
1070
   344
1005
8A
1070
   343
1005
8A
1002
}
  0
DIMENSION
  5
9B
330
1F
100
AcDbEntity
  8
D-STR-DIM
  6
Continuous
 62
     5
370
    13
100
AcDbDimension
  2
*D3
 10
136.2890644
 20
223.2852126
 30
0.0
 11
139.2890644
 21
225.5352126
 31
0.0
 70
   160
  1
60
 71
     5
 42
6.0
  3
Standard
100
AcDbAlignedDimension
 13
142.2890644
 23
203.2852126
 33
0.0
 14
136.2890644
 24
203.2852126
 34
0.0
 50
180.0
100
AcDbRotatedDimension
1001
ACAD
1000
DSTYLE
1002
{
1070
   271
1070
     2
1070
   178
1070
     5
1070
   177
1070
     5
1070
   176
1070
     5
1070
   289
1070
     3
1070
    77
1070
     1
1070
   174
1070
     1
1070
   172
1070
     1
1070
    73
1070
     0
1070
    74
1070
     0
1070
   173
1070
     1
1070
   279
1070
     2
1070
    44
1040
1.000000000000028
1070
    42
1040
1.0
1070
   147
1040
0.0
1070
   140
1040
2.777777777777778
1070
    41
1040
1.5
1070
   340
1005
4E
1070
   344
1005
8A
1070
   343
1005
8A
1002
}
  0
DIMENSION
  5
A8
330
1F
100
AcDbEntity
  8
D-STR-DIM
  6
Continuous
 62
     5
370
    13
100
AcDbDimension
  2
*D4
 10
106.2890644
 20
223.2852126
 30
0.0
 11
121.2890644
 21
225.5352126
 31
0.0
 70
   160
  1
300
 71
     5
 42
29.99999999999999
  3
Standard
100
AcDbAlignedDimension
 13
136.2890644
 23
203.2852126
 33
0.0
 14
106.2890644
 24
203.2852126
 34
0.0
 50
180.0
100
AcDbRotatedDimension
1001
ACAD
1000
DSTYLE
1002
{
1070
   271
1070
     2
1070
   178
1070
     5
1070
   177
1070
     5
1070
   176
1070
     5
1070
   289
1070
     3
1070
    77
1070
     1
1070
   174
1070
     1
1070
   172
1070
     1
1070
    73
1070
     0
1070
    74
1070
     0
1070
   173
1070
     1
1070
   279
1070
     2
1070
    44
1040
1.000000000000028
1070
    42
1040
1.0
1070
   147
1040
0.0
1070
   140
1040
2.777777777777778
1070
    41
1040
1.5
1070
   340
1005
4E
1070
   344
1005
8A
1070
   343
1005
8A
1002
}
  0
DIMENSION
  5
B5
330
1F
100
AcDbEntity
  8
D-STR-DIM
  6
Continuous
 62
     5
370
    13
100
AcDbDimension
  2
*D5
 10
100.2890644
 20
223.2852126
 30
0.0
 11
103.2890644
 21
225.5352126
 31
0.0
 70
   160
  1
60
 71
     5
 42
6.000000000000014
  3
Standard
100
AcDbAlignedDimension
 13
106.2890644
 23
203.2852126
 33
0.0
 14
100.2890644
 24
202.8653246
 34
0.0
 50
180.0
100
AcDbRotatedDimension
1001
ACAD
1000
DSTYLE
1002
{
1070
   271
1070
     2
1070
   178
1070
     5
1070
   177
1070
     5
1070
   176
1070
     5
1070
   289
1070
     3
1070
    77
1070
     1
1070
   174
1070
     1
1070
   172
1070
     1
1070
    73
1070
     0
1070
    74
1070
     0
1070
   173
1070
     1
1070
   279
1070
     2
1070
    44
1040
1.000000000000028
1070
    42
1040
1.0
1070
   147
1040
0.0
1070
   140
1040
2.777777777777778
1070
    41
1040
1.5
1070
   340
1005
4E
1070
   344
1005
8A
1070
   343
1005
8A
1002
}
  0
DIMENSION
  5
C2
330
1F
100
AcDbEntity
  8
D-STR-DIM
  6
Continuous
 62
     5
370
    13
100
AcDbDimension
  2
*D6
 10
100.2890644
 20
231.2852126
 30
0.0
 11
121.2890644
 21
233.5352126
 31
0.0
 70
   160
  1
420
 71
     5
 42
42.0
  3
Standard
100
AcDbAlignedDimension
 13
142.2890644
 23
203.2852126
 33
0.0
 14
100.2890644
 24
202.8653246
 34
0.0
 50
180.0
100
AcDbRotatedDimension
1001
ACAD
1000
DSTYLE
1002
{
1070
   271
1070
     2
1070
   178
1070
     5
1070
   177
1070
     5
1070
   176
1070
     5
1070
   289
1070
     3
1070
    77
1070
     1
1070
   174
1070
     1
1070
   172
1070
     1
1070
    73
1070
     0
1070
    74
1070
     0
1070
   173
1070
     1
1070
   279
1070
     2
1070
    44
1040
1.000000000000028
1070
    42
1040
1.0
1070
   147
1040
0.0
1070
   140
1040
2.777777777777778
1070
    41
1040
1.5
1070
   340
1005
4E
1070
   344
1005
8A
1070
   343
1005
8A
1002
}
  0
DIMENSION
  5
CF
330
1F
100
AcDbEntity
  8
D-STR-DIM
  6
Continuous
 62
     5
370
    13
100
AcDbDimension
  2
*D7
 10
162.2890644
 20
200.2852126
 30
0.0
 11
160.0390644
 21
203.2852126
 31
0.0
 70
   160
  1
60
 71
     5
 42
6.0
 53
90.0
  3
Standard
100
AcDbAlignedDimension
 13
139.2890644
 23
206.2852126
 33
0.0
 14
139.2890644
 24
200.2852126
 34
0.0
 50
270.0
100
AcDbRotatedDimension
1001
ACAD
1000
DSTYLE
1002
{
1070
   271
1070
     2
1070
   178
1070
     5
1070
   177
1070
     5
1070
   176
1070
     5
1070
   289
1070
     3
1070
    77
1070
     1
1070
   174
1070
     1
1070
   172
1070
     1
1070
    73
1070
     1
1070
    74
1070
     0
1070
   173
1070
     1
1070
   279
1070
     2
1070
    44
1040
0.9999999999999716
1070
    42
1040
1.0
1070
   147
1040
0.0
1070
   140
1040
2.777777777777778
1070
    41
1040
1.5
1070
   340
1005
4E
1070
   344
1005
8A
1070
   343
1005
8A
1002
}
  0
DIMENSION
  5
DC
330
1F
100
AcDbEntity
  8
D-STR-DIM
  6
Continuous
 62
     5
370
    13
100
AcDbDimension
  2
*D8
 10
162.2890644
 20
170.2852126
 30
0.0
 11
160.0390644
 21
185.2852126
 31
0.0
 70
   160
  1
300
 71
     5
 42
30.0
 53
90.0
  3
Standard
100
AcDbAlignedDimension
 13
139.2890644
 23
200.2852126
 33
0.0
 14
139.2890644
 24
170.2852126
 34
0.0
 50
270.0
100
AcDbRotatedDimension
1001
ACAD
1000
DSTYLE
1002
{
1070
   271
1070
     2
1070
   178
1070
     5
1070
   177
1070
     5
1070
   176
1070
     5
1070
   289
1070
     3
1070
    77
1070
     1
1070
   174
1070
     1
1070
   172
1070
     1
1070
    73
1070
     1
1070
    74
1070
     0
1070
   173
1070
     1
1070
   279
1070
     2
1070
    44
1040
0.9999999999999716
1070
    42
1040
1.0
1070
   147
1040
0.0
1070
   140
1040
2.777777777777778
1070
    41
1040
1.5
1070
   340
1005
4E
1070
   344
1005
8A
1070
   343
1005
8A
1002
}
  0
DIMENSION
  5
E9
330
1F
100
AcDbEntity
  8
D-STR-DIM
  6
Continuous
 62
     5
370
    13
100
AcDbDimension
  2
*D9
 10
162.2890644
 20
164.2852126
 30
0.0
 11
160.0390644
 21
167.2852126
 31
0.0
 70
   160
  1
60
 71
     5
 42
6.0
 53
90.0
  3
Standard
100
AcDbAlignedDimension
 13
139.2890644
 23
170.2852126
 33
0.0
 14
142.2890644
 24
164.2852126
 34
0.0
 50
270.0
100
AcDbRotatedDimension
1001
ACAD
1000
DSTYLE
1002
{
1070
   271
1070
     2
1070
   178
1070
     5
1070
   177
1070
     5
1070
   176
1070
     5
1070
   289
1070
     3
1070
    77
1070
     1
1070
   174
1070
     1
1070
   172
1070
     1
1070
    73
1070
     1
1070
    74
1070
     0
1070
   173
1070
     1
1070
   279
1070
     2
1070
    44
1040
0.9999999999999716
1070
    42
1040
1.0
1070
   147
1040
0.0
1070
   140
1040
2.777777777777778
1070
    41
1040
1.5
1070
   340
1005
4E
1070
   344
1005
8A
1070
   343
1005
8A
1002
}
  0
DIMENSION
  5
F6
330
1F
100
AcDbEntity
  8
D-STR-DIM
  6
Continuous
 62
     5
370
    13
100
AcDbDimension
  2
*D10
 10
170.2890644
 20
164.2852126
 30
0.0
 11
168.0390644
 21
185.2852126
 31
0.0
 70
   160
  1
420
 71
     5
 42
42.0
 53
90.0
  3
Standard
100
AcDbAlignedDimension
 13
139.2890644
 23
206.2852126
 33
0.0
 14
142.2890644
 24
164.2852126
 34
0.0
 50
270.0
100
AcDbRotatedDimension
1001
ACAD
1000
DSTYLE
1002
{
1070
   271
1070
     2
1070
   178
1070
     5
1070
   177
1070
     5
1070
   176
1070
     5
1070
   289
1070
     3
1070
    77
1070
     1
1070
   174
1070
     1
1070
   172
1070
     1
1070
    73
1070
     1
1070
    74
1070
     0
1070
   173
1070
     1
1070
   279
1070
     2
1070
    44
1040
0.9999999999999716
1070
    42
1040
1.0
1070
   147
1040
0.0
1070
   140
1040
2.777777777777778
1070
    41
1040
1.5
1070
   340
1005
4E
1070
   344
1005
8A
1070
   343
1005
8A
1002
}
  0
DIMENSION
  5
103
330
1F
100
AcDbEntity
  8
D-STR-DIM
  6
Continuous
 62
     5
370
    13
100
AcDbDimension
  2
*D11
 10
170.2890644
 20
163.2852126
 30
0.0
 11
173.8137287
 21
164.0151544
 31
0.0
 70
   160
  1
10
 71
     5
 42
1.0
 53
90.0
  3
Standard
100
AcDbAlignedDimension
 13
142.2890644
 23
164.2852126
 33
0.0
 14
147.2890644
 24
163.2852126
 34
0.0
 50
270.0
100
AcDbRotatedDimension
1001
ACAD
1000
DSTYLE
1002
{
1070
   271
1070
     2
1070
   178
1070
     5
1070
   177
1070
     5
1070
   176
1070
     5
1070
   289
1070
     3
1070
    77
1070
     1
1070
   174
1070
     1
1070
   172
1070
     1
1070
    73
1070
     1
1070
    74
1070
     0
1070
   173
1070
     1
1070
   279
1070
     2
1070
    44
1040
0.9999999999999716
1070
    42
1040
1.0
1070
   147
1040
0.0
1070
   140
1040
2.777777777777778
1070
    41
1040
1.5
1070
   340
1005
4E
1070
   344
1005
8A
1070
   343
1005
8A
1002
}
  0
DIMENSION
  5
112
330
1F
100
AcDbEntity
  8
D-STR-DIM
  6
Continuous
 62
     5
370
    13
100
AcDbDimension
  2
*D12
 10
170.2890644
 20
153.2852126
 30
0.0
 11
168.0390644
 21
158.2852126
 31
0.0
 70
   160
  1
100
 71
     5
 42
10.00000000000003
 53
90.0
  3
Standard
100
AcDbAlignedDimension
 13
147.2890644
 23
163.2852126
 33
0.0
 14
137.5641329
 24
153.2852126
 34
0.0
 50
270.0
100
AcDbRotatedDimension
1001
ACAD
1000
DSTYLE
1002
{
1070
   271
1070
     2
1070
   178
1070
     5
1070
   177
1070
     5
1070
   176
1070
     5
1070
   289
1070
     3
1070
    77
1070
     1
1070
   174
1070
     1
1070
   172
1070
     1
1070
    73
1070
     1
1070
    74
1070
     0
1070
   173
1070
     1
1070
   279
1070
     2
1070
    44
1040
0.9999999999999716
1070
    42
1040
1.0
1070
   147
1040
0.0
1070
   140
1040
2.777777777777778
1070
    41
1040
1.5
1070
   340
1005
4E
1070
   344
1005
8A
1070
   343
1005
8A
1002
}
  0
TEXT
  5
11F
330
1F
100
AcDbEntity
  8
D-BGD-TXT
  6
Continuous
 62
     7
370
    13
100
AcDbText
 10
110.9220561142857
 20
240.815038015873
 30
0.0
 40
3.968253968253968
  1
（φ300）
 41
0.8000000000000002
  7
ＭＳ ゴシック
 72
     1
 11
120.2077704
 21
242.799165
 31
0.0
100
AcDbText
 73
     2
  0
TEXT
  5
120
330
1F
100
AcDbEntity
  8
D-MTR-TXT
  6
Continuous
 62
     7
370
    13
100
AcDbText
 10
85.4328837
 20
95.898596475
 30
0.0
 40
2.777777777777778
  1
規格寸法
 41
0.8000000000000002
  7
ＭＳ ゴシック
 11
85.4328837
 21
95.3911746
 31
0.0
100
AcDbText
 73
     1
  0
TEXT
  5
121
330
1F
100
AcDbEntity
  8
D-MTR-TXT
  6
Continuous
 62
     7
370
    13
100
AcDbText
 10
125.0113535
 20
95.96127347500001
 30
0.0
 40
2.777777777777778
  1
数量
 41
0.8000000000000002
  7
ＭＳ ゴシック
 11
125.0113535
 21
95.45385160000001
 31
0.0
100
AcDbText
 73
     1
  0
TEXT
  5
122
330
1F
100
AcDbEntity
  8
D-MTR-TXT
  6
Continuous
 62
     7
370
    13
100
AcDbText
 10
144.8020746
 20
95.93976837500001
 30
0.0
 40
2.777777777777778
  1
単位
 41
0.8000000000000002
  7
ＭＳ ゴシック
 11
144.8020746
 21
95.43234650000001
 31
0.0
100
AcDbText
 73
     1
  0
TEXT
  5
123
330
1F
100
AcDbEntity
  8
D-MTR-TXT
  6
Continuous
 62
     7
370
    13
100
AcDbText
 10
179.6604447
 20
95.62272207500001
 30
0.0
 40
2.777777777777778
  1
摘 要
 41
0.8000000000000002
  7
ＭＳ ゴシック
 11
179.6604447
 21
95.11530020000001
 31
0.0
100
AcDbText
 73
     1
  0
TEXT
  5
124
330
1F
100
AcDbEntity
  8
D-MTR-TXT
  6
Continuous
 62
     7
370
    13
100
AcDbText
 10
52.9907821
 20
95.89859787500001
 30
0.0
 40
2.777777777777778
  1
名 称
 41
0.8000000000000002
  7
ＭＳ ゴシック
 11
52.9907821
 21
95.391176
 31
0.0
100
AcDbText
 73
     1
  0
ELLIPSE
  5
125
330
1F
100
AcDbEntity
  8
D-STR-STR5
  6
Continuous
 62
   134
370
    13
100
AcDbEllipse
 10
91.59437856879768
 20
145.813644092621
 30
0.0
 11
0.4341204007552761
 21
2.462019136328593
 31
0.0
210
0.0
220
0.0
230
1.0
 40
0.5
 41
0.0
 42
6.283185307179586
  0
ELLIPSE
  5
126
330
1F
100
AcDbEntity
  8
D-STR-STR5
  6
Continuous
 62
   134
370
    13
100
AcDbEllipse
 10
94.15223637967854
 20
145.813644092621
 30
0.0
 11
0.4341204007552761
 21
2.462019136328593
 31
0.0
210
0.0
220
0.0
230
1.0
 40
0.5
 41
0.0
 42
6.283185307179586
  0
ELLIPSE
  5
127
330
1F
100
AcDbEntity
  8
D-STR-STR5
  6
Continuous
 62
   134
370
    13
100
AcDbEllipse
 10
96.71009425722606
 20
145.813644092621
 30
0.0
 11
0.4341204007552761
 21
2.462019136328593
 31
0.0
210
0.0
220
0.0
230
1.0
 40
0.5
 41
0.0
 42
6.283185307179586
  0
ELLIPSE
  5
128
330
1F
100
AcDbEntity
  8
D-STR-STR5
  6
Continuous
 62
   134
370
    13
100
AcDbEllipse
 10
99.26795213477358
 20
145.813644092621
 30
0.0
 11
0.4341204007552761
 21
2.462019136328593
 31
0.0
210
0.0
220
0.0
230
1.0
 40
0.5
 41
0.0
 42
6.283185307179586
  0
ELLIPSE
  5
129
330
1F
100
AcDbEntity
  8
D-STR-STR5
  6
Continuous
 62
   134
370
    13
100
AcDbEllipse
 10
101.8258099456544
 20
145.813644092621
 30
0.0
 11
0.4341204007552761
 21
2.462019136328593
 31
0.0
210
0.0
220
0.0
230
1.0
 40
0.5
 41
0.0
 42
6.283185307179586
  0
ELLIPSE
  5
12A
330
1F
100
AcDbEntity
  8
D-STR-STR5
  6
Continuous
 62
   134
370
    13
100
AcDbEllipse
 10
140.7523187876789
 20
145.813644092621
 30
0.0
 11
0.4341204007552903
 21
2.462019136328593
 31
0.0
210
0.0
220
0.0
230
1.0
 40
0.5
 41
0.0
 42
6.283185307179586
  0
ELLIPSE
  5
12B
330
1F
100
AcDbEntity
  8
D-STR-STR5
  6
Continuous
 62
   134
370
    13
100
AcDbEllipse
 10
143.3101766652264
 20
145.813644092621
 30
0.0
 11
0.4341204007552903
 21
2.462019136328593
 31
0.0
210
0.0
220
0.0
230
1.0
 40
0.5
 41
0.0
 42
6.283185307179586
  0
ELLIPSE
  5
12C
330
1F
100
AcDbEntity
  8
D-STR-STR5
  6
Continuous
 62
   134
370
    13
100
AcDbEllipse
 10
145.868034542774
 20
145.813644092621
 30
0.0
 11
0.4341204007552903
 21
2.462019136328593
 31
0.0
210
0.0
220
0.0
230
1.0
 40
0.5
 41
0.0
 42
6.283185307179586
  0
ELLIPSE
  5
12D
330
1F
100
AcDbEntity
  8
D-STR-STR5
  6
Continuous
 62
   134
370
    13
100
AcDbEllipse
 10
148.4258923536548
 20
145.813644092621
 30
0.0
 11
0.4341204007552903
 21
2.462019136328593
 31
0.0
210
0.0
220
0.0
230
1.0
 40
0.5
 41
0.0
 42
6.283185307179586
  0
ELLIPSE
  5
12E
330
1F
100
AcDbEntity
  8
D-STR-STR5
  6
Continuous
 62
   134
370
    13
100
AcDbEllipse
 10
150.9837502312023
 20
145.813644092621
 30
0.0
 11
0.4341204007552903
 21
2.462019136328593
 31
0.0
210
0.0
220
0.0
230
1.0
 40
0.5
 41
0.0
 42
6.283185307179586
  0
ELLIPSE
  5
12F
330
1F
100
AcDbEntity
  8
D-STR-STR5
  6
Continuous
 62
   134
370
    13
100
AcDbEllipse
 10
91.59437856879768
 20
150.813643592621
 30
0.0
 11
0.4341204007552761
 21
2.462019136328593
 31
0.0
210
0.0
220
0.0
230
1.0
 40
0.5
 41
0.0
 42
6.283185307179586
  0
ELLIPSE
  5
130
330
1F
100
AcDbEntity
  8
D-STR-STR5
  6
Continuous
 62
   134
370
    13
100
AcDbEllipse
 10
94.15223637967854
 20
150.813643592621
 30
0.0
 11
0.4341204007552761
 21
2.462019136328593
 31
0.0
210
0.0
220
0.0
230
1.0
 40
0.5
 41
0.0
 42
6.283185307179586
  0
ELLIPSE
  5
131
330
1F
100
AcDbEntity
  8
D-STR-STR5
  6
Continuous
 62
   134
370
    13
100
AcDbEllipse
 10
96.71009425722606
 20
150.813643592621
 30
0.0
 11
0.4341204007552761
 21
2.462019136328593
 31
0.0
210
0.0
220
0.0
230
1.0
 40
0.5
 41
0.0
 42
6.283185307179586
  0
ELLIPSE
  5
132
330
1F
100
AcDbEntity
  8
D-STR-STR5
  6
Continuous
 62
   134
370
    13
100
AcDbEllipse
 10
99.26795213477358
 20
150.813643592621
 30
0.0
 11
0.4341204007552761
 21
2.462019136328593
 31
0.0
210
0.0
220
0.0
230
1.0
 40
0.5
 41
0.0
 42
6.283185307179586
  0
ELLIPSE
  5
133
330
1F
100
AcDbEntity
  8
D-STR-STR5
  6
Continuous
 62
   134
370
    13
100
AcDbEllipse
 10
101.8258099456544
 20
150.813643592621
 30
0.0
 11
0.4341204007552761
 21
2.462019136328593
 31
0.0
210
0.0
220
0.0
230
1.0
 40
0.5
 41
0.0
 42
6.283185307179586
  0
ELLIPSE
  5
134
330
1F
100
AcDbEntity
  8
D-STR-STR5
  6
Continuous
 62
   134
370
    13
100
AcDbEllipse
 10
140.7523187876789
 20
150.813643592621
 30
0.0
 11
0.4341204007552903
 21
2.462019136328593
 31
0.0
210
0.0
220
0.0
230
1.0
 40
0.5
 41
0.0
 42
6.283185307179586
  0
ELLIPSE
  5
135
330
1F
100
AcDbEntity
  8
D-STR-STR5
  6
Continuous
 62
   134
370
    13
100
AcDbEllipse
 10
143.3101766652264
 20
150.813643592621
 30
0.0
 11
0.4341204007552903
 21
2.462019136328593
 31
0.0
210
0.0
220
0.0
230
1.0
 40
0.5
 41
0.0
 42
6.283185307179586
  0
ELLIPSE
  5
136
330
1F
100
AcDbEntity
  8
D-STR-STR5
  6
Continuous
 62
   134
370
    13
100
AcDbEllipse
 10
145.868034542774
 20
150.813643592621
 30
0.0
 11
0.4341204007552903
 21
2.462019136328593
 31
0.0
210
0.0
220
0.0
230
1.0
 40
0.5
 41
0.0
 42
6.283185307179586
  0
ELLIPSE
  5
137
330
1F
100
AcDbEntity
  8
D-STR-STR5
  6
Continuous
 62
   134
370
    13
100
AcDbEllipse
 10
148.4258923536548
 20
150.813643592621
 30
0.0
 11
0.4341204007552903
 21
2.462019136328593
 31
0.0
210
0.0
220
0.0
230
1.0
 40
0.5
 41
0.0
 42
6.283185307179586
  0
ELLIPSE
  5
138
330
1F
100
AcDbEntity
  8
D-STR-STR5
  6
Continuous
 62
   134
370
    13
100
AcDbEllipse
 10
150.9837502312023
 20
150.813643592621
 30
0.0
 11
0.4341204007552903
 21
2.462019136328593
 31
0.0
210
0.0
220
0.0
230
1.0
 40
0.5
 41
0.0
 42
6.283185307179586
  0
CIRCLE
  5
139
330
1F
100
AcDbEntity
  8
D-STR-STR5
  6
Continuous
 62
   134
370
    13
100
AcDbCircle
 10
112.7890644
 20
159.7852126
 30
0.0
 40
0.65
  0
CIRCLE
  5
13A
330
1F
100
AcDbEntity
  8
D-STR-STR5
  6
Continuous
 62
   134
370
    13
100
AcDbCircle
 10
101.2890644
 20
160.2852126
 30
0.0
 40
1.75
  0
CIRCLE
  5
13B
330
1F
100
AcDbEntity
  8
D-STR-STR5
  6
Continuous
 62
   134
370
    13
100
AcDbCircle
 10
116.7890644
 20
154.7852126
 30
0.0
 40
0.5
  0
CIRCLE
  5
13C
330
1F
100
AcDbEntity
  8
D-STR-STR5
  6
Continuous
 62
   134
370
    13
100
AcDbCircle
 10
97.2890644
 20
159.7852126
 30
0.0
 40
1.0
  0
CIRCLE
  5
13D
330
1F
100
AcDbEntity
  8
D-STR-STR5
  6
Continuous
 62
   134
370
    13
100
AcDbCircle
 10
97.7890644
 20
155.2852126
 30
0.0
 40
0.75
  0
CIRCLE
  5
13E
330
1F
100
AcDbEntity
  8
D-STR-STR5
  6
Continuous
 62
   134
370
    13
100
AcDbCircle
 10
112.2890644
 20
156.7852126
 30
0.0
 40
0.6
  0
CIRCLE
  5
13F
330
1F
100
AcDbEntity
  8
D-STR-STR5
  6
Continuous
 62
   134
370
    13
100
AcDbCircle
 10
107.7890644
 20
154.7852126
 30
0.0
 40
0.25
  0
CIRCLE
  5
140
330
1F
100
AcDbEntity
  8
D-STR-STR5
  6
Continuous
 62
   134
370
    13
100
AcDbCircle
 10
98.2890644
 20
158.2852126
 30
0.0
 40
0.25
  0
CIRCLE
  5
141
330
1F
100
AcDbEntity
  8
D-STR-STR5
  6
Continuous
 62
   134
370
    13
100
AcDbCircle
 10
105.7890644
 20
158.2852126
 30
0.0
 40
0.25
  0
CIRCLE
  5
142
330
1F
100
AcDbEntity
  8
D-STR-STR5
  6
Continuous
 62
   134
370
    13
100
AcDbCircle
 10
100.7890644
 20
155.2852126
 30
0.0
 40
0.25
  0
CIRCLE
  5
143
330
1F
100
AcDbEntity
  8
D-STR-STR5
  6
Continuous
 62
   134
370
    13
100
AcDbCircle
 10
105.2890644
 20
161.7852126
 30
0.0
 40
0.1
  0
CIRCLE
  5
144
330
1F
100
AcDbEntity
  8
D-STR-STR5
  6
Continuous
 62
   134
370
    13
100
AcDbCircle
 10
117.2890644
 20
160.2852126
 30
0.0
 40
0.1
  0
CIRCLE
  5
145
330
1F
100
AcDbEntity
  8
D-STR-STR5
  6
Continuous
 62
   134
370
    13
100
AcDbCircle
 10
109.2890644
 20
159.2852126
 30
0.0
 40
0.1
  0
CIRCLE
  5
146
330
1F
100
AcDbEntity
  8
D-STR-STR5
  6
Continuous
 62
   134
370
    13
100
AcDbCircle
 10
114.2890644
 20
155.2852126
 30
0.0
 40
0.1
  0
CIRCLE
  5
147
330
1F
100
AcDbEntity
  8
D-STR-STR5
  6
Continuous
 62
   134
370
    13
100
AcDbCircle
 10
103.2890644
 20
157.2852126
 30
0.0
 40
0.1
  0
CIRCLE
  5
148
330
1F
100
AcDbEntity
  8
D-STR-STR5
  6
Continuous
 62
   134
370
    13
100
AcDbCircle
 10
105.2890644
 20
155.2852126
 30
0.0
 40
0.1
  0
CIRCLE
  5
149
330
1F
100
AcDbEntity
  8
D-STR-STR5
  6
Continuous
 62
   134
370
    13
100
AcDbCircle
 10
98.2890644
 20
158.7852126
 30
0.0
 40
0.1
  0
CIRCLE
  5
14A
330
1F
100
AcDbEntity
  8
D-STR-STR5
  6
Continuous
 62
   134
370
    13
100
AcDbCircle
 10
103.2890644
 20
155.2852126
 30
0.0
 40
0.1
  0
CIRCLE
  5
14B
330
1F
100
AcDbEntity
  8
D-STR-STR5
  6
Continuous
 62
   134
370
    13
100
AcDbCircle
 10
99.2890644
 20
157.2852126
 30
0.0
 40
0.1
  0
CIRCLE
  5
14C
330
1F
100
AcDbEntity
  8
D-STR-STR5
  6
Continuous
 62
   134
370
    13
100
AcDbCircle
 10
109.2890644
 20
157.2852126
 30
0.0
 40
0.1
  0
CIRCLE
  5
14D
330
1F
100
AcDbEntity
  8
D-STR-STR5
  6
Continuous
 62
   134
370
    13
100
AcDbCircle
 10
107.2890644
 20
160.2852126
 30
0.0
 40
0.1
  0
CIRCLE
  5
14E
330
1F
100
AcDbEntity
  8
D-STR-STR5
  6
Continuous
 62
   134
370
    13
100
AcDbCircle
 10
115.2890644
 20
158.2852126
 30
0.0
 40
0.1
  0
CIRCLE
  5
14F
330
1F
100
AcDbEntity
  8
D-STR-STR5
  6
Continuous
 62
   134
370
    13
100
AcDbCircle
 10
118.2890644
 20
157.2852126
 30
0.0
 40
0.1
  0
CIRCLE
  5
150
330
1F
100
AcDbEntity
  8
D-STR-STR5
  6
Continuous
 62
   134
370
    13
100
AcDbCircle
 10
99.2890644
 20
154.2852126
 30
0.0
 40
0.1
  0
CIRCLE
  5
151
330
1F
100
AcDbEntity
  8
D-STR-STR5
  6
Continuous
 62
   134
370
    13
100
AcDbCircle
 10
104.2890644
 20
154.2852126
 30
0.0
 40
0.1
  0
CIRCLE
  5
152
330
1F
100
AcDbEntity
  8
D-STR-STR5
  6
Continuous
 62
   134
370
    13
100
AcDbCircle
 10
110.2890644
 20
153.7852126
 30
0.0
 40
0.1
  0
CIRCLE
  5
153
330
1F
100
AcDbEntity
  8
D-STR-STR5
  6
Continuous
 62
   134
370
    13
100
AcDbCircle
 10
111.2890644
 20
154.2852126
 30
0.0
 40
0.1
  0
CIRCLE
  5
154
330
1F
100
AcDbEntity
  8
D-STR-STR5
  6
Continuous
 62
   134
370
    13
100
AcDbCircle
 10
101.7890644
 20
153.7852126
 30
0.0
 40
0.1
  0
CIRCLE
  5
155
330
1F
100
AcDbEntity
  8
D-STR-STR5
  6
Continuous
 62
   134
370
    13
100
AcDbCircle
 10
117.7890644
 20
154.7852126
 30
0.0
 40
0.1
  0
CIRCLE
  5
156
330
1F
100
AcDbEntity
  8
D-STR-STR5
  6
Continuous
 62
   134
370
    13
100
AcDbCircle
 10
96.2890644
 20
153.7852126
 30
0.0
 40
0.1
  0
CIRCLE
  5
157
330
1F
100
AcDbEntity
  8
D-STR-STR5
  6
Continuous
 62
   134
370
    13
100
AcDbCircle
 10
137.7890644
 20
159.7852126
 30
0.0
 40
0.65
  0
CIRCLE
  5
158
330
1F
100
AcDbEntity
  8
D-STR-STR5
  6
Continuous
 62
   134
370
    13
100
AcDbCircle
 10
126.2890644
 20
160.2852126
 30
0.0
 40
1.75
  0
CIRCLE
  5
159
330
1F
100
AcDbEntity
  8
D-STR-STR5
  6
Continuous
 62
   134
370
    13
100
AcDbCircle
 10
141.7890644
 20
154.7852126
 30
0.0
 40
0.5
  0
CIRCLE
  5
15A
330
1F
100
AcDbEntity
  8
D-STR-STR5
  6
Continuous
 62
   134
370
    13
100
AcDbCircle
 10
122.2890644
 20
159.7852126
 30
0.0
 40
1.0
  0
CIRCLE
  5
15B
330
1F
100
AcDbEntity
  8
D-STR-STR5
  6
Continuous
 62
   134
370
    13
100
AcDbCircle
 10
122.7890644
 20
155.2852126
 30
0.0
 40
0.75
  0
CIRCLE
  5
15C
330
1F
100
AcDbEntity
  8
D-STR-STR5
  6
Continuous
 62
   134
370
    13
100
AcDbCircle
 10
137.2890644
 20
156.7852126
 30
0.0
 40
0.6
  0
CIRCLE
  5
15D
330
1F
100
AcDbEntity
  8
D-STR-STR5
  6
Continuous
 62
   134
370
    13
100
AcDbCircle
 10
132.7890644
 20
154.7852126
 30
0.0
 40
0.25
  0
CIRCLE
  5
15E
330
1F
100
AcDbEntity
  8
D-STR-STR5
  6
Continuous
 62
   134
370
    13
100
AcDbCircle
 10
123.2890644
 20
158.2852126
 30
0.0
 40
0.25
  0
CIRCLE
  5
15F
330
1F
100
AcDbEntity
  8
D-STR-STR5
  6
Continuous
 62
   134
370
    13
100
AcDbCircle
 10
130.7890644
 20
158.2852126
 30
0.0
 40
0.25
  0
CIRCLE
  5
160
330
1F
100
AcDbEntity
  8
D-STR-STR5
  6
Continuous
 62
   134
370
    13
100
AcDbCircle
 10
125.7890644
 20
155.2852126
 30
0.0
 40
0.25
  0
CIRCLE
  5
161
330
1F
100
AcDbEntity
  8
D-STR-STR5
  6
Continuous
 62
   134
370
    13
100
AcDbCircle
 10
130.2890644
 20
161.7852126
 30
0.0
 40
0.1
  0
CIRCLE
  5
162
330
1F
100
AcDbEntity
  8
D-STR-STR5
  6
Continuous
 62
   134
370
    13
100
AcDbCircle
 10
142.2890644
 20
160.2852126
 30
0.0
 40
0.1
  0
CIRCLE
  5
163
330
1F
100
AcDbEntity
  8
D-STR-STR5
  6
Continuous
 62
   134
370
    13
100
AcDbCircle
 10
134.2890644
 20
159.2852126
 30
0.0
 40
0.1
  0
CIRCLE
  5
164
330
1F
100
AcDbEntity
  8
D-STR-STR5
  6
Continuous
 62
   134
370
    13
100
AcDbCircle
 10
139.2890644
 20
155.2852126
 30
0.0
 40
0.1
  0
CIRCLE
  5
165
330
1F
100
AcDbEntity
  8
D-STR-STR5
  6
Continuous
 62
   134
370
    13
100
AcDbCircle
 10
128.2890644
 20
157.2852126
 30
0.0
 40
0.1
  0
CIRCLE
  5
166
330
1F
100
AcDbEntity
  8
D-STR-STR5
  6
Continuous
 62
   134
370
    13
100
AcDbCircle
 10
130.2890644
 20
155.2852126
 30
0.0
 40
0.1
  0
CIRCLE
  5
167
330
1F
100
AcDbEntity
  8
D-STR-STR5
  6
Continuous
 62
   134
370
    13
100
AcDbCircle
 10
123.2890644
 20
158.7852126
 30
0.0
 40
0.1
  0
CIRCLE
  5
168
330
1F
100
AcDbEntity
  8
D-STR-STR5
  6
Continuous
 62
   134
370
    13
100
AcDbCircle
 10
128.2890644
 20
155.2852126
 30
0.0
 40
0.1
  0
CIRCLE
  5
169
330
1F
100
AcDbEntity
  8
D-STR-STR5
  6
Continuous
 62
   134
370
    13
100
AcDbCircle
 10
124.2890644
 20
157.2852126
 30
0.0
 40
0.1
  0
CIRCLE
  5
16A
330
1F
100
AcDbEntity
  8
D-STR-STR5
  6
Continuous
 62
   134
370
    13
100
AcDbCircle
 10
134.2890644
 20
157.2852126
 30
0.0
 40
0.1
  0
CIRCLE
  5
16B
330
1F
100
AcDbEntity
  8
D-STR-STR5
  6
Continuous
 62
   134
370
    13
100
AcDbCircle
 10
132.2890644
 20
160.2852126
 30
0.0
 40
0.1
  0
CIRCLE
  5
16C
330
1F
100
AcDbEntity
  8
D-STR-STR5
  6
Continuous
 62
   134
370
    13
100
AcDbCircle
 10
140.2890644
 20
158.2852126
 30
0.0
 40
0.1
  0
CIRCLE
  5
16D
330
1F
100
AcDbEntity
  8
D-STR-STR5
  6
Continuous
 62
   134
370
    13
100
AcDbCircle
 10
143.2890644
 20
157.2852126
 30
0.0
 40
0.1
  0
CIRCLE
  5
16E
330
1F
100
AcDbEntity
  8
D-STR-STR5
  6
Continuous
 62
   134
370
    13
100
AcDbCircle
 10
124.2890644
 20
154.2852126
 30
0.0
 40
0.1
  0
CIRCLE
  5
16F
330
1F
100
AcDbEntity
  8
D-STR-STR5
  6
Continuous
 62
   134
370
    13
100
AcDbCircle
 10
129.2890644
 20
154.2852126
 30
0.0
 40
0.1
  0
CIRCLE
  5
170
330
1F
100
AcDbEntity
  8
D-STR-STR5
  6
Continuous
 62
   134
370
    13
100
AcDbCircle
 10
135.2890644
 20
153.7852126
 30
0.0
 40
0.1
  0
CIRCLE
  5
171
330
1F
100
AcDbEntity
  8
D-STR-STR5
  6
Continuous
 62
   134
370
    13
100
AcDbCircle
 10
136.2890644
 20
154.2852126
 30
0.0
 40
0.1
  0
CIRCLE
  5
172
330
1F
100
AcDbEntity
  8
D-STR-STR5
  6
Continuous
 62
   134
370
    13
100
AcDbCircle
 10
126.7890644
 20
153.7852126
 30
0.0
 40
0.1
  0
CIRCLE
  5
173
330
1F
100
AcDbEntity
  8
D-STR-STR5
  6
Continuous
 62
   134
370
    13
100
AcDbCircle
 10
142.7890644
 20
154.7852126
 30
0.0
 40
0.1
  0
CIRCLE
  5
174
330
1F
100
AcDbEntity
  8
D-STR-STR5
  6
Continuous
 62
   134
370
    13
100
AcDbCircle
 10
121.2890644
 20
153.7852126
 30
0.0
 40
0.1
  0
CIRCLE
  5
175
330
1F
100
AcDbEntity
  8
D-STR-STR5
  6
Continuous
 62
   134
370
    13
100
AcDbCircle
 10
146.2890644
 20
153.7852126
 30
0.0
 40
0.1
  0
CIRCLE
  5
176
330
1F
100
AcDbEntity
  8
D-STR
  6
Continuous
 62
     1
370
    50
100
AcDbCircle
 10
121.2890644
 20
185.2852126
 30
0.0
 40
17.5
  0
CIRCLE
  5
177
330
1F
100
AcDbEntity
  8
D-STR
  6
Continuous
 62
     1
370
    50
100
AcDbCircle
 10
121.2890644
 20
185.2852126
 30
0.0
 40
18.0
  0
LINE
  5
178
330
1F
100
AcDbEntity
  8
D-STR
  6
USER_1
 62
     1
370
    50
100
AcDbLine
 10
105.2890644
 20
197.4852125
 30
0.0
 11
105.2890644
 21
199.0852125
 31
0.0
  0
LINE
  5
179
330
1F
100
AcDbEntity
  8
D-STR
  6
USER_1
 62
     1
370
    50
100
AcDbLine
 10
105.2890644
 20
199.0852125
 30
0.0
 11
100.2890644
 21
199.0852125
 31
0.0
  0
LINE
  5
17A
330
1F
100
AcDbEntity
  8
D-STR
  6
USER_1
 62
     1
370
    50
100
AcDbLine
 10
100.2890644
 20
197.4852125
 30
0.0
 11
105.2890644
 21
197.4852125
 31
0.0
  0
LINE
  5
17B
330
1F
100
AcDbEntity
  8
D-BMK
  6
dashed dotted
 62
     5
370
    13
100
AcDbLine
 10
106.2890644
 20
198.2852125
 30
0.0
 11
99.2890644
 21
198.2852127
 31
0.0
  0
LINE
  5
17C
330
1F
100
AcDbEntity
  8
D-BMK
  6
dashed dotted
 62
     5
370
    13
100
AcDbLine
 10
106.2890644
 20
198.2852125
 30
0.0
 11
99.2890644
 21
198.2852127
 31
0.0
  0
LINE
  5
17D
330
1F
100
AcDbEntity
  8
D-BMK
  6
dashed dotted
 62
     5
370
    13
100
AcDbLine
 10
106.2890644
 20
198.2852125
 30
0.0
 11
99.2890644
 21
198.2852127
 31
0.0
  0
LINE
  5
17E
330
1F
100
AcDbEntity
  8
D-STR
  6
USER_1
 62
     1
370
    50
100
AcDbLine
 10
105.2890644
 20
171.4852128
 30
0.0
 11
100.2890644
 21
171.4852128
 31
0.0
  0
LINE
  5
17F
330
1F
100
AcDbEntity
  8
D-STR
  6
USER_1
 62
     1
370
    50
100
AcDbLine
 10
100.2890644
 20
173.0852128
 30
0.0
 11
105.2890644
 21
173.0852128
 31
0.0
  0
LINE
  5
180
330
1F
100
AcDbEntity
  8
D-BMK
  6
dashed dotted
 62
     5
370
    13
100
AcDbLine
 10
106.2890644
 20
172.2852128
 30
0.0
 11
99.2890644
 21
172.2852126
 31
0.0
  0
LINE
  5
181
330
1F
100
AcDbEntity
  8
D-BMK
  6
dashed dotted
 62
     5
370
    13
100
AcDbLine
 10
106.2890644
 20
172.2852128
 30
0.0
 11
99.2890644
 21
172.2852126
 31
0.0
  0
LINE
  5
182
330
1F
100
AcDbEntity
  8
D-BMK
  6
dashed dotted
 62
     5
370
    13
100
AcDbLine
 10
106.2890644
 20
172.2852128
 30
0.0
 11
99.2890644
 21
172.2852126
 31
0.0
  0
LINE
  5
183
330
1F
100
AcDbEntity
  8
D-STR
  6
USER_1
 62
     1
370
    50
100
AcDbLine
 10
105.2890644
 20
173.0852128
 30
0.0
 11
105.2890644
 21
171.4852128
 31
0.0
  0
LINE
  5
184
330
1F
100
AcDbEntity
  8
D-STR
  6
USER_1
 62
     1
370
    50
100
AcDbLine
 10
137.2890644
 20
173.0852128
 30
0.0
 11
137.2890644
 21
171.4852128
 31
0.0
  0
LINE
  5
185
330
1F
100
AcDbEntity
  8
D-BMK
  6
dashed dotted
 62
     5
370
    13
100
AcDbLine
 10
136.2890644
 20
172.2852128
 30
0.0
 11
143.2890644
 21
172.2852126
 31
0.0
  0
LINE
  5
186
330
1F
100
AcDbEntity
  8
D-BMK
  6
dashed dotted
 62
     5
370
    13
100
AcDbLine
 10
136.2890644
 20
172.2852128
 30
0.0
 11
143.2890644
 21
172.2852126
 31
0.0
  0
LINE
  5
187
330
1F
100
AcDbEntity
  8
D-BMK
  6
dashed dotted
 62
     5
370
    13
100
AcDbLine
 10
136.2890644
 20
172.2852128
 30
0.0
 11
143.2890644
 21
172.2852126
 31
0.0
  0
LINE
  5
188
330
1F
100
AcDbEntity
  8
D-STR
  6
USER_1
 62
     1
370
    50
100
AcDbLine
 10
142.2890644
 20
173.0852128
 30
0.0
 11
137.2890644
 21
173.0852128
 31
0.0
  0
LINE
  5
189
330
1F
100
AcDbEntity
  8
D-STR
  6
USER_1
 62
     1
370
    50
100
AcDbLine
 10
137.2890644
 20
171.4852128
 30
0.0
 11
142.2890644
 21
171.4852128
 31
0.0
  0
LINE
  5
18A
330
1F
100
AcDbEntity
  8
D-STR
  6
USER_1
 62
     1
370
    50
100
AcDbLine
 10
137.2890644
 20
199.0852125
 30
0.0
 11
142.2890644
 21
199.0852125
 31
0.0
  0
LINE
  5
18B
330
1F
100
AcDbEntity
  8
D-STR
  6
USER_1
 62
     1
370
    50
100
AcDbLine
 10
142.2890644
 20
197.4852125
 30
0.0
 11
137.2890644
 21
197.4852125
 31
0.0
  0
LINE
  5
18C
330
1F
100
AcDbEntity
  8
D-BMK
  6
dashed dotted
 62
     5
370
    13
100
AcDbLine
 10
136.2890644
 20
198.2852125
 30
0.0
 11
143.2890644
 21
198.2852127
 31
0.0
  0
LINE
  5
18D
330
1F
100
AcDbEntity
  8
D-BMK
  6
dashed dotted
 62
     5
370
    13
100
AcDbLine
 10
136.2890644
 20
198.2852125
 30
0.0
 11
143.2890644
 21
198.2852127
 31
0.0
  0
LINE
  5
18E
330
1F
100
AcDbEntity
  8
D-BMK
  6
dashed dotted
 62
     5
370
    13
100
AcDbLine
 10
136.2890644
 20
198.2852125
 30
0.0
 11
143.2890644
 21
198.2852127
 31
0.0
  0
LINE
  5
18F
330
1F
100
AcDbEntity
  8
D-STR
  6
USER_1
 62
     1
370
    50
100
AcDbLine
 10
137.2890644
 20
197.4852125
 30
0.0
 11
137.2890644
 21
199.0852125
 31
0.0
  0
LINE
  5
190
330
1F
100
AcDbEntity
  8
D-DCR-HCH2
  6
Continuous
 62
   134
370
    13
100
AcDbLine
 10
121.9638823
 20
164.8660674
 30
0.0
 11
124.7113579
 21
167.613543
 31
0.0
  0
LINE
  5
191
330
1F
100
AcDbEntity
  8
D-DCR-HCH2
  6
Continuous
 62
   134
370
    13
100
AcDbLine
 10
139.1765676
 20
182.0787527
 30
0.0
 11
142.336046
 21
185.2382311
 31
0.0
  0
TEXT
  5
192
330
1F
100
AcDbEntity
  8
D-MTR-TXT
  6
Continuous
 62
     7
370
    13
100
AcDbText
 10
192.251838602582
 20
103.892749775
 30
0.0
 40
2.777777777777778
  1
10.0m当り
 50
0.000011
 41
0.8000000000000002
  7
ＭＳ ゴシック
 11
192.2518387
 21
103.3853279
 31
0.0
100
AcDbText
 73
     1
  0
LINE
  5
193
330
1F
100
AcDbEntity
  8
D-STR-DIM
  6
Continuous
 62
     5
370
    13
100
AcDbLine
 10
108.0851469
 20
144.3824899
 30
0.0
 11
80.12680599999999
 21
116.4241491
 31
0.0
  0
LINE
  5
194
330
1F
100
AcDbEntity
  8
D-STR-DIM
  6
Continuous
 62
     5
370
    13
100
AcDbLine
 10
108.0851469
 20
144.3824899
 30
0.0
 11
106.8477100313428
 21
143.4986064257298
 31
0.0
  0
LINE
  5
195
330
1F
100
AcDbEntity
  8
D-STR-DIM
  6
Continuous
 62
     5
370
    13
100
AcDbLine
 10
108.0851469
 20
144.3824899
 30
0.0
 11
107.2012634213038
 21
143.1450530345043
 31
0.0
  0
LINE
  5
196
330
1F
100
AcDbEntity
  8
D-STR-DIM
  6
Continuous
 62
     5
370
    13
100
AcDbLine
 10
80.126806
 20
116.4241491
 30
0.0
 11
53.376806
 21
116.4241491
 31
0.0
  0
TEXT
  5
197
330
1F
100
AcDbEntity
  8
D-STR-DIM
  6
Continuous
 62
     5
370
    13
100
AcDbText
 10
53.21013933333333
 20
117.431570975
 30
0.0
 40
2.777777777777778
  1
基礎砕石(RC-40)
  7
ＭＳ ゴシック
 72
     1
 11
66.751806
 21
116.9241491
 31
0.0
100
AcDbText
 73
     1
  0
LINE
  5
198
330
1F
100
AcDbEntity
  8
D-STR-DIM
  6
Continuous
 62
     5
370
    13
100
AcDbLine
 10
105.3932429
 20
157.0415148
 30
0.0
 11
77.8038295
 21
129.4521015
 31
0.0
  0
LINE
  5
199
330
1F
100
AcDbEntity
  8
D-STR-DIM
  6
Continuous
 62
     5
370
    13
100
AcDbLine
 10
105.3932429
 20
157.0415148
 30
0.0
 11
104.1558060313217
 21
156.1576313257594
 31
0.0
  0
LINE
  5
19A
330
1F
100
AcDbEntity
  8
D-STR-DIM
  6
Continuous
 62
     5
370
    13
100
AcDbLine
 10
105.3932429
 20
157.0415148
 30
0.0
 11
104.5093594212742
 21
155.8040779345254
 31
0.0
  0
LINE
  5
19B
330
1F
100
AcDbEntity
  8
D-STR-DIM
  6
Continuous
 62
     5
370
    13
100
AcDbLine
 10
77.8038295
 20
129.4521015
 30
0.0
 11
40.55382950000001
 21
129.4521015
 31
0.0
  0
TEXT
  5
19C
330
1F
100
AcDbEntity
  8
D-STR-DIM
  6
Continuous
 62
     5
370
    13
100
AcDbText
 10
42.02605172222222
 20
130.459523375
 30
0.0
 40
2.777777777777778
  1
コンクリート(C18-8)
  7
ＭＳ ゴシック
 72
     1
 11
59.1788295
 21
129.9521015
 31
0.0
100
AcDbText
 73
     1
  0
LINE
  5
19D
330
1F
100
AcDbEntity
  8
D-STR-DIM
  6
Continuous
 62
     5
370
    13
100
AcDbLine
 10
102.5023859
 20
163.7676759
 30
0.0
 11
81.0539992
 21
142.3192893
 31
0.0
  0
LINE
  5
19E
330
1F
100
AcDbEntity
  8
D-STR-DIM
  6
Continuous
 62
     5
370
    13
100
AcDbLine
 10
102.5023859
 20
163.7676759
 30
0.0
 11
101.2649490308631
 21
162.8837924264015
 31
0.0
  0
LINE
  5
19F
330
1F
100
AcDbEntity
  8
D-STR-DIM
  6
Continuous
 62
     5
370
    13
100
AcDbLine
 10
102.5023859
 20
163.7676759
 30
0.0
 11
101.6185024206321
 21
162.530239034984
 31
0.0
  0
LINE
  5
1A0
330
1F
100
AcDbEntity
  8
D-STR-DIM
  6
Continuous
 62
     5
370
    13
100
AcDbLine
 10
81.0539992
 20
142.3192893
 30
0.0
 11
49.0539992
 21
142.3192893
 31
0.0
  0
TEXT
  5
1A1
330
1F
100
AcDbEntity
  8
D-STR-DIM
  6
Continuous
 62
     5
370
    13
100
AcDbText
 10
50.60955475555554
 20
143.326711175
 30
0.0
 40
2.777777777777778
  1
敷モルタル(1：3)
  7
ＭＳ ゴシック
 72
     1
 11
65.05399919999999
 21
142.8192893
 31
0.0
100
AcDbText
 73
     1
  0
LINE
  5
1A2
330
1F
100
AcDbEntity
  8
D-STR-DIM
  6
Continuous
 62
     5
370
    13
100
AcDbLine
 10
102.0997634
 20
190.1119934
 30
0.0
 11
85.71238140000001
 21
173.7246113
 31
0.0
  0
LINE
  5
1A3
330
1F
100
AcDbEntity
  8
D-STR-DIM
  6
Continuous
 62
     5
370
    13
100
AcDbLine
 10
102.0997634
 20
190.1119934
 30
0.0
 11
100.8623265356204
 21
189.2281099197413
 31
0.0
  0
LINE
  5
1A4
330
1F
100
AcDbEntity
  8
D-STR-DIM
  6
Continuous
 62
     5
370
    13
100
AcDbLine
 10
102.0997634
 20
190.1119934
 30
0.0
 11
101.2158799272924
 21
188.8745565302267
 31
0.0
  0
LINE
  5
1A5
330
1F
100
AcDbEntity
  8
D-STR-DIM
  6
Continuous
 62
     5
370
    13
100
AcDbLine
 10
85.71238140000001
 20
173.7246113
 30
0.0
 11
48.4623814
 21
173.7246113
 31
0.0
  0
TEXT
  5
1A6
330
1F
100
AcDbEntity
  8
D-STR-DIM
  6
Continuous
 62
     5
370
    13
100
AcDbText
 10
49.93460362222221
 20
174.732033175
 30
0.0
 40
2.777777777777778
  1
暗渠ブロック(φ300)
  7
ＭＳ ゴシック
 72
     1
 11
67.0873814
 21
174.2246113
 31
0.0
100
AcDbText
 73
     1
  0
LINE
  5
1A7
330
1F
100
AcDbEntity
  8
D-STR
  6
Continuous
 62
     1
370
    50
100
AcDbLine
 10
90.2890644
 20
143.2852126
 30
0.0
 11
90.2890644
 21
153.2852126
 31
0.0
  0
LINE
  5
1A8
330
1F
100
AcDbEntity
  8
D-STR
  6
Continuous
 62
     1
370
    50
100
AcDbLine
 10
152.2890644
 20
153.2852126
 30
0.0
 11
90.28906439999999
 21
153.2852126
 31
0.0
  0
LINE
  5
1A9
330
1F
100
AcDbEntity
  8
D-STR
  6
Continuous
 62
     1
370
    50
100
AcDbLine
 10
152.2890644
 20
153.2852126
 30
0.0
 11
152.2890644
 21
143.2852126
 31
0.0
  0
DIMENSION
  5
1AA
330
1F
100
AcDbEntity
  8
D-STR-DIM
  6
Continuous
 62
     5
370
    13
100
AcDbDimension
  2
*D13
 10
100.2890644
 20
128.2852126
 30
0.0
 11
97.7890644
 21
130.5352126
 31
0.0
 70
   160
  1
50
 71
     5
 42
5.0
  3
Standard
100
AcDbAlignedDimension
 13
95.2890644
 23
138.2852126
 33
0.0
 14
100.2890644
 24
138.2852126
 34
0.0
100
AcDbRotatedDimension
1001
ACAD
1000
DSTYLE
1002
{
1070
   271
1070
     2
1070
   178
1070
     5
1070
   177
1070
     5
1070
   176
1070
     5
1070
   289
1070
     3
1070
    77
1070
     1
1070
   174
1070
     1
1070
   172
1070
     1
1070
    73
1070
     0
1070
    74
1070
     0
1070
   173
1070
     1
1070
   279
1070
     2
1070
    44
1040
1.0
1070
    42
1040
1.0
1070
   147
1040
0.0
1070
   140
1040
2.777777777777778
1070
    41
1040
0.9999999999999749
1070
   340
1005
4E
1002
}
  0
DIMENSION
  5
1B7
330
1F
100
AcDbEntity
  8
D-STR-DIM
  6
Continuous
 62
     5
370
    13
100
AcDbDimension
  2
*D14
 10
142.2890644
 20
128.2852126
 30
0.0
 11
121.2890644
 21
130.5352126
 31
0.0
 70
   160
  1
420
 71
     5
 42
42.0
  3
Standard
100
AcDbAlignedDimension
 13
100.2890644
 23
138.2852126
 33
0.0
 14
142.2890644
 24
138.2852126
 34
0.0
100
AcDbRotatedDimension
1001
ACAD
1000
DSTYLE
1002
{
1070
   271
1070
     2
1070
   178
1070
     5
1070
   177
1070
     5
1070
   176
1070
     5
1070
   289
1070
     3
1070
    77
1070
     1
1070
   174
1070
     1
1070
   172
1070
     1
1070
    73
1070
     0
1070
    74
1070
     0
1070
   173
1070
     1
1070
   279
1070
     2
1070
    44
1040
1.0
1070
    42
1040
1.0
1070
   147
1040
0.0
1070
   140
1040
2.777777777777778
1070
    41
1040
0.9999999999999749
1070
   340
1005
4E
1002
}
  0
DIMENSION
  5
1C4
330
1F
100
AcDbEntity
  8
D-STR-DIM
  6
Continuous
 62
     5
370
    13
100
AcDbDimension
  2
*D15
 10
147.2890644
 20
128.2852126
 30
0.0
 11
144.7890644
 21
130.5352126
 31
0.0
 70
   160
  1
50
 71
     5
 42
5.0
  3
Standard
100
AcDbAlignedDimension
 13
142.2890644
 23
138.2852126
 33
0.0
 14
147.2890644
 24
138.2852126
 34
0.0
100
AcDbRotatedDimension
1001
ACAD
1000
DSTYLE
1002
{
1070
   271
1070
     2
1070
   178
1070
     5
1070
   177
1070
     5
1070
   176
1070
     5
1070
   289
1070
     3
1070
    77
1070
     1
1070
   174
1070
     1
1070
   172
1070
     1
1070
    73
1070
     0
1070
    74
1070
     0
1070
   173
1070
     1
1070
   279
1070
     2
1070
    44
1040
1.0
1070
    42
1040
1.0
1070
   147
1040
0.0
1070
   140
1040
2.777777777777778
1070
    41
1040
0.9999999999999749
1070
   340
1005
4E
1002
}
  0
DIMENSION
  5
1D1
330
1F
100
AcDbEntity
  8
D-STR-DIM
  6
Continuous
 62
     5
370
    13
100
AcDbDimension
  2
*D16
 10
95.2890644
 20
120.2852126
 30
0.0
 11
92.7890644
 21
122.5352126
 31
0.0
 70
   160
  1
50
 71
     5
 42
5.0
  3
Standard
100
AcDbAlignedDimension
 13
90.2890644
 23
138.2852126
 33
0.0
 14
95.2890644
 24
138.2852126
 34
0.0
100
AcDbRotatedDimension
1001
ACAD
1000
DSTYLE
1002
{
1070
   271
1070
     2
1070
   178
1070
     5
1070
   177
1070
     5
1070
   176
1070
     5
1070
   289
1070
     3
1070
    77
1070
     1
1070
   174
1070
     1
1070
   172
1070
     1
1070
    73
1070
     0
1070
    74
1070
     0
1070
   173
1070
     1
1070
   279
1070
     2
1070
    44
1040
1.000000000000014
1070
    42
1040
1.0
1070
   147
1040
0.0
1070
   140
1040
2.777777777777778
1070
    41
1040
0.9999999999999749
1070
   340
1005
4E
1002
}
  0
DIMENSION
  5
1DE
330
1F
100
AcDbEntity
  8
D-STR-DIM
  6
Continuous
 62
     5
370
    13
100
AcDbDimension
  2
*D17
 10
147.2890644
 20
120.2852126
 30
0.0
 11
121.2890644
 21
122.5352126
 31
0.0
 70
   160
  1
520
 71
     5
 42
52.0
  3
Standard
100
AcDbAlignedDimension
 13
95.2890644
 23
138.2852126
 33
0.0
 14
147.2890644
 24
138.2852126
 34
0.0
100
AcDbRotatedDimension
1001
ACAD
1000
DSTYLE
1002
{
1070
   271
1070
     2
1070
   178
1070
     5
1070
   177
1070
     5
1070
   176
1070
     5
1070
   289
1070
     3
1070
    77
1070
     1
1070
   174
1070
     1
1070
   172
1070
     1
1070
    73
1070
     0
1070
    74
1070
     0
1070
   173
1070
     1
1070
   279
1070
     2
1070
    44
1040
1.000000000000014
1070
    42
1040
1.0
1070
   147
1040
0.0
1070
   140
1040
2.777777777777778
1070
    41
1040
0.9999999999999749
1070
   340
1005
4E
1002
}
  0
DIMENSION
  5
1EB
330
1F
100
AcDbEntity
  8
D-STR-DIM
  6
Continuous
 62
     5
370
    13
100
AcDbDimension
  2
*D18
 10
152.2890644
 20
120.2852126
 30
0.0
 11
149.7890644
 21
122.5352126
 31
0.0
 70
   160
  1
50
 71
     5
 42
5.0
  3
Standard
100
AcDbAlignedDimension
 13
147.2890644
 23
138.2852126
 33
0.0
 14
152.2890644
 24
138.2852126
 34
0.0
100
AcDbRotatedDimension
1001
ACAD
1000
DSTYLE
1002
{
1070
   271
1070
     2
1070
   178
1070
     5
1070
   177
1070
     5
1070
   176
1070
     5
1070
   289
1070
     3
1070
    77
1070
     1
1070
   174
1070
     1
1070
   172
1070
     1
1070
    73
1070
     0
1070
    74
1070
     0
1070
   173
1070
     1
1070
   279
1070
     2
1070
    44
1040
1.000000000000014
1070
    42
1040
1.0
1070
   147
1040
0.0
1070
   140
1040
2.777777777777778
1070
    41
1040
0.9999999999999749
1070
   340
1005
4E
1002
}
  0
DIMENSION
  5
1F8
330
1F
100
AcDbEntity
  8
D-STR-DIM
  6
Continuous
 62
     5
370
    13
100
AcDbDimension
  2
*D19
 10
152.2890644
 20
112.2852126
 30
0.0
 11
121.2890644
 21
114.5352126
 31
0.0
 70
   160
  1
620
 71
     5
 42
62.0
  3
Standard
100
AcDbAlignedDimension
 13
90.2890644
 23
138.2852126
 33
0.0
 14
152.2890644
 24
138.2852126
 34
0.0
100
AcDbRotatedDimension
1001
ACAD
1000
DSTYLE
1002
{
1070
   271
1070
     2
1070
   178
1070
     5
1070
   177
1070
     5
1070
   176
1070
     5
1070
   289
1070
     3
1070
    77
1070
     1
1070
   174
1070
     1
1070
   172
1070
     1
1070
    73
1070
     0
1070
    74
1070
     0
1070
   173
1070
     1
1070
   279
1070
     2
1070
    44
1040
1.000000000000014
1070
    42
1040
1.0
1070
   147
1040
0.0
1070
   140
1040
2.777777777777778
1070
    41
1040
0.9999999999999749
1070
   340
1005
4E
1002
}
  0
LINE
  5
205
330
1F
100
AcDbEntity
  8
D-MTR-FRAM
  6
Continuous
 62
     7
370
    13
100
AcDbLine
 10
44.451458
 20
52.1837433
 30
0.0
 11
214.451458
 21
52.1837433
 31
0.0
  0
LINE
  5
206
330
1F
100
AcDbEntity
  8
D-MTR-FRAM
  6
Continuous
 62
     7
370
    13
100
AcDbLine
 10
44.451458
 20
62.1837433
 30
0.0
 11
214.451458
 21
62.1837433
 31
0.0
  0
LINE
  5
207
330
1F
100
AcDbEntity
  8
D-MTR-FRAM
  6
Continuous
 62
     7
370
    13
100
AcDbLine
 10
44.451458
 20
72.1837433
 30
0.0
 11
214.451458
 21
72.1837433
 31
0.0
  0
TEXT
  5
208
330
1F
100
AcDbEntity
  8
D-STR-DIM
  6
Continuous
 62
     5
370
    13
100
AcDbText
 10
174.9733847494449
 20
66.39772937499997
 30
0.0
 40
2.777777777777778
  1
　
 50
0.000017
 41
0.8000000000000002
  7
ＭＳ ゴシック
 11
174.9733849
 21
65.89030749999999
 31
0.0
100
AcDbText
 73
     1
  0
LINE
  5
209
330
1F
100
AcDbEntity
  8
D-MTR-FRAM
  6
Continuous
 62
     7
370
    13
100
AcDbLine
 10
44.451458
 20
82.1837433
 30
0.0
 11
214.451458
 21
82.1837433
 31
0.0
  0
LINE
  5
20A
330
1F
100
AcDbEntity
  8
D-MTR-FRAM
  6
Continuous
 62
     7
370
    13
100
AcDbLine
 10
114.451458
 20
102.1837433
 30
0.0
 11
114.451458
 21
32.1837433
 31
0.0
  0
LINE
  5
20B
330
1F
100
AcDbEntity
  8
D-MTR-FRAM
  6
Continuous
 62
     7
370
    13
100
AcDbLine
 10
79.451458
 20
102.1837433
 30
0.0
 11
79.451458
 21
32.1837433
 31
0.0
  0
LINE
  5
20C
330
1F
100
AcDbEntity
  8
D-MTR-FRAM
  6
Continuous
 62
     7
370
    13
100
AcDbLine
 10
139.451458
 20
102.1837433
 30
0.0
 11
139.451458
 21
32.1837433
 31
0.0
  0
LINE
  5
20D
330
1F
100
AcDbEntity
  8
D-MTR-FRAM
  6
Continuous
 62
     7
370
    13
100
AcDbLine
 10
154.451458
 20
102.1837433
 30
0.0
 11
154.451458
 21
32.1837433
 31
0.0
  0
TEXT
  5
20E
330
1F
100
AcDbEntity
  8
D-MTR-TXT
  6
Continuous
 62
     7
370
    13
100
AcDbText
 10
144.9696331468629
 20
85.64945827499999
 30
0.0
 40
2.777777777777777
  1
個
 50
0.000006
 41
0.8000000000000003
  7
ＭＳ ゴシック
 11
144.9696332
 21
85.1420364
 31
0.0
100
AcDbText
 73
     1
  0
TEXT
  5
20F
330
1F
100
AcDbEntity
  8
D-MTR-TXT
  6
Continuous
 62
     7
370
    13
100
AcDbText
 10
86.51549389220612
 20
85.27272372477846
 30
0.0
 40
2.777777777777778
  1
φ300 L=2400
 41
0.8000000000000002
  7
ＭＳ ゴシック
 72
     1
 11
95.1821605588728
 21
86.66161261366734
 31
0.0
100
AcDbText
 73
     2
  0
TEXT
  5
210
330
1F
100
AcDbEntity
  8
D-MTR-TXT
  6
Continuous
 62
     7
370
    13
100
AcDbText
 10
49.868625
 20
85.79301047500002
 30
0.0
 40
2.777777777777778
  1
暗渠ブロック
 41
0.8000000000000002
  7
ＭＳ ゴシック
 11
49.868625
 21
85.28558860000001
 31
0.0
100
AcDbText
 73
     1
  0
TEXT
  5
211
330
1F
100
AcDbEntity
  8
D-MTR-TXT
  6
Continuous
 62
     7
370
    13
100
AcDbText
 10
84.202695002582
 20
65.83365567499999
 30
0.0
 40
2.777777777777778
  1
σck=18N/mm
 50
0.000011
 41
0.8000000000000002
  7
ＭＳ ゴシック
 11
84.20269510000001
 21
65.3262338
 31
0.0
100
AcDbText
 73
     1
  0
TEXT
  5
212
330
1F
100
AcDbEntity
  8
D-MTR-TXT
  6
Continuous
 62
     7
370
    13
100
AcDbText
 10
102.602694651291
 20
67.6799483375
 30
0.0
 40
1.388888888888889
  1
2
 50
0.000011
 41
0.8000000000000002
  7
ＭＳ ゴシック
 11
102.6026947
 21
67.4262374
 31
0.0
100
AcDbText
 73
     1
  0
TEXT
  5
213
330
1F
100
AcDbEntity
  8
D-MTR-TXT
  6
Continuous
 62
     7
370
    13
100
AcDbText
 10
84.39211620258199
 20
75.771415875
 30
0.0
 40
2.777777777777778
  1
1：3
 50
0.000011
 41
0.8000000000000002
  7
ＭＳ ゴシック
 11
84.3921163
 21
75.26399400000001
 31
0.0
100
AcDbText
 73
     1
  0
TEXT
  5
214
330
1F
100
AcDbEntity
  8
D-MTR-TXT
  6
Continuous
 62
     7
370
    13
100
AcDbText
 10
50.07517550258199
 20
56.22687047499999
 30
0.0
 40
2.777777777777778
  1
型 枠
 50
0.000011
 41
0.7999999999999999
  7
ＭＳ ゴシック
 11
50.0751756
 21
55.7194486
 31
0.0
100
AcDbText
 73
     1
  0
TEXT
  5
215
330
1F
100
AcDbEntity
  8
D-MTR-TXT
  6
Continuous
 62
     7
370
    13
100
AcDbText
 10
50.60414912222222
 20
45.86896601111112
 30
0.0
 40
2.777777777777778
  1
基礎砕石
 41
0.8000000000000002
  7
ＭＳ ゴシック
 72
     1
 11
56.3819269
 21
47.25785490000001
 31
0.0
100
AcDbText
 73
     2
  0
TEXT
  5
216
330
1F
100
AcDbEntity
  8
D-MTR-TXT
  6
Continuous
 62
     7
370
    13
100
AcDbText
 10
49.7825359
 20
75.90029947500001
 30
0.0
 40
2.777777777777778
  1
敷モルタル
 41
0.8000000000000002
  7
ＭＳ ゴシック
 11
49.7825359
 21
75.3928776
 31
0.0
100
AcDbText
 73
     1
  0
TEXT
  5
217
330
1F
100
AcDbEntity
  8
D-MTR-TXT
  6
Continuous
 62
     7
370
    13
100
AcDbText
 10
49.365168
 20
66.10245817500001
 30
0.0
 40
2.777777777777778
  1
コンクリート
 41
0.8000000000000002
  7
ＭＳ ゴシック
 11
49.365168
 21
65.5950363
 31
0.0
100
AcDbText
 73
     1
  0
TEXT
  5
218
330
1F
100
AcDbEntity
  8
D-MTR-TXT
  6
Continuous
 62
     7
370
    13
100
AcDbText
 10
85.35910228888889
 20
47.81969431111111
 30
0.0
 40
2.777777777777778
  1
RC-40
 41
0.8000000000000002
  7
ＭＳ ゴシック
 72
     1
 11
88.9702134
 21
49.2085832
 31
0.0
100
AcDbText
 73
     2
  0
TEXT
  5
219
330
1F
100
AcDbEntity
  8
D-MTR-TXT
  6
Continuous
 62
     7
370
    13
100
AcDbText
 10
86.26853476666668
 20
43.50023721111111
 30
0.0
 40
2.777777777777778
  1
t=10cm
 41
0.8000000000000002
  7
ＭＳ ゴシック
 72
     1
 11
90.6018681
 21
44.8891261
 31
0.0
100
AcDbText
 73
     2
  0
TEXT
  5
21A
330
1F
100
AcDbEntity
  8
D-MTR-TXT
  6
Continuous
 62
     7
370
    13
100
AcDbText
 10
122.9643799
 20
85.60650557500001
 30
0.0
 40
2.777777777777778
  1
4.1
 41
0.8000000000000002
  7
ＭＳ ゴシック
 11
122.9643799
 21
85.09908370000001
 31
0.0
100
AcDbText
 73
     1
  0
TEXT
  5
21B
330
1F
100
AcDbEntity
  8
D-MTR-TXT
  6
Continuous
 62
     7
370
    13
100
AcDbText
 10
123.3876154
 20
75.764321975
 30
0.0
 40
2.777777777777778
  1
0.042
 41
0.8000000000000002
  7
ＭＳ ゴシック
 11
123.3876154
 21
75.2569001
 31
0.0
100
AcDbText
 73
     1
  0
TEXT
  5
21C
330
1F
100
AcDbEntity
  8
D-MTR-TXT
  6
Continuous
 62
     7
370
    13
100
AcDbText
 10
123.4036538
 20
65.60968807500001
 30
0.0
 40
2.777777777777778
  1
0.520
 41
0.8000000000000002
  7
ＭＳ ゴシック
 11
123.4036538
 21
65.1022662
 31
0.0
100
AcDbText
 73
     1
  0
TEXT
  5
21D
330
1F
100
AcDbEntity
  8
D-MTR-TXT
  6
Continuous
 62
     7
370
    13
100
AcDbText
 10
123.401883
 20
55.923729575
 30
0.0
 40
2.777777777777778
  1
2.00
 41
0.8000000000000002
  7
ＭＳ ゴシック
 11
123.401883
 21
55.4163077
 31
0.0
100
AcDbText
 73
     1
  0
TEXT
  5
21E
330
1F
100
AcDbEntity
  8
D-MTR-TXT
  6
Continuous
 62
     7
370
    13
100
AcDbText
 10
123.3519367
 20
46.237771075
 30
0.0
 40
2.777777777777778
  1
6.20
 41
0.8000000000000002
  7
ＭＳ ゴシック
 11
123.3519367
 21
45.73034920000001
 31
0.0
100
AcDbText
 73
     1
  0
TEXT
  5
21F
330
1F
100
AcDbEntity
  8
D-MTR-TXT
  6
Continuous
 62
     7
370
    13
100
AcDbText
 10
159.7379
 20
75.918680275
 30
0.0
 40
2.777777777777778
  1
0.42*0.01*10.0
 41
0.8000000000000002
  7
ＭＳ ゴシック
 11
159.7379
 21
75.4112584
 31
0.0
100
AcDbText
 73
     1
  0
TEXT
  5
220
330
1F
100
AcDbEntity
  8
D-MTR-TXT
  6
Continuous
 62
     7
370
    13
100
AcDbText
 10
159.8711277
 20
65.65222477500001
 30
0.0
 40
2.777777777777778
  1
0.52*0.10*10.0
 41
0.8000000000000002
  7
ＭＳ ゴシック
 11
159.8711277
 21
65.1448029
 31
0.0
100
AcDbText
 73
     1
  0
TEXT
  5
221
330
1F
100
AcDbEntity
  8
D-MTR-TXT
  6
Continuous
 62
     7
370
    13
100
AcDbText
 10
160.0043555
 20
55.652224775
 30
0.0
 40
2.777777777777778
  1
0.10*2*10.0
 41
0.8000000000000002
  7
ＭＳ ゴシック
 11
160.0043555
 21
55.1448029
 31
0.0
100
AcDbText
 73
     1
  0
TEXT
  5
222
330
1F
100
AcDbEntity
  8
D-MTR-TXT
  6
Continuous
 62
     7
370
    13
100
AcDbText
 10
160.1375832
 20
45.464572075
 30
0.0
 40
2.777777777777778
  1
0.62*10.0
 41
0.8000000000000002
  7
ＭＳ ゴシック
 11
160.1375832
 21
44.9571502
 31
0.0
100
AcDbText
 73
     1
  0
TEXT
  5
223
330
1F
100
AcDbEntity
  8
D-MTR-TXT
  6
Continuous
 62
     7
370
    13
100
AcDbText
 10
145.8454299
 20
66.38911607500002
 30
0.0
 40
2.777777777777778
  1
m
 41
0.8000000000000002
  7
ＭＳ ゴシック
 11
145.8454299
 21
65.88169420000001
 31
0.0
100
AcDbText
 73
     1
  0
TEXT
  5
224
330
1F
100
AcDbEntity
  8
D-MTR-TXT
  6
Continuous
 62
     7
370
    13
100
AcDbText
 10
147.5454299
 20
68.23540513750001
 30
0.0
 40
1.388888888888889
  1
3
 41
0.8000000000000002
  7
ＭＳ ゴシック
 11
147.5454299
 21
67.9816942
 31
0.0
100
AcDbText
 73
     1
  0
TEXT
  5
225
330
1F
100
AcDbEntity
  8
D-MTR-TXT
  6
Continuous
 62
     7
370
    13
100
AcDbText
 10
145.6010418
 20
56.474857875
 30
0.0
 40
2.777777777777778
  1
m
 41
0.8000000000000002
  7
ＭＳ ゴシック
 11
145.6010418
 21
55.967436
 31
0.0
100
AcDbText
 73
     1
  0
TEXT
  5
226
330
1F
100
AcDbEntity
  8
D-MTR-TXT
  6
Continuous
 62
     7
370
    13
100
AcDbText
 10
147.3010418
 20
58.3211469375
 30
0.0
 40
1.388888888888889
  1
2
 41
0.8000000000000002
  7
ＭＳ ゴシック
 11
147.3010418
 21
58.067436
 31
0.0
100
AcDbText
 73
     1
  0
TEXT
  5
227
330
1F
100
AcDbEntity
  8
D-MTR-TXT
  6
Continuous
 62
     7
370
    13
100
AcDbText
 10
145.8454299
 20
76.38911607500002
 30
0.0
 40
2.777777777777778
  1
m
 41
0.8000000000000002
  7
ＭＳ ゴシック
 11
145.8454299
 21
75.88169420000001
 31
0.0
100
AcDbText
 73
     1
  0
TEXT
  5
228
330
1F
100
AcDbEntity
  8
D-MTR-TXT
  6
Continuous
 62
     7
370
    13
100
AcDbText
 10
147.5454299
 20
78.23540513750001
 30
0.0
 40
1.388888888888889
  1
3
 41
0.8000000000000002
  7
ＭＳ ゴシック
 11
147.5454299
 21
77.9816942
 31
0.0
100
AcDbText
 73
     1
  0
TEXT
  5
229
330
1F
100
AcDbEntity
  8
D-MTR-TXT
  6
Continuous
 62
     7
370
    13
100
AcDbText
 10
145.6010418
 20
46.474857875
 30
0.0
 40
2.777777777777778
  1
m
 41
0.8000000000000002
  7
ＭＳ ゴシック
 11
145.6010418
 21
45.967436
 31
0.0
100
AcDbText
 73
     1
  0
TEXT
  5
22A
330
1F
100
AcDbEntity
  8
D-MTR-TXT
  6
Continuous
 62
     7
370
    13
100
AcDbText
 10
147.3010418
 20
48.3211469375
 30
0.0
 40
1.388888888888889
  1
2
 41
0.8000000000000002
  7
ＭＳ ゴシック
 11
147.3010418
 21
48.067436
 31
0.0
100
AcDbText
 73
     1
  0
TEXT
  5
22B
330
1F
100
AcDbEntity
  8
D-TTL-TXT
  6
Continuous
 62
     7
370
    13
100
AcDbText
 10
23.55308219178082
 20
271.2500464539741
 30
0.0
 40
3.968253968253968
  1
別図１６　横断暗渠標準構造図 （第１５条第１項第６号関係）
 41
0.8000000000000002
  7
ＭＳ ゴシック
 11
23.55308219178082
 21
270.5251580611169
 31
0.0
100
AcDbText
 73
     1
  0
LINE
  5
22C
330
1F
100
AcDbEntity
  8
D-TTL
  6
Continuous
 62
     7
370
    13
100
AcDbLine
 10
152.2890644
 20
143.2852126
 30
0.0
 11
90.28906439999999
 21
143.2852126
 31
0.0
  0
DIMENSION
  5
22D
330
1F
100
AcDbEntity
  8
D-STR-DIM
  6
Continuous
 62
     5
370
    13
100
AcDbDimension
  2
*D20
 10
170.2937925778489
 20
153.2852126
 30
0.0
 11
168.5437925778489
 21
148.2758497140156
 31
0.0
 70
   160
  1
100
 71
     5
 42
10.0
 53
90.0
  3
Standard
100
AcDbAlignedDimension
 13
152.2890644
 23
143.2852126
 33
0.0
 14
152.2890644
 24
153.2852126
 34
0.0
 50
90.0
100
AcDbRotatedDimension
1001
ACAD
1000
DSTYLE
1002
{
1070
   271
1070
     2
1070
   178
1070
     5
1070
   177
1070
     5
1070
   176
1070
     5
1070
   289
1070
     3
1070
    77
1070
     1
1070
   174
1070
     1
1070
   172
1070
     1
1070
    73
1070
     1
1070
    74
1070
     0
1070
   173
1070
     1
1070
   279
1070
     2
1070
    44
1040
1.0
1070
    42
1040
5.0
1070
   147
1040
0.0
1070
   140
1040
2.777777777777778
1070
    41
1040
1.0
1070
   340
1005
4E
1070
   344
1005
8A
1070
   343
1005
8A
1002
}
  0
TEXT
  5
23A
330
1F
100
AcDbEntity
  8
D-MTR-TXT
  6
Continuous
 62
     7
370
    13
100
AcDbText
 10
159.3659017289154
 20
85.2184432230076
 30
0.0
 40
2.777777777777778
  1
T-25
 41
0.8000000000000002
  7
ＭＳ ゴシック
 11
159.3659017289154
 21
84.71102134800759
 31
0.0
100
AcDbText
 73
     1
  0
ENDSEC
  0
SECTION
  2
OBJECTS
  0
DICTIONARY
  5
C
330
0
100
AcDbDictionary
281
     1
  3
ACAD_GROUP
350
D
  3
ACAD_LAYOUT
350
1A
  3
ACAD_MATERIAL
350
3B
  3
ACAD_MLEADERSTYLE
350
25F
  3
ACAD_MLINESTYLE
350
17
  3
ACAD_PLOTSETTINGS
350
19
  3
ACAD_PLOTSTYLENAME
350
E
  3
ACAD_SCALELIST
350
23B
  3
ACAD_VISUALSTYLE
350
2A
  3
AcDbVariableDictionary
350
25D
  0
DICTIONARY
  5
D
102
{ACAD_REACTORS
330
C
102
}
330
C
100
AcDbDictionary
281
     1
  0
DICTIONARY
  5
1A
102
{ACAD_REACTORS
330
C
102
}
330
C
100
AcDbDictionary
281
     1
  3
Layout1
350
1E
  3
Layout2
350
26
  3
Model
350
22
  0
DICTIONARY
  5
3B
102
{ACAD_REACTORS
330
C
102
}
330
C
100
AcDbDictionary
281
     1
  3
ByBlock
350
3D
  3
ByLayer
350
3C
  3
Global
350
3E
  0
DICTIONARY
  5
25F
102
{ACAD_REACTORS
330
C
102
}
330
C
100
AcDbDictionary
281
     1
  0
DICTIONARY
  5
17
102
{ACAD_REACTORS
330
C
102
}
330
C
100
AcDbDictionary
281
     1
  3
Standard
350
18
  0
DICTIONARY
  5
19
102
{ACAD_REACTORS
330
C
102
}
330
C
100
AcDbDictionary
281
     1
  0
ACDBDICTIONARYWDFLT
  5
E
102
{ACAD_REACTORS
330
C
102
}
330
C
100
AcDbDictionary
281
     1
  3
Normal
350
F
100
AcDbDictionaryWithDefault
340
F
  0
DICTIONARY
  5
23B
102
{ACAD_REACTORS
330
C
102
}
330
C
100
AcDbDictionary
281
     1
  3
A0
350
23C
  3
A1
350
23D
  3
A2
350
23E
  3
A3
350
23F
  3
A4
350
240
  3
A5
350
241
  3
A6
350
242
  3
A7
350
243
  3
A8
350
244
  3
A9
350
245
  3
B0
350
246
  3
B1
350
247
  3
B2
350
248
  3
B3
350
249
  3
B4
350
24A
  3
B5
350
24B
  3
B6
350
24C
  3
B7
350
24D
  3
B8
350
24E
  3
B9
350
24F
  3
C0
350
250
  3
C1
350
251
  3
C2
350
252
  3
C3
350
253
  3
C4
350
254
  3
C5
350
255
  3
C6
350
256
  3
C7
350
257
  3
C8
350
258
  3
C9
350
259
  3
D0
350
25A
  3
D1
350
25B
  3
D2
350
25C
  0
DICTIONARY
  5
2A
102
{ACAD_REACTORS
330
C
102
}
330
C
100
AcDbDictionary
281
     1
  3
2dWireframe
350
2F
  3
3D Hidden
350
31
  3
3dWireframe
350
30
  3
Basic
350
32
  3
Brighten
350
36
  3
ColorChange
350
3A
  3
Conceptual
350
34
  3
Dim
350
35
  3
Facepattern
350
39
  3
Flat
350
2B
  3
FlatWithEdges
350
2C
  3
Gouraud
350
2D
  3
GouraudWithEdges
350
2E
  3
Linepattern
350
38
  3
Realistic
350
33
  3
Thicken
350
37
  0
DICTIONARY
  5
25D
102
{ACAD_REACTORS
330
C
102
}
330
C
100
AcDbDictionary
281
     1
  3
CANNOSCALE
350
260
  3
DIMASSOC
350
261
  3
HIDETEXT
350
262
  0
LAYOUT
  5
1E
102
{ACAD_REACTORS
330
1A
102
}
330
1A
100
AcDbPlotSettings
  1

  2
none_device
  4

  6

 40
0.0
 41
0.0
 42
0.0
 43
0.0
 44
0.0
 45
0.0
 46
0.0
 47
0.0
 48
0.0
 49
0.0
140
0.0
141
0.0
142
1.0
143
1.0
 70
   688
 72
     0
 73
     0
 74
     5
  7

 75
    16
147
1.0
148
0.0
149
0.0
100
AcDbLayout
  1
Layout1
 70
     1
 71
     1
 10
0.0
 20
0.0
 11
12.0
 21
9.0
 12
0.0
 22
0.0
 32
0.0
 14
1.000000000000000E+20
 24
1.000000000000000E+20
 34
1.000000000000000E+20
 15
-1.000000000000000E+20
 25
-1.000000000000000E+20
 35
-1.000000000000000E+20
146
0.0
 13
0.0
 23
0.0
 33
0.0
 16
1.0
 26
0.0
 36
0.0
 17
0.0
 27
1.0
 37
0.0
 76
     0
330
1B
  0
LAYOUT
  5
26
102
{ACAD_REACTORS
330
1A
102
}
330
1A
100
AcDbPlotSettings
  1

  2
none_device
  4

  6

 40
0.0
 41
0.0
 42
0.0
 43
0.0
 44
0.0
 45
0.0
 46
0.0
 47
0.0
 48
0.0
 49
0.0
140
0.0
141
0.0
142
1.0
143
1.0
 70
   688
 72
     0
 73
     0
 74
     5
  7

 75
    16
147
1.0
148
0.0
149
0.0
100
AcDbLayout
  1
Layout2
 70
     1
 71
     2
 10
0.0
 20
0.0
 11
0.0
 21
0.0
 12
0.0
 22
0.0
 32
0.0
 14
0.0
 24
0.0
 34
0.0
 15
0.0
 25
0.0
 35
0.0
146
0.0
 13
0.0
 23
0.0
 33
0.0
 16
1.0
 26
0.0
 36
0.0
 17
0.0
 27
1.0
 37
0.0
 76
     0
330
23
  0
LAYOUT
  5
22
102
{ACAD_REACTORS
330
1A
102
}
330
1A
100
AcDbPlotSettings
  1

  2
none_device
  4

  6

 40
0.0
 41
0.0
 42
0.0
 43
0.0
 44
0.0
 45
0.0
 46
0.0
 47
0.0
 48
0.0
 49
0.0
140
0.0
141
0.0
142
1.0
143
1.0
 70
  1712
 72
     0
 73
     0
 74
     0
  7

 75
     0
147
1.0
148
0.0
149
0.0
100
AcDbLayout
  1
Model
 70
     1
 71
     0
 10
23.55308219178082
 20
32.1837433
 11
214.451458
 21
275.5251580611169
 12
0.0
 22
0.0
 32
0.0
 14
23.55308219178082
 24
32.1837433
 34
0.0
 15
214.451458
 25
275.5251580611169
 35
0.0
146
0.0
 13
0.0
 23
0.0
 33
0.0
 16
1.0
 26
0.0
 36
0.0
 17
0.0
 27
1.0
 37
0.0
 76
     0
330
1F
331
29
  0
MATERIAL
  5
3D
102
{ACAD_REACTORS
330
3B
102
}
102
{ACAD_XDICTIONARY
360
285
102
}
330
3B
100
AcDbMaterial
  1
ByBlock
  0
MATERIAL
  5
3C
102
{ACAD_REACTORS
330
3B
102
}
102
{ACAD_XDICTIONARY
360
283
102
}
330
3B
100
AcDbMaterial
  1
ByLayer
  0
MATERIAL
  5
3E
102
{ACAD_REACTORS
330
3B
102
}
102
{ACAD_XDICTIONARY
360
287
102
}
330
3B
100
AcDbMaterial
  1
Global
  0
MLINESTYLE
  5
18
102
{ACAD_REACTORS
330
17
102
}
330
17
100
AcDbMlineStyle
  2
Standard
 70
     0
  3

 62
   256
 51
90.0
 52
90.0
 71
     2
 49
0.5
 62
   256
  6
BYLAYER
 49
-0.5
 62
   256
  6
BYLAYER
  0
ACDBPLACEHOLDER
  5
F
102
{ACAD_REACTORS
330
E
102
}
330
E
  0
SCALE
  5
23C
102
{ACAD_REACTORS
330
23B
102
}
330
23B
100
AcDbScale
 70
     0
300
1:1
140
1.0
141
1.0
290
     1
  0
SCALE
  5
23D
102
{ACAD_REACTORS
330
23B
102
}
330
23B
100
AcDbScale
 70
     0
300
1:2
140
1.0
141
2.0
290
     0
  0
SCALE
  5
23E
102
{ACAD_REACTORS
330
23B
102
}
330
23B
100
AcDbScale
 70
     0
300
1:4
140
1.0
141
4.0
290
     0
  0
SCALE
  5
23F
102
{ACAD_REACTORS
330
23B
102
}
330
23B
100
AcDbScale
 70
     0
300
1:5
140
1.0
141
5.0
290
     0
  0
SCALE
  5
240
102
{ACAD_REACTORS
330
23B
102
}
330
23B
100
AcDbScale
 70
     0
300
1:8
140
1.0
141
8.0
290
     0
  0
SCALE
  5
241
102
{ACAD_REACTORS
330
23B
102
}
330
23B
100
AcDbScale
 70
     0
300
1:10
140
1.0
141
10.0
290
     0
  0
SCALE
  5
242
102
{ACAD_REACTORS
330
23B
102
}
330
23B
100
AcDbScale
 70
     0
300
1:16
140
1.0
141
16.0
290
     0
  0
SCALE
  5
243
102
{ACAD_REACTORS
330
23B
102
}
330
23B
100
AcDbScale
 70
     0
300
1:20
140
1.0
141
20.0
290
     0
  0
SCALE
  5
244
102
{ACAD_REACTORS
330
23B
102
}
330
23B
100
AcDbScale
 70
     0
300
1:30
140
1.0
141
30.0
290
     0
  0
SCALE
  5
245
102
{ACAD_REACTORS
330
23B
102
}
330
23B
100
AcDbScale
 70
     0
300
1:40
140
1.0
141
40.0
290
     0
  0
SCALE
  5
246
102
{ACAD_REACTORS
330
23B
102
}
330
23B
100
AcDbScale
 70
     0
300
1:50
140
1.0
141
50.0
290
     0
  0
SCALE
  5
247
102
{ACAD_REACTORS
330
23B
102
}
330
23B
100
AcDbScale
 70
     0
300
1:100
140
1.0
141
100.0
290
     0
  0
SCALE
  5
248
102
{ACAD_REACTORS
330
23B
102
}
330
23B
100
AcDbScale
 70
     0
300
2:1
140
2.0
141
1.0
290
     0
  0
SCALE
  5
249
102
{ACAD_REACTORS
330
23B
102
}
330
23B
100
AcDbScale
 70
     0
300
4:1
140
4.0
141
1.0
290
     0
  0
SCALE
  5
24A
102
{ACAD_REACTORS
330
23B
102
}
330
23B
100
AcDbScale
 70
     0
300
8:1
140
8.0
141
1.0
290
     0
  0
SCALE
  5
24B
102
{ACAD_REACTORS
330
23B
102
}
330
23B
100
AcDbScale
 70
     0
300
10:1
140
10.0
141
1.0
290
     0
  0
SCALE
  5
24C
102
{ACAD_REACTORS
330
23B
102
}
330
23B
100
AcDbScale
 70
     0
300
100:1
140
100.0
141
1.0
290
     0
  0
SCALE
  5
24D
102
{ACAD_REACTORS
330
23B
102
}
330
23B
100
AcDbScale
 70
     0
300
1/128" = 1'-0"
140
0.0078125
141
12.0
290
     0
  0
SCALE
  5
24E
102
{ACAD_REACTORS
330
23B
102
}
330
23B
100
AcDbScale
 70
     0
300
1/64" = 1'-0"
140
0.015625
141
12.0
290
     0
  0
SCALE
  5
24F
102
{ACAD_REACTORS
330
23B
102
}
330
23B
100
AcDbScale
 70
     0
300
1/32" = 1'-0"
140
0.03125
141
12.0
290
     0
  0
SCALE
  5
250
102
{ACAD_REACTORS
330
23B
102
}
330
23B
100
AcDbScale
 70
     0
300
1/16" = 1'-0"
140
0.0625
141
12.0
290
     0
  0
SCALE
  5
251
102
{ACAD_REACTORS
330
23B
102
}
330
23B
100
AcDbScale
 70
     0
300
3/32" = 1'-0"
140
0.09375
141
12.0
290
     0
  0
SCALE
  5
252
102
{ACAD_REACTORS
330
23B
102
}
330
23B
100
AcDbScale
 70
     0
300
1/8" = 1'-0"
140
0.125
141
12.0
290
     0
  0
SCALE
  5
253
102
{ACAD_REACTORS
330
23B
102
}
330
23B
100
AcDbScale
 70
     0
300
3/16" = 1'-0"
140
0.1875
141
12.0
290
     0
  0
SCALE
  5
254
102
{ACAD_REACTORS
330
23B
102
}
330
23B
100
AcDbScale
 70
     0
300
1/4" = 1'-0"
140
0.25
141
12.0
290
     0
  0
SCALE
  5
255
102
{ACAD_REACTORS
330
23B
102
}
330
23B
100
AcDbScale
 70
     0
300
3/8" = 1'-0"
140
0.375
141
12.0
290
     0
  0
SCALE
  5
256
102
{ACAD_REACTORS
330
23B
102
}
330
23B
100
AcDbScale
 70
     0
300
1/2" = 1'-0"
140
0.5
141
12.0
290
     0
  0
SCALE
  5
257
102
{ACAD_REACTORS
330
23B
102
}
330
23B
100
AcDbScale
 70
     0
300
3/4" = 1'-0"
140
0.75
141
12.0
290
     0
  0
SCALE
  5
258
102
{ACAD_REACTORS
330
23B
102
}
330
23B
100
AcDbScale
 70
     0
300
1" = 1'-0"
140
1.0
141
12.0
290
     0
  0
SCALE
  5
259
102
{ACAD_REACTORS
330
23B
102
}
330
23B
100
AcDbScale
 70
     0
300
1-1/2" = 1'-0"
140
1.5
141
12.0
290
     0
  0
SCALE
  5
25A
102
{ACAD_REACTORS
330
23B
102
}
330
23B
100
AcDbScale
 70
     0
300
3" = 1'-0"
140
3.0
141
12.0
290
     0
  0
SCALE
  5
25B
102
{ACAD_REACTORS
330
23B
102
}
330
23B
100
AcDbScale
 70
     0
300
6" = 1'-0"
140
6.0
141
12.0
290
     0
  0
SCALE
  5
25C
102
{ACAD_REACTORS
330
23B
102
}
330
23B
100
AcDbScale
 70
     0
300
1'-0" = 1'-0"
140
12.0
141
12.0
290
     0
  0
VISUALSTYLE
  5
2F
102
{ACAD_REACTORS
330
2A
102
}
102
{ACAD_XDICTIONARY
360
26B
102
}
330
2A
100
AcDbVisualStyle
  2
2dWireframe
 70
     4
 71
     0
 72
     2
 73
     0
 90
        0
 40
-0.6
 41
-30.0
 62
     5
 63
     7
 74
     1
 91
        4
 64
     7
 65
   257
 75
     1
175
     1
 42
1.0
 92
        0
 66
   257
 43
1.0
 76
     1
 77
     6
 78
     2
 67
     7
 79
     5
170
     0
171
     0
290
     0
174
     0
 93
        1
 44
0.0
173
     0
291
     0
 45
0.0
1001
ACAD
1000
AcDbSavedByObjectVersion
1070
     0
  0
VISUALSTYLE
  5
31
102
{ACAD_REACTORS
330
2A
102
}
102
{ACAD_XDICTIONARY
360
26F
102
}
330
2A
100
AcDbVisualStyle
  2
3D Hidden
 70
     6
 71
     1
 72
     2
 73
     2
 90
        0
 40
-0.6
 41
-30.0
 62
     5
 63
     7
 74
     2
 91
        2
 64
     7
 65
   257
 75
     2
175
     1
 42
40.0
 92
        0
 66
   257
 43
1.0
 76
     1
 77
     6
 78
     2
 67
     7
 79
     3
170
     0
171
     0
290
     0
174
     0
 93
        1
 44
0.0
173
     0
291
     0
 45
0.0
1001
ACAD
1000
AcDbSavedByObjectVersion
1070
     0
  0
VISUALSTYLE
  5
30
102
{ACAD_REACTORS
330
2A
102
}
102
{ACAD_XDICTIONARY
360
26D
102
}
330
2A
100
AcDbVisualStyle
  2
3dWireframe
 70
     5
 71
     0
 72
     2
 73
     0
 90
        0
 40
-0.6
 41
-30.0
 62
     5
 63
     7
 74
     1
 91
        4
 64
     7
 65
   257
 75
     1
175
     1
 42
1.0
 92
        0
 66
   257
 43
1.0
 76
     1
 77
     6
 78
     2
 67
     7
 79
     5
170
     0
171
     0
290
     0
174
     0
 93
        1
 44
0.0
173
     0
291
     0
 45
0.0
1001
ACAD
1000
AcDbSavedByObjectVersion
1070
     0
  0
VISUALSTYLE
  5
32
102
{ACAD_REACTORS
330
2A
102
}
102
{ACAD_XDICTIONARY
360
271
102
}
330
2A
100
AcDbVisualStyle
  2
Basic
 70
     7
 71
     1
 72
     0
 73
     1
 90
        0
 40
-0.6
 41
-30.0
 62
     5
 63
     7
 74
     0
 91
        4
 64
     7
 65
   257
 75
     1
175
     1
 42
1.0
 92
        8
 66
     7
 43
1.0
 76
     1
 77
     6
 78
     2
 67
     7
 79
     5
170
     0
171
     0
290
     0
174
     0
 93
        1
 44
0.0
173
     0
291
     1
 45
0.0
1001
ACAD
1000
AcDbSavedByObjectVersion
1070
     0
  0
VISUALSTYLE
  5
36
102
{ACAD_REACTORS
330
2A
102
}
102
{ACAD_XDICTIONARY
360
279
102
}
330
2A
100
AcDbVisualStyle
  2
Brighten
 70
    12
 71
     2
 72
     2
 73
     0
 90
        0
 40
-0.6
 41
-30.0
 62
     5
 63
     7
 74
     1
 91
        4
 64
     7
 65
   257
 75
     1
175
     1
 42
1.0
 92
        8
 66
     7
 43
1.0
 76
     1
 77
     6
 78
     2
 67
     7
 79
     5
170
     0
171
     0
290
     0
174
     0
 93
        1
 44
50.0
173
     0
291
     1
 45
0.0
1001
ACAD
1000
AcDbSavedByObjectVersion
1070
     0
  0
VISUALSTYLE
  5
3A
102
{ACAD_REACTORS
330
2A
102
}
102
{ACAD_XDICTIONARY
360
281
102
}
330
2A
100
AcDbVisualStyle
  2
ColorChange
 70
    16
 71
     2
 72
     2
 73
     3
 90
        0
 40
-0.6
 41
-30.0
 62
     5
 63
     8
 74
     1
 91
        4
 64
     7
 65
   257
 75
     1
175
     1
 42
1.0
 92
        8
 66
     8
 43
1.0
 76
     1
 77
     6
 78
     2
 67
     7
 79
     5
170
     0
171
     0
290
     0
174
     0
 93
        1
 44
0.0
173
     0
291
     1
 45
0.0
1001
ACAD
1000
AcDbSavedByObjectVersion
1070
     0
  0
VISUALSTYLE
  5
34
102
{ACAD_REACTORS
330
2A
102
}
102
{ACAD_XDICTIONARY
360
275
102
}
330
2A
100
AcDbVisualStyle
  2
Conceptual
 70
     9
 71
     3
 72
     2
 73
     0
 90
        0
 40
-0.6
 41
-30.0
 62
     5
 63
     7
 74
     2
 91
        2
 64
     7
 65
   257
 75
     1
175
     1
 42
40.0
 92
        8
 66
     7
 43
1.0
 76
     1
 77
     6
 78
     2
 67
     7
 79
     3
170
     0
171
     0
290
     0
174
     0
 93
        1
 44
0.0
173
     0
291
     0
 45
0.0
1001
ACAD
1000
AcDbSavedByObjectVersion
1070
     0
  0
VISUALSTYLE
  5
35
102
{ACAD_REACTORS
330
2A
102
}
102
{ACAD_XDICTIONARY
360
277
102
}
330
2A
100
AcDbVisualStyle
  2
Dim
 70
    11
 71
     2
 72
     2
 73
     0
 90
        0
 40
-0.6
 41
-30.0
 62
     5
 63
     7
 74
     1
 91
        4
 64
     7
 65
   257
 75
     1
175
     1
 42
1.0
 92
        8
 66
     7
 43
1.0
 76
     1
 77
     6
 78
     2
 67
     7
 79
     5
170
     0
171
     0
290
     0
174
     0
 93
        1
 44
-50.0
173
     0
291
     1
 45
0.0
1001
ACAD
1000
AcDbSavedByObjectVersion
1070
     0
  0
VISUALSTYLE
  5
39
102
{ACAD_REACTORS
330
2A
102
}
102
{ACAD_XDICTIONARY
360
27F
102
}
330
2A
100
AcDbVisualStyle
  2
Facepattern
 70
    15
 71
     2
 72
     2
 73
     0
 90
        0
 40
-0.6
 41
-30.0
 62
     5
 63
     7
 74
     1
 91
        4
 64
     7
 65
   257
 75
     1
175
     1
 42
1.0
 92
        8
 66
     7
 43
1.0
 76
     1
 77
     6
 78
     2
 67
     7
 79
     5
170
     0
171
     0
290
     0
174
     0
 93
        1
 44
0.0
173
     0
291
     1
 45
0.0
1001
ACAD
1000
AcDbSavedByObjectVersion
1070
     0
  0
VISUALSTYLE
  5
2B
102
{ACAD_REACTORS
330
2A
102
}
102
{ACAD_XDICTIONARY
360
263
102
}
330
2A
100
AcDbVisualStyle
  2
Flat
 70
     0
 71
     2
 72
     1
 73
     1
 90
        2
 40
-0.6
 41
30.0
 62
     5
 63
     7
 74
     0
 91
        4
 64
     7
 65
   257
 75
     1
175
     1
 42
1.0
 92
        8
 66
     7
 43
1.0
 76
     1
 77
     6
 78
     2
 67
     7
 79
     5
170
     0
171
     0
290
     0
174
     0
 93
       13
 44
0.0
173
     0
291
     1
 45
0.0
1001
ACAD
1000
AcDbSavedByObjectVersion
1070
     0
  0
VISUALSTYLE
  5
2C
102
{ACAD_REACTORS
330
2A
102
}
102
{ACAD_XDICTIONARY
360
265
102
}
330
2A
100
AcDbVisualStyle
  2
FlatWithEdges
 70
     1
 71
     2
 72
     1
 73
     1
 90
        2
 40
-0.6
 41
30.0
 62
     5
 63
     7
 74
     1
 91
        4
 64
     7
 65
   257
 75
     1
175
     1
 42
1.0
 92
        0
 66
   257
 43
1.0
 76
     1
 77
     6
 78
     2
 67
     7
 79
     5
170
     0
171
     0
290
     0
174
     0
 93
       13
 44
0.0
173
     0
291
     1
 45
0.0
1001
ACAD
1000
AcDbSavedByObjectVersion
1070
     0
  0
VISUALSTYLE
  5
2D
102
{ACAD_REACTORS
330
2A
102
}
102
{ACAD_XDICTIONARY
360
267
102
}
330
2A
100
AcDbVisualStyle
  2
Gouraud
 70
     2
 71
     2
 72
     2
 73
     1
 90
        2
 40
-0.6
 41
30.0
 62
     5
 63
     7
 74
     0
 91
        4
 64
     7
 65
   257
 75
     1
175
     1
 42
1.0
 92
        0
 66
     7
 43
1.0
 76
     1
 77
     6
 78
     2
 67
     7
 79
     5
170
     0
171
     0
290
     0
174
     0
 93
       13
 44
0.0
173
     0
291
     1
 45
0.0
1001
ACAD
1000
AcDbSavedByObjectVersion
1070
     0
  0
VISUALSTYLE
  5
2E
102
{ACAD_REACTORS
330
2A
102
}
102
{ACAD_XDICTIONARY
360
269
102
}
330
2A
100
AcDbVisualStyle
  2
GouraudWithEdges
 70
     3
 71
     2
 72
     2
 73
     1
 90
        2
 40
-0.6
 41
30.0
 62
     5
 63
     7
 74
     1
 91
        4
 64
     7
 65
   257
 75
     1
175
     1
 42
1.0
 92
        0
 66
   257
 43
1.0
 76
     1
 77
     6
 78
     2
 67
     7
 79
     5
170
     0
171
     0
290
     0
174
     0
 93
       13
 44
0.0
173
     0
291
     1
 45
0.0
1001
ACAD
1000
AcDbSavedByObjectVersion
1070
     0
  0
VISUALSTYLE
  5
38
102
{ACAD_REACTORS
330
2A
102
}
102
{ACAD_XDICTIONARY
360
27D
102
}
330
2A
100
AcDbVisualStyle
  2
Linepattern
 70
    14
 71
     2
 72
     2
 73
     0
 90
        0
 40
-0.6
 41
-30.0
 62
     5
 63
     7
 74
     1
 91
        4
 64
     7
 65
   257
 75
     7
175
     7
 42
1.0
 92
        8
 66
     7
 43
1.0
 76
     1
 77
     6
 78
     2
 67
     7
 79
     5
170
     0
171
     0
290
     0
174
     0
 93
        1
 44
0.0
173
     0
291
     1
 45
0.0
1001
ACAD
1000
AcDbSavedByObjectVersion
1070
     0
  0
VISUALSTYLE
  5
33
102
{ACAD_REACTORS
330
2A
102
}
102
{ACAD_XDICTIONARY
360
273
102
}
330
2A
100
AcDbVisualStyle
  2
Realistic
 70
     8
 71
     2
 72
     2
 73
     0
 90
        0
 40
-0.6
 41
-30.0
 62
     5
 63
     7
 74
     1
 91
        0
 64
     7
 65
   257
 75
     1
175
     1
 42
1.0
 92
        8
 66
     8
 43
1.0
 76
     1
 77
     6
 78
     2
 67
     7
 79
     5
170
     0
171
     0
290
     0
174
     0
 93
       13
 44
0.0
173
     0
291
     0
 45
0.0
1001
ACAD
1000
AcDbSavedByObjectVersion
1070
     0
  0
VISUALSTYLE
  5
37
102
{ACAD_REACTORS
330
2A
102
}
102
{ACAD_XDICTIONARY
360
27B
102
}
330
2A
100
AcDbVisualStyle
  2
Thicken
 70
    13
 71
     2
 72
     2
 73
     0
 90
        0
 40
-0.6
 41
-30.0
 62
     5
 63
     7
 74
     1
 91
        4
 64
     7
 65
   257
 75
     1
175
     1
 42
1.0
 92
       12
 66
     7
 43
1.0
 76
     1
 77
     6
 78
     2
 67
     7
 79
     5
170
     0
171
     0
290
     0
174
     0
 93
        1
 44
0.0
173
     0
291
     1
 45
0.0
1001
ACAD
1000
AcDbSavedByObjectVersion
1070
     0
  0
DICTIONARYVAR
  5
260
102
{ACAD_REACTORS
330
25D
102
}
330
25D
100
DictionaryVariables
280
     0
  1
1:1
  0
DICTIONARYVAR
  5
261
102
{ACAD_REACTORS
330
25D
102
}
330
25D
100
DictionaryVariables
280
     0
  1
2
  0
DICTIONARYVAR
  5
262
102
{ACAD_REACTORS
330
25D
102
}
330
25D
100
DictionaryVariables
280
     0
  1
1
  0
DICTIONARY
  5
285
330
3D
100
AcDbDictionary
280
     1
281
     1
  3
ACAD_XREC_ROUNDTRIP
360
286
  0
DICTIONARY
  5
283
330
3C
100
AcDbDictionary
280
     1
281
     1
  3
ACAD_XREC_ROUNDTRIP
360
284
  0
DICTIONARY
  5
287
330
3E
100
AcDbDictionary
280
     1
281
     1
  3
ACAD_XREC_ROUNDTRIP
360
288
  0
DICTIONARY
  5
26B
330
2F
100
AcDbDictionary
280
     1
281
     1
  3
ACAD_XREC_ROUNDTRIP
360
26C
  0
DICTIONARY
  5
26F
330
31
100
AcDbDictionary
280
     1
281
     1
  3
ACAD_XREC_ROUNDTRIP
360
270
  0
DICTIONARY
  5
26D
330
30
100
AcDbDictionary
280
     1
281
     1
  3
ACAD_XREC_ROUNDTRIP
360
26E
  0
DICTIONARY
  5
271
330
32
100
AcDbDictionary
280
     1
281
     1
  3
ACAD_XREC_ROUNDTRIP
360
272
  0
DICTIONARY
  5
279
330
36
100
AcDbDictionary
280
     1
281
     1
  3
ACAD_XREC_ROUNDTRIP
360
27A
  0
DICTIONARY
  5
281
330
3A
100
AcDbDictionary
280
     1
281
     1
  3
ACAD_XREC_ROUNDTRIP
360
282
  0
DICTIONARY
  5
275
330
34
100
AcDbDictionary
280
     1
281
     1
  3
ACAD_XREC_ROUNDTRIP
360
276
  0
DICTIONARY
  5
277
330
35
100
AcDbDictionary
280
     1
281
     1
  3
ACAD_XREC_ROUNDTRIP
360
278
  0
DICTIONARY
  5
27F
330
39
100
AcDbDictionary
280
     1
281
     1
  3
ACAD_XREC_ROUNDTRIP
360
280
  0
DICTIONARY
  5
263
330
2B
100
AcDbDictionary
280
     1
281
     1
  3
ACAD_XREC_ROUNDTRIP
360
264
  0
DICTIONARY
  5
265
330
2C
100
AcDbDictionary
280
     1
281
     1
  3
ACAD_XREC_ROUNDTRIP
360
266
  0
DICTIONARY
  5
267
330
2D
100
AcDbDictionary
280
     1
281
     1
  3
ACAD_XREC_ROUNDTRIP
360
268
  0
DICTIONARY
  5
269
330
2E
100
AcDbDictionary
280
     1
281
     1
  3
ACAD_XREC_ROUNDTRIP
360
26A
  0
DICTIONARY
  5
27D
330
38
100
AcDbDictionary
280
     1
281
     1
  3
ACAD_XREC_ROUNDTRIP
360
27E
  0
DICTIONARY
  5
273
330
33
100
AcDbDictionary
280
     1
281
     1
  3
ACAD_XREC_ROUNDTRIP
360
274
  0
DICTIONARY
  5
27B
330
37
100
AcDbDictionary
280
     1
281
     1
  3
ACAD_XREC_ROUNDTRIP
360
27C
  0
XRECORD
  5
286
102
{ACAD_REACTORS
330
285
102
}
330
285
100
AcDbXrecord
280
     1
102
MATERIAL
148
0.0
149
0.0
149
0.0
 93
        0
 94
      127
282
     0
 72
     1
 77
     1
171
     1
175
     1
179
     1
273
     0
  0
XRECORD
  5
284
102
{ACAD_REACTORS
330
283
102
}
330
283
100
AcDbXrecord
280
     1
102
MATERIAL
148
0.0
149
0.0
149
0.0
 93
        0
 94
      127
282
     0
 72
     1
 77
     1
171
     1
175
     1
179
     1
273
     0
  0
XRECORD
  5
288
102
{ACAD_REACTORS
330
287
102
}
330
287
100
AcDbXrecord
280
     1
102
MATERIAL
148
0.0
149
0.0
149
0.0
 93
        0
 94
      127
282
     0
 72
     1
 77
     1
171
     1
175
     1
179
     1
273
     0
  0
XRECORD
  5
26C
102
{ACAD_REACTORS
330
26B
102
}
330
26B
100
AcDbXrecord
280
     1
102
RTVSPropertyOp0
 70
     1
102
RTVSPropertyOp1
 70
     1
102
RTVSPropertyOp2
 70
     1
102
RTVSPropertyOp3
 70
     1
102
RTVSPropertyOp4
 70
     1
102
RTVSPropertyOp5
 70
     1
102
RTVSPropertyOp6
 70
     1
102
RTVSPropertyOp7
 70
     1
102
RTVSPropertyOp8
 70
     1
102
RTVSPropertyOp9
 70
     1
102
RTVSPropertyOp10
 70
     1
102
RTVSPropertyOp11
 70
     1
102
RTVSPropertyOp12
 70
     1
102
RTVSPropertyOp13
 70
     1
102
RTVSPropertyOp14
 70
     1
102
RTVSPropertyOp15
 70
     1
102
RTVSPropertyOp16
 70
     1
102
RTVSPropertyOp17
 70
     1
102
RTVSPropertyOp18
 70
     1
102
RTVSPropertyOp19
 70
     1
102
RTVSPropertyOp20
 70
     1
102
RTVSPropertyOp21
 70
     1
102
RTVSPropertyOp22
 70
     1
102
RTVSPropertyOp23
 70
     1
102
RTVSPropertyOp24
 70
     1
102
RTVSPropertyOp25
 70
     1
102
RTVSPropertyOp26
 70
     1
102
RTVSPropertyOp27
 70
     1
  0
XRECORD
  5
270
102
{ACAD_REACTORS
330
26F
102
}
330
26F
100
AcDbXrecord
280
     1
102
RTVSPropertyOp0
 70
     1
102
RTVSPropertyOp1
 70
     1
102
RTVSPropertyOp2
 70
     1
102
RTVSPropertyOp3
 70
     1
102
RTVSPropertyOp4
 70
     1
102
RTVSPropertyOp5
 70
     1
102
RTVSPropertyOp6
 70
     1
102
RTVSPropertyOp7
 70
     1
102
RTVSPropertyOp8
 70
     1
102
RTVSPropertyOp9
 70
     1
102
RTVSPropertyOp10
 70
     1
102
RTVSPropertyOp11
 70
     1
102
RTVSPropertyOp12
 70
     1
102
RTVSPropertyOp13
 70
     1
102
RTVSPropertyOp14
 70
     1
102
RTVSPropertyOp15
 70
     1
102
RTVSPropertyOp16
 70
     1
102
RTVSPropertyOp17
 70
     1
102
RTVSPropertyOp18
 70
     1
102
RTVSPropertyOp19
 70
     1
102
RTVSPropertyOp20
 70
     1
102
RTVSPropertyOp21
 70
     1
102
RTVSPropertyOp22
 70
     1
102
RTVSPropertyOp23
 70
     1
102
RTVSPropertyOp24
 70
     1
102
RTVSPropertyOp25
 70
     1
102
RTVSPropertyOp26
 70
     1
102
RTVSPropertyOp27
 70
     1
  0
XRECORD
  5
26E
102
{ACAD_REACTORS
330
26D
102
}
330
26D
100
AcDbXrecord
280
     1
102
RTVSPropertyOp0
 70
     1
102
RTVSPropertyOp1
 70
     1
102
RTVSPropertyOp2
 70
     1
102
RTVSPropertyOp3
 70
     1
102
RTVSPropertyOp4
 70
     1
102
RTVSPropertyOp5
 70
     1
102
RTVSPropertyOp6
 70
     1
102
RTVSPropertyOp7
 70
     1
102
RTVSPropertyOp8
 70
     1
102
RTVSPropertyOp9
 70
     1
102
RTVSPropertyOp10
 70
     1
102
RTVSPropertyOp11
 70
     1
102
RTVSPropertyOp12
 70
     1
102
RTVSPropertyOp13
 70
     1
102
RTVSPropertyOp14
 70
     1
102
RTVSPropertyOp15
 70
     1
102
RTVSPropertyOp16
 70
     1
102
RTVSPropertyOp17
 70
     1
102
RTVSPropertyOp18
 70
     1
102
RTVSPropertyOp19
 70
     1
102
RTVSPropertyOp20
 70
     1
102
RTVSPropertyOp21
 70
     1
102
RTVSPropertyOp22
 70
     1
102
RTVSPropertyOp23
 70
     1
102
RTVSPropertyOp24
 70
     1
102
RTVSPropertyOp25
 70
     1
102
RTVSPropertyOp26
 70
     1
102
RTVSPropertyOp27
 70
     1
  0
XRECORD
  5
272
102
{ACAD_REACTORS
330
271
102
}
330
271
100
AcDbXrecord
280
     1
102
RTVSPropertyOp0
 70
     1
102
RTVSPropertyOp1
 70
     1
102
RTVSPropertyOp2
 70
     1
102
RTVSPropertyOp3
 70
     1
102
RTVSPropertyOp4
 70
     1
102
RTVSPropertyOp5
 70
     1
102
RTVSPropertyOp6
 70
     1
102
RTVSPropertyOp7
 70
     1
102
RTVSPropertyOp8
 70
     1
102
RTVSPropertyOp9
 70
     1
102
RTVSPropertyOp10
 70
     1
102
RTVSPropertyOp11
 70
     1
102
RTVSPropertyOp12
 70
     1
102
RTVSPropertyOp13
 70
     1
102
RTVSPropertyOp14
 70
     1
102
RTVSPropertyOp15
 70
     1
102
RTVSPropertyOp16
 70
     1
102
RTVSPropertyOp17
 70
     1
102
RTVSPropertyOp18
 70
     1
102
RTVSPropertyOp19
 70
     1
102
RTVSPropertyOp20
 70
     1
102
RTVSPropertyOp21
 70
     1
102
RTVSPropertyOp22
 70
     1
102
RTVSPropertyOp23
 70
     1
102
RTVSPropertyOp24
 70
     1
102
RTVSPropertyOp25
 70
     1
102
RTVSPropertyOp26
 70
     1
102
RTVSPropertyOp27
 70
     1
  0
XRECORD
  5
27A
102
{ACAD_REACTORS
330
279
102
}
330
279
100
AcDbXrecord
280
     1
102
RTVSPropertyOp0
 70
     1
102
RTVSPropertyOp1
 70
     1
102
RTVSPropertyOp2
 70
     1
102
RTVSPropertyOp3
 70
     1
102
RTVSPropertyOp4
 70
     1
102
RTVSPropertyOp5
 70
     1
102
RTVSPropertyOp6
 70
     1
102
RTVSPropertyOp7
 70
     1
102
RTVSPropertyOp8
 70
     1
102
RTVSPropertyOp9
 70
     1
102
RTVSPropertyOp10
 70
     1
102
RTVSPropertyOp11
 70
     1
102
RTVSPropertyOp12
 70
     1
102
RTVSPropertyOp13
 70
     1
102
RTVSPropertyOp14
 70
     1
102
RTVSPropertyOp15
 70
     1
102
RTVSPropertyOp16
 70
     1
102
RTVSPropertyOp17
 70
     1
102
RTVSPropertyOp18
 70
     1
102
RTVSPropertyOp19
 70
     1
102
RTVSPropertyOp20
 70
     1
102
RTVSPropertyOp21
 70
     1
102
RTVSPropertyOp22
 70
     1
102
RTVSPropertyOp23
 70
     1
102
RTVSPropertyOp24
 70
     1
102
RTVSPropertyOp25
 70
     1
102
RTVSPropertyOp26
 70
     1
102
RTVSPropertyOp27
 70
     1
  0
XRECORD
  5
282
102
{ACAD_REACTORS
330
281
102
}
330
281
100
AcDbXrecord
280
     1
102
RTVSPropertyOp0
 70
     1
102
RTVSPropertyOp1
 70
     1
102
RTVSPropertyOp2
 70
     1
102
RTVSPropertyOp3
 70
     1
102
RTVSPropertyOp4
 70
     1
102
RTVSPropertyOp5
 70
     1
102
RTVSPropertyOp6
 70
     1
102
RTVSPropertyOp7
 70
     1
102
RTVSPropertyOp8
 70
     1
102
RTVSPropertyOp9
 70
     1
102
RTVSPropertyOp10
 70
     1
102
RTVSPropertyOp11
 70
     1
102
RTVSPropertyOp12
 70
     1
102
RTVSPropertyOp13
 70
     1
102
RTVSPropertyOp14
 70
     1
102
RTVSPropertyOp15
 70
     1
102
RTVSPropertyOp16
 70
     1
102
RTVSPropertyOp17
 70
     1
102
RTVSPropertyOp18
 70
     1
102
RTVSPropertyOp19
 70
     1
102
RTVSPropertyOp20
 70
     1
102
RTVSPropertyOp21
 70
     1
102
RTVSPropertyOp22
 70
     1
102
RTVSPropertyOp23
 70
     1
102
RTVSPropertyOp24
 70
     1
102
RTVSPropertyOp25
 70
     1
102
RTVSPropertyOp26
 70
     1
102
RTVSPropertyOp27
 70
     1
  0
XRECORD
  5
276
102
{ACAD_REACTORS
330
275
102
}
330
275
100
AcDbXrecord
280
     1
102
RTVSPropertyOp0
 70
     1
102
RTVSPropertyOp1
 70
     1
102
RTVSPropertyOp2
 70
     1
102
RTVSPropertyOp3
 70
     1
102
RTVSPropertyOp4
 70
     1
102
RTVSPropertyOp5
 70
     1
102
RTVSPropertyOp6
 70
     1
102
RTVSPropertyOp7
 70
     1
102
RTVSPropertyOp8
 70
     1
102
RTVSPropertyOp9
 70
     1
102
RTVSPropertyOp10
 70
     1
102
RTVSPropertyOp11
 70
     1
102
RTVSPropertyOp12
 70
     1
102
RTVSPropertyOp13
 70
     1
102
RTVSPropertyOp14
 70
     1
102
RTVSPropertyOp15
 70
     1
102
RTVSPropertyOp16
 70
     1
102
RTVSPropertyOp17
 70
     1
102
RTVSPropertyOp18
 70
     1
102
RTVSPropertyOp19
 70
     1
102
RTVSPropertyOp20
 70
     1
102
RTVSPropertyOp21
 70
     1
102
RTVSPropertyOp22
 70
     1
102
RTVSPropertyOp23
 70
     1
102
RTVSPropertyOp24
 70
     1
102
RTVSPropertyOp25
 70
     1
102
RTVSPropertyOp26
 70
     1
102
RTVSPropertyOp27
 70
     1
  0
XRECORD
  5
278
102
{ACAD_REACTORS
330
277
102
}
330
277
100
AcDbXrecord
280
     1
102
RTVSPropertyOp0
 70
     1
102
RTVSPropertyOp1
 70
     1
102
RTVSPropertyOp2
 70
     1
102
RTVSPropertyOp3
 70
     1
102
RTVSPropertyOp4
 70
     1
102
RTVSPropertyOp5
 70
     1
102
RTVSPropertyOp6
 70
     1
102
RTVSPropertyOp7
 70
     1
102
RTVSPropertyOp8
 70
     1
102
RTVSPropertyOp9
 70
     1
102
RTVSPropertyOp10
 70
     1
102
RTVSPropertyOp11
 70
     1
102
RTVSPropertyOp12
 70
     1
102
RTVSPropertyOp13
 70
     1
102
RTVSPropertyOp14
 70
     1
102
RTVSPropertyOp15
 70
     1
102
RTVSPropertyOp16
 70
     1
102
RTVSPropertyOp17
 70
     1
102
RTVSPropertyOp18
 70
     1
102
RTVSPropertyOp19
 70
     1
102
RTVSPropertyOp20
 70
     1
102
RTVSPropertyOp21
 70
     1
102
RTVSPropertyOp22
 70
     1
102
RTVSPropertyOp23
 70
     1
102
RTVSPropertyOp24
 70
     1
102
RTVSPropertyOp25
 70
     1
102
RTVSPropertyOp26
 70
     1
102
RTVSPropertyOp27
 70
     1
  0
XRECORD
  5
280
102
{ACAD_REACTORS
330
27F
102
}
330
27F
100
AcDbXrecord
280
     1
102
RTVSPropertyOp0
 70
     1
102
RTVSPropertyOp1
 70
     1
102
RTVSPropertyOp2
 70
     1
102
RTVSPropertyOp3
 70
     1
102
RTVSPropertyOp4
 70
     1
102
RTVSPropertyOp5
 70
     1
102
RTVSPropertyOp6
 70
     1
102
RTVSPropertyOp7
 70
     1
102
RTVSPropertyOp8
 70
     1
102
RTVSPropertyOp9
 70
     1
102
RTVSPropertyOp10
 70
     1
102
RTVSPropertyOp11
 70
     1
102
RTVSPropertyOp12
 70
     1
102
RTVSPropertyOp13
 70
     1
102
RTVSPropertyOp14
 70
     1
102
RTVSPropertyOp15
 70
     1
102
RTVSPropertyOp16
 70
     1
102
RTVSPropertyOp17
 70
     1
102
RTVSPropertyOp18
 70
     1
102
RTVSPropertyOp19
 70
     1
102
RTVSPropertyOp20
 70
     1
102
RTVSPropertyOp21
 70
     1
102
RTVSPropertyOp22
 70
     1
102
RTVSPropertyOp23
 70
     1
102
RTVSPropertyOp24
 70
     1
102
RTVSPropertyOp25
 70
     1
102
RTVSPropertyOp26
 70
     1
102
RTVSPropertyOp27
 70
     1
  0
XRECORD
  5
264
102
{ACAD_REACTORS
330
263
102
}
330
263
100
AcDbXrecord
280
     1
102
RTVSPropertyOp0
 70
     1
102
RTVSPropertyOp1
 70
     1
102
RTVSPropertyOp2
 70
     1
102
RTVSPropertyOp3
 70
     1
102
RTVSPropertyOp4
 70
     1
102
RTVSPropertyOp5
 70
     1
102
RTVSPropertyOp6
 70
     1
102
RTVSPropertyOp7
 70
     1
102
RTVSPropertyOp8
 70
     1
102
RTVSPropertyOp9
 70
     1
102
RTVSPropertyOp10
 70
     1
102
RTVSPropertyOp11
 70
     1
102
RTVSPropertyOp12
 70
     1
102
RTVSPropertyOp13
 70
     1
102
RTVSPropertyOp14
 70
     1
102
RTVSPropertyOp15
 70
     1
102
RTVSPropertyOp16
 70
     1
102
RTVSPropertyOp17
 70
     1
102
RTVSPropertyOp18
 70
     1
102
RTVSPropertyOp19
 70
     1
102
RTVSPropertyOp20
 70
     1
102
RTVSPropertyOp21
 70
     1
102
RTVSPropertyOp22
 70
     1
102
RTVSPropertyOp23
 70
     1
102
RTVSPropertyOp24
 70
     1
102
RTVSPropertyOp25
 70
     1
102
RTVSPropertyOp26
 70
     1
102
RTVSPropertyOp27
 70
     1
  0
XRECORD
  5
266
102
{ACAD_REACTORS
330
265
102
}
330
265
100
AcDbXrecord
280
     1
102
RTVSPropertyOp0
 70
     1
102
RTVSPropertyOp1
 70
     1
102
RTVSPropertyOp2
 70
     1
102
RTVSPropertyOp3
 70
     1
102
RTVSPropertyOp4
 70
     1
102
RTVSPropertyOp5
 70
     1
102
RTVSPropertyOp6
 70
     1
102
RTVSPropertyOp7
 70
     1
102
RTVSPropertyOp8
 70
     1
102
RTVSPropertyOp9
 70
     1
102
RTVSPropertyOp10
 70
     1
102
RTVSPropertyOp11
 70
     1
102
RTVSPropertyOp12
 70
     1
102
RTVSPropertyOp13
 70
     1
102
RTVSPropertyOp14
 70
     1
102
RTVSPropertyOp15
 70
     1
102
RTVSPropertyOp16
 70
     1
102
RTVSPropertyOp17
 70
     1
102
RTVSPropertyOp18
 70
     1
102
RTVSPropertyOp19
 70
     1
102
RTVSPropertyOp20
 70
     1
102
RTVSPropertyOp21
 70
     1
102
RTVSPropertyOp22
 70
     1
102
RTVSPropertyOp23
 70
     1
102
RTVSPropertyOp24
 70
     1
102
RTVSPropertyOp25
 70
     1
102
RTVSPropertyOp26
 70
     1
102
RTVSPropertyOp27
 70
     1
  0
XRECORD
  5
268
102
{ACAD_REACTORS
330
267
102
}
330
267
100
AcDbXrecord
280
     1
102
RTVSPropertyOp0
 70
     1
102
RTVSPropertyOp1
 70
     1
102
RTVSPropertyOp2
 70
     1
102
RTVSPropertyOp3
 70
     1
102
RTVSPropertyOp4
 70
     1
102
RTVSPropertyOp5
 70
     1
102
RTVSPropertyOp6
 70
     1
102
RTVSPropertyOp7
 70
     1
102
RTVSPropertyOp8
 70
     1
102
RTVSPropertyOp9
 70
     1
102
RTVSPropertyOp10
 70
     1
102
RTVSPropertyOp11
 70
     1
102
RTVSPropertyOp12
 70
     1
102
RTVSPropertyOp13
 70
     1
102
RTVSPropertyOp14
 70
     1
102
RTVSPropertyOp15
 70
     1
102
RTVSPropertyOp16
 70
     1
102
RTVSPropertyOp17
 70
     1
102
RTVSPropertyOp18
 70
     1
102
RTVSPropertyOp19
 70
     1
102
RTVSPropertyOp20
 70
     1
102
RTVSPropertyOp21
 70
     1
102
RTVSPropertyOp22
 70
     1
102
RTVSPropertyOp23
 70
     1
102
RTVSPropertyOp24
 70
     1
102
RTVSPropertyOp25
 70
     1
102
RTVSPropertyOp26
 70
     1
102
RTVSPropertyOp27
 70
     1
  0
XRECORD
  5
26A
102
{ACAD_REACTORS
330
269
102
}
330
269
100
AcDbXrecord
280
     1
102
RTVSPropertyOp0
 70
     1
102
RTVSPropertyOp1
 70
     1
102
RTVSPropertyOp2
 70
     1
102
RTVSPropertyOp3
 70
     1
102
RTVSPropertyOp4
 70
     1
102
RTVSPropertyOp5
 70
     1
102
RTVSPropertyOp6
 70
     1
102
RTVSPropertyOp7
 70
     1
102
RTVSPropertyOp8
 70
     1
102
RTVSPropertyOp9
 70
     1
102
RTVSPropertyOp10
 70
     1
102
RTVSPropertyOp11
 70
     1
102
RTVSPropertyOp12
 70
     1
102
RTVSPropertyOp13
 70
     1
102
RTVSPropertyOp14
 70
     1
102
RTVSPropertyOp15
 70
     1
102
RTVSPropertyOp16
 70
     1
102
RTVSPropertyOp17
 70
     1
102
RTVSPropertyOp18
 70
     1
102
RTVSPropertyOp19
 70
     1
102
RTVSPropertyOp20
 70
     1
102
RTVSPropertyOp21
 70
     1
102
RTVSPropertyOp22
 70
     1
102
RTVSPropertyOp23
 70
     1
102
RTVSPropertyOp24
 70
     1
102
RTVSPropertyOp25
 70
     1
102
RTVSPropertyOp26
 70
     1
102
RTVSPropertyOp27
 70
     1
  0
XRECORD
  5
27E
102
{ACAD_REACTORS
330
27D
102
}
330
27D
100
AcDbXrecord
280
     1
102
RTVSPropertyOp0
 70
     1
102
RTVSPropertyOp1
 70
     1
102
RTVSPropertyOp2
 70
     1
102
RTVSPropertyOp3
 70
     1
102
RTVSPropertyOp4
 70
     1
102
RTVSPropertyOp5
 70
     1
102
RTVSPropertyOp6
 70
     1
102
RTVSPropertyOp7
 70
     1
102
RTVSPropertyOp8
 70
     1
102
RTVSPropertyOp9
 70
     1
102
RTVSPropertyOp10
 70
     1
102
RTVSPropertyOp11
 70
     1
102
RTVSPropertyOp12
 70
     1
102
RTVSPropertyOp13
 70
     1
102
RTVSPropertyOp14
 70
     1
102
RTVSPropertyOp15
 70
     1
102
RTVSPropertyOp16
 70
     1
102
RTVSPropertyOp17
 70
     1
102
RTVSPropertyOp18
 70
     1
102
RTVSPropertyOp19
 70
     1
102
RTVSPropertyOp20
 70
     1
102
RTVSPropertyOp21
 70
     1
102
RTVSPropertyOp22
 70
     1
102
RTVSPropertyOp23
 70
     1
102
RTVSPropertyOp24
 70
     1
102
RTVSPropertyOp25
 70
     1
102
RTVSPropertyOp26
 70
     1
102
RTVSPropertyOp27
 70
     1
  0
XRECORD
  5
274
102
{ACAD_REACTORS
330
273
102
}
330
273
100
AcDbXrecord
280
     1
102
RTVSPropertyOp0
 70
     1
102
RTVSPropertyOp1
 70
     1
102
RTVSPropertyOp2
 70
     1
102
RTVSPropertyOp3
 70
     1
102
RTVSPropertyOp4
 70
     1
102
RTVSPropertyOp5
 70
     1
102
RTVSPropertyOp6
 70
     1
102
RTVSPropertyOp7
 70
     1
102
RTVSPropertyOp8
 70
     1
102
RTVSPropertyOp9
 70
     1
102
RTVSPropertyOp10
 70
     1
102
RTVSPropertyOp11
 70
     1
102
RTVSPropertyOp12
 70
     1
102
RTVSPropertyOp13
 70
     1
102
RTVSPropertyOp14
 70
     1
102
RTVSPropertyOp15
 70
     1
102
RTVSPropertyOp16
 70
     1
102
RTVSPropertyOp17
 70
     1
102
RTVSPropertyOp18
 70
     1
102
RTVSPropertyOp19
 70
     1
102
RTVSPropertyOp20
 70
     1
102
RTVSPropertyOp21
 70
     1
102
RTVSPropertyOp22
 70
     1
102
RTVSPropertyOp23
 70
     1
102
RTVSPropertyOp24
 70
     1
102
RTVSPropertyOp25
 70
     1
102
RTVSPropertyOp26
 70
     1
102
RTVSPropertyOp27
 70
     1
  0
XRECORD
  5
27C
102
{ACAD_REACTORS
330
27B
102
}
330
27B
100
AcDbXrecord
280
     1
102
RTVSPropertyOp0
 70
     1
102
RTVSPropertyOp1
 70
     1
102
RTVSPropertyOp2
 70
     1
102
RTVSPropertyOp3
 70
     1
102
RTVSPropertyOp4
 70
     1
102
RTVSPropertyOp5
 70
     1
102
RTVSPropertyOp6
 70
     1
102
RTVSPropertyOp7
 70
     1
102
RTVSPropertyOp8
 70
     1
102
RTVSPropertyOp9
 70
     1
102
RTVSPropertyOp10
 70
     1
102
RTVSPropertyOp11
 70
     1
102
RTVSPropertyOp12
 70
     1
102
RTVSPropertyOp13
 70
     1
102
RTVSPropertyOp14
 70
     1
102
RTVSPropertyOp15
 70
     1
102
RTVSPropertyOp16
 70
     1
102
RTVSPropertyOp17
 70
     1
102
RTVSPropertyOp18
 70
     1
102
RTVSPropertyOp19
 70
     1
102
RTVSPropertyOp20
 70
     1
102
RTVSPropertyOp21
 70
     1
102
RTVSPropertyOp22
 70
     1
102
RTVSPropertyOp23
 70
     1
102
RTVSPropertyOp24
 70
     1
102
RTVSPropertyOp25
 70
     1
102
RTVSPropertyOp26
 70
     1
102
RTVSPropertyOp27
 70
     1
  0
ENDSEC
  0
EOF
