  0
SECTION
  2
HEADER
  9
$ACADVER
  1
AC1015
  9
$ACADMAINTVER
 70
     6
  9
$DWGCODEPAGE
  3
ANSI_932
  9
$INSBASE
 10
0.0
 20
0.0
 30
0.0
  9
$EXTMIN
 10
21.40466321
 20
70.59792571668521
 30
0.0
  9
$EXTMAX
 10
195.0
 20
259.0350806534261
 30
0.0
  9
$LIMMIN
 10
21.40466321
 20
70.59792571668521
  9
$LIMMAX
 10
195.0
 20
259.0350806534261
  9
$ORTHOMODE
 70
     0
  9
$REGENMODE
 70
     1
  9
$FILLMODE
 70
     1
  9
$QTEXTMODE
 70
     0
  9
$MIRRTEXT
 70
     1
  9
$LTSCALE
 40
1.0
  9
$ATTMODE
 70
     1
  9
$TEXTSIZE
 40
0.2
  9
$TRACEWID
 40
0.05
  9
$TEXTSTYLE
  7
Standard
  9
$CLAYER
  8
0
  9
$CELTYPE
  6
ByLayer
  9
$CECOLOR
 62
   256
  9
$CELTSCALE
 40
1.0
  9
$DISPSILH
 70
     0
  9
$DIMSCALE
 40
1.0
  9
$DIMASZ
 40
0.18
  9
$DIMEXO
 40
0.0625
  9
$DIMDLI
 40
0.38
  9
$DIMRND
 40
0.0
  9
$DIMDLE
 40
0.0
  9
$DIMEXE
 40
0.18
  9
$DIMTP
 40
0.0
  9
$DIMTM
 40
0.0
  9
$DIMTXT
 40
0.18
  9
$DIMCEN
 40
0.09
  9
$DIMTSZ
 40
0.0
  9
$DIMTOL
 70
     0
  9
$DIMLIM
 70
     0
  9
$DIMTIH
 70
     1
  9
$DIMTOH
 70
     1
  9
$DIMSE1
 70
     0
  9
$DIMSE2
 70
     0
  9
$DIMTAD
 70
     0
  9
$DIMZIN
 70
     0
  9
$DIMBLK
  1

  9
$DIMASO
 70
     1
  9
$DIMSHO
 70
     1
  9
$DIMPOST
  1

  9
$DIMAPOST
  1

  9
$DIMALT
 70
     0
  9
$DIMALTD
 70
     2
  9
$DIMALTF
 40
25.4
  9
$DIMLFAC
 40
1.0
  9
$DIMTOFL
 70
     0
  9
$DIMTVP
 40
0.0
  9
$DIMTIX
 70
     0
  9
$DIMSOXD
 70
     0
  9
$DIMSAH
 70
     0
  9
$DIMBLK1
  1

  9
$DIMBLK2
  1

  9
$DIMSTYLE
  2
Standard
  9
$DIMCLRD
 70
     0
  9
$DIMCLRE
 70
     0
  9
$DIMCLRT
 70
     0
  9
$DIMTFAC
 40
1.0
  9
$DIMGAP
 40
0.09
  9
$DIMJUST
 70
     0
  9
$DIMSD1
 70
     0
  9
$DIMSD2
 70
     0
  9
$DIMTOLJ
 70
     1
  9
$DIMTZIN
 70
     0
  9
$DIMALTZ
 70
     0
  9
$DIMALTTZ
 70
     0
  9
$DIMUPT
 70
     0
  9
$DIMDEC
 70
     4
  9
$DIMTDEC
 70
     4
  9
$DIMALTU
 70
     2
  9
$DIMALTTD
 70
     2
  9
$DIMTXSTY
  7
Standard
  9
$DIMAUNIT
 70
     0
  9
$DIMADEC
 70
     0
  9
$DIMALTRND
 40
0.0
  9
$DIMAZIN
 70
     0
  9
$DIMDSEP
 70
    46
  9
$DIMATFIT
 70
     3
  9
$DIMFRAC
 70
     0
  9
$DIMLDRBLK
  1

  9
$DIMLUNIT
 70
     2
  9
$DIMLWD
 70
    -2
  9
$DIMLWE
 70
    -2
  9
$DIMTMOVE
 70
     0
  9
$LUNITS
 70
     2
  9
$LUPREC
 70
     4
  9
$SKETCHINC
 40
0.1
  9
$FILLETRAD
 40
0.5
  9
$AUNITS
 70
     0
  9
$AUPREC
 70
     0
  9
$MENU
  1
.
  9
$ELEVATION
 40
0.0
  9
$PELEVATION
 40
0.0
  9
$THICKNESS
 40
0.0
  9
$LIMCHECK
 70
     0
  9
$CHAMFERA
 40
0.5
  9
$CHAMFERB
 40
0.5
  9
$CHAMFERC
 40
1.0
  9
$CHAMFERD
 40
0.0
  9
$SKPOLY
 70
     0
  9
$TDCREATE
 40
2456238.386400324
  9
$TDUCREATE
 40
2456238.011400324
  9
$TDUPDATE
 40
2456238.386400335
  9
$TDUUPDATE
 40
2456238.011400335
  9
$TDINDWG
 40
0.0000000116
  9
$TDUSRTIMER
 40
0.0000000116
  9
$USRTIMER
 70
     1
  9
$ANGBASE
 50
0.0
  9
$ANGDIR
 70
     0
  9
$PDMODE
 70
     0
  9
$PDSIZE
 40
0.0
  9
$PLINEWID
 40
0.0
  9
$SPLFRAME
 70
     0
  9
$SPLINETYPE
 70
     6
  9
$SPLINESEGS
 70
     8
  9
$HANDSEED
  5
447
  9
$SURFTAB1
 70
     6
  9
$SURFTAB2
 70
     6
  9
$SURFTYPE
 70
     6
  9
$SURFU
 70
     6
  9
$SURFV
 70
     6
  9
$UCSBASE
  2

  9
$UCSNAME
  2

  9
$UCSORG
 10
0.0
 20
0.0
 30
0.0
  9
$UCSXDIR
 10
1.0
 20
0.0
 30
0.0
  9
$UCSYDIR
 10
0.0
 20
1.0
 30
0.0
  9
$UCSORTHOREF
  2

  9
$UCSORTHOVIEW
 70
     0
  9
$UCSORGTOP
 10
0.0
 20
0.0
 30
0.0
  9
$UCSORGBOTTOM
 10
0.0
 20
0.0
 30
0.0
  9
$UCSORGLEFT
 10
0.0
 20
0.0
 30
0.0
  9
$UCSORGRIGHT
 10
0.0
 20
0.0
 30
0.0
  9
$UCSORGFRONT
 10
0.0
 20
0.0
 30
0.0
  9
$UCSORGBACK
 10
0.0
 20
0.0
 30
0.0
  9
$PUCSBASE
  2

  9
$PUCSNAME
  2

  9
$PUCSORG
 10
0.0
 20
0.0
 30
0.0
  9
$PUCSXDIR
 10
1.0
 20
0.0
 30
0.0
  9
$PUCSYDIR
 10
0.0
 20
1.0
 30
0.0
  9
$PUCSORTHOREF
  2

  9
$PUCSORTHOVIEW
 70
     0
  9
$PUCSORGTOP
 10
0.0
 20
0.0
 30
0.0
  9
$PUCSORGBOTTOM
 10
0.0
 20
0.0
 30
0.0
  9
$PUCSORGLEFT
 10
0.0
 20
0.0
 30
0.0
  9
$PUCSORGRIGHT
 10
0.0
 20
0.0
 30
0.0
  9
$PUCSORGFRONT
 10
0.0
 20
0.0
 30
0.0
  9
$PUCSORGBACK
 10
0.0
 20
0.0
 30
0.0
  9
$USERI1
 70
     0
  9
$USERI2
 70
     0
  9
$USERI3
 70
     0
  9
$USERI4
 70
     0
  9
$USERI5
 70
     0
  9
$USERR1
 40
0.0
  9
$USERR2
 40
0.0
  9
$USERR3
 40
0.0
  9
$USERR4
 40
0.0
  9
$USERR5
 40
0.0
  9
$WORLDVIEW
 70
     1
  9
$SHADEDGE
 70
     3
  9
$SHADEDIF
 70
    70
  9
$TILEMODE
 70
     1
  9
$MAXACTVP
 70
    64
  9
$PINSBASE
 10
0.0
 20
0.0
 30
0.0
  9
$PLIMCHECK
 70
     0
  9
$PEXTMIN
 10
1.000000000000000E+20
 20
1.000000000000000E+20
 30
1.000000000000000E+20
  9
$PEXTMAX
 10
-1.000000000000000E+20
 20
-1.000000000000000E+20
 30
-1.000000000000000E+20
  9
$PLIMMIN
 10
0.0
 20
0.0
  9
$PLIMMAX
 10
12.0
 20
9.0
  9
$UNITMODE
 70
     0
  9
$VISRETAIN
 70
     1
  9
$PLINEGEN
 70
     0
  9
$PSLTSCALE
 70
     1
  9
$TREEDEPTH
 70
  3020
  9
$CMLSTYLE
  2
Standard
  9
$CMLJUST
 70
     0
  9
$CMLSCALE
 40
1.0
  9
$PROXYGRAPHICS
 70
     1
  9
$MEASUREMENT
 70
     0
  9
$CELWEIGHT
370
    -1
  9
$ENDCAPS
280
     0
  9
$JOINSTYLE
280
     0
  9
$LWDISPLAY
290
     0
  9
$INSUNITS
 70
     4
  9
$HYPERLINKBASE
  1

  9
$STYLESHEET
  1

  9
$XEDIT
290
     1
  9
$CEPSNTYPE
380
     0
  9
$PSTYLEMODE
290
     1
  9
$FINGERPRINTGUID
  2
{027542C5-B6D7-47F0-B384-A2F8DC067AA0}
  9
$VERSIONGUID
  2
{FAEB1C32-E019-11D5-929B-00C0DF256EC4}
  9
$EXTNAMES
290
     1
  9
$PSVPSCALE
 40
0.0
  9
$OLESTARTUP
290
     0
  0
ENDSEC
  0
SECTION
  2
CLASSES
  0
CLASS
  1
ACDBDICTIONARYWDFLT
  2
AcDbDictionaryWithDefault
  3
ObjectDBX Classes
 90
        0
280
     0
281
     0
  0
CLASS
  1
VISUALSTYLE
  2
AcDbVisualStyle
  3
ObjectDBX Classes
 90
     4095
280
     0
281
     0
  0
CLASS
  1
MATERIAL
  2
AcDbMaterial
  3
ObjectDBX Classes
 90
     1153
280
     0
281
     0
  0
CLASS
  1
SCALE
  2
AcDbScale
  3
ObjectDBX Classes
 90
     1153
280
     0
281
     0
  0
CLASS
  1
DICTIONARYVAR
  2
AcDbDictionaryVar
  3
ObjectDBX Classes
 90
        0
280
     0
281
     0
  0
CLASS
  1
ACDBPLACEHOLDER
  2
AcDbPlaceHolder
  3
ObjectDBX Classes
 90
        0
280
     0
281
     0
  0
CLASS
  1
LAYOUT
  2
AcDbLayout
  3
ObjectDBX Classes
 90
        0
280
     0
281
     0
  0
ENDSEC
  0
SECTION
  2
TABLES
  0
TABLE
  2
VPORT
  5
8
330
0
100
AcDbSymbolTable
 70
     1
  0
VPORT
  5
29
330
8
100
AcDbSymbolTableRecord
100
AcDbViewportTableRecord
  2
*Active
 70
     0
 10
0.0
 20
0.0
 11
1.0
 21
1.0
 12
108.202331605
 22
164.8938841374366
 13
0.0
 23
0.0
 14
0.5
 24
0.5
 15
0.5
 25
0.5
 16
0.0
 26
0.0
 36
1.0
 17
0.0
 27
0.0
 37
0.0
 40
192.3637551783329
 41
0.9204813212429123
 42
50.0
 43
0.0
 44
0.0
 50
0.0
 51
0.0
 71
     0
 72
  1000
 73
     1
 74
     3
 75
     0
 76
     0
 77
     0
 78
     0
281
     0
 65
     1
110
0.0
120
0.0
130
0.0
111
1.0
121
0.0
131
0.0
112
0.0
122
1.0
132
0.0
 79
     0
146
0.0
  0
ENDTAB
  0
TABLE
  2
LTYPE
  5
5
330
0
100
AcDbSymbolTable
 70
     6
  0
LTYPE
  5
14
330
5
100
AcDbSymbolTableRecord
100
AcDbLinetypeTableRecord
  2
ByBlock
 70
     0
  3

 72
    65
 73
     0
 40
0.0
  0
LTYPE
  5
15
330
5
100
AcDbSymbolTableRecord
100
AcDbLinetypeTableRecord
  2
ByLayer
 70
     0
  3

 72
    65
 73
     0
 40
0.0
  0
LTYPE
  5
16
330
5
100
AcDbSymbolTableRecord
100
AcDbLinetypeTableRecord
  2
Continuous
 70
     0
  3
Solid line
 72
    65
 73
     0
 40
0.0
  0
LTYPE
  5
3F
330
5
100
AcDbSymbolTableRecord
100
AcDbLinetypeTableRecord
  2
chain
 70
     0
  3
_____ __ _____ __ _____
 72
    65
 73
     4
 40
18.5
 49
12.0
 74
     4
 75
     0
340
0
 46
1.0
 50
0.0
 44
0.0
 45
0.0
 49
-1.5
 74
     4
 75
     0
340
0
 46
1.0
 50
0.0
 44
0.0
 45
0.0
 49
3.5
 74
     4
 75
     0
340
0
 46
1.0
 50
0.0
 44
0.0
 45
0.0
 49
-1.5
 74
     4
 75
     0
340
0
 46
1.0
 50
0.0
 44
0.0
 45
0.0
  0
LTYPE
  5
40
330
5
100
AcDbSymbolTableRecord
100
AcDbLinetypeTableRecord
  2
dashed dotted
 70
     0
  3
_____  _  _____  _  _____
 72
    65
 73
     4
 40
9.3
 49
6.0
 74
     4
 75
     0
340
0
 46
1.0
 50
0.0
 44
0.0
 45
0.0
 49
-1.5
 74
     4
 75
     0
340
0
 46
1.0
 50
0.0
 44
0.0
 45
0.0
 49
0.25
 74
     4
 75
     0
340
0
 46
1.0
 50
0.0
 44
0.0
 45
0.0
 49
-1.5
 74
     4
 75
     0
340
0
 46
1.0
 50
0.0
 44
0.0
 45
0.0
  0
LTYPE
  5
41
330
5
100
AcDbSymbolTableRecord
100
AcDbLinetypeTableRecord
  2
USER_1
 70
     0
  3
UserDefineLineType1
 72
    65
 73
     2
 40
2.0
 49
1.0
 74
     4
 75
     0
340
0
 46
1.0
 50
0.0
 44
0.0
 45
0.0
 49
-1.0
 74
     4
 75
     0
340
0
 46
1.0
 50
0.0
 44
0.0
 45
0.0
  0
LTYPE
  5
42
330
5
100
AcDbSymbolTableRecord
100
AcDbLinetypeTableRecord
  2
USER_2
 70
     0
  3
UserDefineLineType2
 72
    65
 73
     4
 40
10.16
 49
6.35
 74
     4
 75
     0
340
0
 46
1.0
 50
0.0
 44
0.0
 45
0.0
 49
-1.27
 74
     4
 75
     0
340
0
 46
1.0
 50
0.0
 44
0.0
 45
0.0
 49
1.27
 74
     4
 75
     0
340
0
 46
1.0
 50
0.0
 44
0.0
 45
0.0
 49
-1.27
 74
     4
 75
     0
340
0
 46
1.0
 50
0.0
 44
0.0
 45
0.0
  0
LTYPE
  5
43
330
5
100
AcDbSymbolTableRecord
100
AcDbLinetypeTableRecord
  2
USER_3
 70
     0
  3
UserDefineLineType3
 72
    65
 73
     2
 40
1.905
 49
1.27
 74
     4
 75
     0
340
0
 46
1.0
 50
0.0
 44
0.0
 45
0.0
 49
-0.635
 74
     4
 75
     0
340
0
 46
1.0
 50
0.0
 44
0.0
 45
0.0
  0
ENDTAB
  0
TABLE
  2
LAYER
  5
2
330
0
100
AcDbSymbolTable
 70
    10
  0
LAYER
  5
10
330
2
100
AcDbSymbolTableRecord
100
AcDbLayerTableRecord
  2
0
 70
     0
 62
     7
  6
Continuous
370
    -3
390
F
  0
LAYER
  5
44
330
2
100
AcDbSymbolTableRecord
100
AcDbLayerTableRecord
  2
D-TTL
 70
     0
 62
     7
  6
Continuous
370
    -3
390
F
  0
LAYER
  5
45
330
2
100
AcDbSymbolTableRecord
100
AcDbLayerTableRecord
  2
D-TTL-TXT
 70
     0
 62
     7
  6
Continuous
370
    -3
390
F
  0
LAYER
  5
46
330
2
100
AcDbSymbolTableRecord
100
AcDbLayerTableRecord
  2
D-BMK
 70
     0
 62
     5
  6
dashed dotted
370
    -3
390
F
  0
LAYER
  5
47
330
2
100
AcDbSymbolTableRecord
100
AcDbLayerTableRecord
  2
D-STR
 70
     0
 62
     7
  6
Continuous
370
    -3
390
F
  0
LAYER
  5
48
330
2
100
AcDbSymbolTableRecord
100
AcDbLayerTableRecord
  2
D-STR-STR2
 70
     0
 62
   134
  6
Continuous
370
    -3
390
F
  0
LAYER
  5
49
330
2
100
AcDbSymbolTableRecord
100
AcDbLayerTableRecord
  2
D-STR-STRB
 70
     0
 62
   132
  6
Continuous
370
    -3
390
F
  0
LAYER
  5
4A
330
2
100
AcDbSymbolTableRecord
100
AcDbLayerTableRecord
  2
D-STR-DIM
 70
     0
 62
     5
  6
Continuous
370
    -3
390
F
  0
LAYER
  5
4B
330
2
100
AcDbSymbolTableRecord
100
AcDbLayerTableRecord
  2
D-STR-HTXT
 70
     0
 62
     7
  6
Continuous
370
    -3
390
F
  0
LAYER
  5
2BE
330
2
100
AcDbSymbolTableRecord
100
AcDbLayerTableRecord
  2
Defpoints
 70
     0
 62
     7
  6
Continuous
290
     0
370
    -3
390
F
  0
ENDTAB
  0
TABLE
  2
STYLE
  5
3
330
0
100
AcDbSymbolTable
 70
     3
  0
STYLE
  5
11
330
3
100
AcDbSymbolTableRecord
100
AcDbTextStyleTableRecord
  2
Standard
 70
     0
 40
0.0
 41
1.0
 50
0.0
 71
     0
 42
0.2
  3
txt
  4

  0
STYLE
  5
4C
330
3
100
AcDbSymbolTableRecord
100
AcDbTextStyleTableRecord
  2
STANDARD-FC
 70
     0
 40
0.0
 41
1.0
 50
0.0
 71
     0
 42
0.2
  3
txt
  4
bigfont
  0
STYLE
  5
4D
330
3
100
AcDbSymbolTableRecord
100
AcDbTextStyleTableRecord
  2
ＭＳ ゴシック
 70
     0
 40
0.0
 41
1.0
 50
0.0
 71
     0
 42
0.2
  3
msgothic.ttc
  4

1001
ACAD
1000
MS Gothic
1071
    32817
  0
ENDTAB
  0
TABLE
  2
VIEW
  5
6
330
0
100
AcDbSymbolTable
 70
     0
  0
ENDTAB
  0
TABLE
  2
UCS
  5
7
330
0
100
AcDbSymbolTable
 70
     0
  0
ENDTAB
  0
TABLE
  2
APPID
  5
9
330
0
100
AcDbSymbolTable
 70
     1
  0
APPID
  5
12
330
9
100
AcDbSymbolTableRecord
100
AcDbRegAppTableRecord
  2
ACAD
 70
     0
  0
ENDTAB
  0
TABLE
  2
DIMSTYLE
  5
A
330
0
100
AcDbSymbolTable
 70
     1
100
AcDbDimStyleTable
  0
DIMSTYLE
105
27
102
{ACAD_REACTORS
330
2BD
330
37E
330
38C
330
399
330
3A7
330
3B4
330
3C8
330
3EB
102
}
330
A
100
AcDbSymbolTableRecord
100
AcDbDimStyleTableRecord
  2
Standard
 70
     0
178
     0
340
11
  0
ENDTAB
  0
TABLE
  2
BLOCK_RECORD
  5
1
330
0
100
AcDbSymbolTable
 70
    10
  0
BLOCK_RECORD
  5
1F
330
1
100
AcDbSymbolTableRecord
100
AcDbBlockTableRecord
  2
*Model_Space
340
22
  0
BLOCK_RECORD
  5
1B
330
1
100
AcDbSymbolTableRecord
100
AcDbBlockTableRecord
  2
*Paper_Space
340
1E
  0
BLOCK_RECORD
  5
23
330
1
100
AcDbSymbolTableRecord
100
AcDbBlockTableRecord
  2
*Paper_Space0
340
26
  0
BLOCK_RECORD
  5
2BF
330
1
100
AcDbSymbolTableRecord
100
AcDbBlockTableRecord
  2
*D1
340
0
  0
BLOCK_RECORD
  5
37F
330
1
100
AcDbSymbolTableRecord
100
AcDbBlockTableRecord
  2
*D2
340
0
  0
BLOCK_RECORD
  5
38D
330
1
100
AcDbSymbolTableRecord
100
AcDbBlockTableRecord
  2
*D3
340
0
  0
BLOCK_RECORD
  5
39A
330
1
100
AcDbSymbolTableRecord
100
AcDbBlockTableRecord
  2
*D4
340
0
  0
BLOCK_RECORD
  5
3A8
330
1
100
AcDbSymbolTableRecord
100
AcDbBlockTableRecord
  2
*D5
340
0
  0
BLOCK_RECORD
  5
3B5
330
1
100
AcDbSymbolTableRecord
100
AcDbBlockTableRecord
  2
*D6
340
0
  0
BLOCK_RECORD
  5
3C2
330
1
100
AcDbSymbolTableRecord
100
AcDbBlockTableRecord
  2
_Open
340
0
102
{BLKREFS
331
3CD
331
3CE
331
3F0
331
3F1
102
}
  0
BLOCK_RECORD
  5
3C9
330
1
100
AcDbSymbolTableRecord
100
AcDbBlockTableRecord
  2
*D8
340
0
  0
BLOCK_RECORD
  5
3EC
330
1
100
AcDbSymbolTableRecord
100
AcDbBlockTableRecord
  2
*D9
340
0
  0
ENDTAB
  0
ENDSEC
  0
SECTION
  2
BLOCKS
  0
BLOCK
  5
20
330
1F
100
AcDbEntity
  8
0
100
AcDbBlockBegin
  2
*Model_Space
 70
     0
 10
0.0
 20
0.0
 30
0.0
  3
*Model_Space
  1

  0
ENDBLK
  5
21
330
1F
100
AcDbEntity
  8
0
100
AcDbBlockEnd
  0
BLOCK
  5
1C
330
1B
100
AcDbEntity
 67
     1
  8
0
100
AcDbBlockBegin
  2
*Paper_Space
 70
     0
 10
0.0
 20
0.0
 30
0.0
  3
*Paper_Space
  1

  0
ENDBLK
  5
1D
330
1B
100
AcDbEntity
 67
     1
  8
0
100
AcDbBlockEnd
  0
BLOCK
  5
24
330
23
100
AcDbEntity
  8
0
100
AcDbBlockBegin
  2
*Paper_Space0
 70
     0
 10
0.0
 20
0.0
 30
0.0
  3
*Paper_Space0
  1

  0
ENDBLK
  5
25
330
23
100
AcDbEntity
  8
0
100
AcDbBlockEnd
  0
BLOCK
  5
2C9
330
2BF
100
AcDbEntity
  8
0
100
AcDbBlockBegin
  2
*D1
 70
     1
 10
0.0
 20
0.0
 30
0.0
  3
*D1
  1

  0
LINE
  5
2C0
330
2BF
100
AcDbEntity
  8
D-STR-DIM
  6
Continuous
 62
     5
370
    -2
100
AcDbLine
 10
56.78866372
 20
210.4024915752646
 30
0.0
 11
41.78866372000001
 21
210.4024915752646
 31
0.0
  0
LINE
  5
2C1
330
2BF
100
AcDbEntity
  8
D-STR-DIM
  6
Continuous
 62
     5
370
    -2
100
AcDbLine
 10
56.78866372
 20
180.4024915752646
 30
0.0
 11
41.78866372
 21
180.4024915752646
 31
0.0
  0
LINE
  5
2C2
330
2BF
100
AcDbEntity
  8
D-STR-DIM
  6
Continuous
 62
     5
370
    -2
100
AcDbLine
 10
42.78866372000001
 20
209.4024915752646
 30
0.0
 11
42.78866372
 21
181.4024915752646
 31
0.0
  0
SOLID
  5
2C3
330
2BF
100
AcDbEntity
  8
D-STR-DIM
 62
     5
100
AcDbTrace
 10
42.95533038666667
 20
209.4024915752646
 30
0.0
 11
42.62199705333335
 21
209.4024915752646
 31
0.0
 12
42.78866372000001
 22
210.4024915752646
 32
0.0
 13
42.78866372000001
 23
210.4024915752646
 33
0.0
  0
SOLID
  5
2C4
330
2BF
100
AcDbEntity
  8
D-STR-DIM
 62
     5
100
AcDbTrace
 10
42.62199705333334
 20
181.4024915752646
 30
0.0
 11
42.95533038666667
 21
181.4024915752646
 31
0.0
 12
42.78866372
 22
180.4024915752646
 32
0.0
 13
42.78866372
 23
180.4024915752646
 33
0.0
  0
MTEXT
  5
2C5
330
2BF
100
AcDbEntity
  8
D-STR-DIM
 62
     5
370
    13
100
AcDbMText
 10
40.53866372
 20
195.4024915752646
 30
0.0
 40
2.777777777777778
 41
0.0
 71
     5
 72
     1
  1
\A1;1.0m以上
  7
ＭＳ ゴシック
 11
6.123233995736766E-17
 21
1.0
 31
0.0
 73
     1
 44
1.0
1001
ACAD
1000
ACAD_MTEXT_DEFINED_HEIGHT_BEGIN
1070
    46
1040
0.2
1000
ACAD_MTEXT_DEFINED_HEIGHT_END
  0
POINT
  5
2C6
330
2BF
100
AcDbEntity
  8
Defpoints
 62
     0
100
AcDbPoint
 10
57.78866372
 20
210.4024915752646
 30
0.0
  0
POINT
  5
2C7
330
2BF
100
AcDbEntity
  8
Defpoints
 62
     0
100
AcDbPoint
 10
57.78866372
 20
180.4024915752646
 30
0.0
  0
POINT
  5
2C8
330
2BF
100
AcDbEntity
  8
Defpoints
 62
     0
100
AcDbPoint
 10
42.78866372
 20
180.4024915752646
 30
0.0
  0
ENDBLK
  5
2CA
330
2BF
100
AcDbEntity
  8
0
100
AcDbBlockEnd
  0
BLOCK
  5
389
330
37F
100
AcDbEntity
  8
0
100
AcDbBlockBegin
  2
*D2
 70
     1
 10
0.0
 20
0.0
 30
0.0
  3
*D2
  1

  0
LINE
  5
380
330
37F
100
AcDbEntity
  8
D-STR-DIM
  6
Continuous
 62
     5
370
    -2
100
AcDbLine
 10
46.89673915
 20
83.65459687668522
 30
0.0
 11
46.89673915
 21
98.98259687668522
 31
0.0
  0
LINE
  5
381
330
37F
100
AcDbEntity
  8
D-STR-DIM
  6
Continuous
 62
     5
370
    -2
100
AcDbLine
 10
66.89673915
 20
83.46959687668522
 30
0.0
 11
66.89673915
 21
98.98259687668522
 31
0.0
  0
LINE
  5
382
330
37F
100
AcDbEntity
  8
D-STR-DIM
  6
Continuous
 62
     5
370
    -2
100
AcDbLine
 10
47.89673914999997
 20
97.98259687668524
 30
0.0
 11
65.89673915000003
 21
97.98259687668524
 31
0.0
  0
SOLID
  5
383
330
37F
100
AcDbEntity
  8
D-STR-DIM
 62
     5
100
AcDbTrace
 10
47.89673914999997
 20
98.14926354335189
 30
0.0
 11
47.89673914999997
 21
97.81593021001858
 31
0.0
 12
46.89673915
 22
97.98259687668524
 32
0.0
 13
46.89673915
 23
97.98259687668524
 33
0.0
  0
SOLID
  5
384
330
37F
100
AcDbEntity
  8
D-STR-DIM
 62
     5
100
AcDbTrace
 10
65.89673915000003
 20
97.81593021001858
 30
0.0
 11
65.89673915000003
 21
98.14926354335189
 31
0.0
 12
66.89673915
 22
97.98259687668524
 32
0.0
 13
66.89673915
 23
97.98259687668524
 33
0.0
  0
MTEXT
  5
385
330
37F
100
AcDbEntity
  8
D-STR-DIM
 62
     5
370
    13
100
AcDbMText
 10
55.36098685
 20
100.2325968766852
 30
0.0
 40
2.777777777777778
 41
0.0
 71
     5
 72
     1
  1
\A1;有効幅員
  7
ＭＳ ゴシック
 73
     1
 44
1.0
1001
ACAD
1000
ACAD_MTEXT_DEFINED_HEIGHT_BEGIN
1070
    46
1040
0.2
1000
ACAD_MTEXT_DEFINED_HEIGHT_END
  0
POINT
  5
386
330
37F
100
AcDbEntity
  8
Defpoints
 62
     0
100
AcDbPoint
 10
46.89673915
 20
82.65459687668522
 30
0.0
  0
POINT
  5
387
330
37F
100
AcDbEntity
  8
Defpoints
 62
     0
100
AcDbPoint
 10
66.89673915
 20
82.46959687668522
 30
0.0
  0
POINT
  5
388
330
37F
100
AcDbEntity
  8
Defpoints
 62
     0
100
AcDbPoint
 10
66.89673915
 20
97.98259687668524
 30
0.0
  0
ENDBLK
  5
38A
330
37F
100
AcDbEntity
  8
0
100
AcDbBlockEnd
  0
BLOCK
  5
397
330
38D
100
AcDbEntity
  8
0
100
AcDbBlockBegin
  2
*D3
 70
     1
 10
0.0
 20
0.0
 30
0.0
  3
*D3
  1

  0
LINE
  5
38E
330
38D
100
AcDbEntity
  8
D-STR-DIM
  6
Continuous
 62
     5
370
    -2
100
AcDbLine
 10
66.89673915
 20
83.46959687668522
 30
0.0
 11
66.89673915
 21
98.98259687668522
 31
0.0
  0
LINE
  5
38F
330
38D
100
AcDbEntity
  8
D-STR-DIM
  6
Continuous
 62
     5
370
    -2
100
AcDbLine
 10
71.89673915
 20
82.95659687668523
 30
0.0
 11
71.89673915
 21
98.98259687668522
 31
0.0
  0
LINE
  5
390
330
38D
100
AcDbEntity
  8
D-STR-DIM
  6
Continuous
 62
     5
370
    -2
100
AcDbLine
 10
67.89673914999997
 20
97.98259687668524
 30
0.0
 11
70.89673915000003
 21
97.98259687668524
 31
0.0
  0
SOLID
  5
391
330
38D
100
AcDbEntity
  8
D-STR-DIM
 62
     5
100
AcDbTrace
 10
67.89673914999997
 20
98.14926354335189
 30
0.0
 11
67.89673914999997
 21
97.81593021001858
 31
0.0
 12
66.89673915
 22
97.98259687668524
 32
0.0
 13
66.89673915
 23
97.98259687668524
 33
0.0
  0
SOLID
  5
392
330
38D
100
AcDbEntity
  8
D-STR-DIM
 62
     5
100
AcDbTrace
 10
70.89673915000003
 20
97.81593021001858
 30
0.0
 11
70.89673915000003
 21
98.14926354335189
 31
0.0
 12
71.89673915
 22
97.98259687668524
 32
0.0
 13
71.89673915
 23
97.98259687668524
 33
0.0
  0
MTEXT
  5
393
330
38D
100
AcDbEntity
  8
D-STR-DIM
 62
     5
370
    13
100
AcDbMText
 10
69.39673915000002
 20
100.2325968766852
 30
0.0
 40
2.777777777777778
 41
0.0
 71
     5
 72
     1
  1
\A1;施設帯
  7
ＭＳ ゴシック
 73
     1
 44
1.0
1001
ACAD
1000
ACAD_MTEXT_DEFINED_HEIGHT_BEGIN
1070
    46
1040
0.2
1000
ACAD_MTEXT_DEFINED_HEIGHT_END
  0
POINT
  5
394
330
38D
100
AcDbEntity
  8
Defpoints
 62
     0
100
AcDbPoint
 10
66.89673915
 20
82.46959687668522
 30
0.0
  0
POINT
  5
395
330
38D
100
AcDbEntity
  8
Defpoints
 62
     0
100
AcDbPoint
 10
71.89673915
 20
81.95659687668523
 30
0.0
  0
POINT
  5
396
330
38D
100
AcDbEntity
  8
Defpoints
 62
     0
100
AcDbPoint
 10
71.89673915
 20
97.98259687668524
 30
0.0
  0
ENDBLK
  5
398
330
38D
100
AcDbEntity
  8
0
100
AcDbBlockEnd
  0
BLOCK
  5
3A4
330
39A
100
AcDbEntity
  8
0
100
AcDbBlockBegin
  2
*D4
 70
     1
 10
0.0
 20
0.0
 30
0.0
  3
*D4
  1

  0
LINE
  5
39B
330
39A
100
AcDbEntity
  8
D-STR-DIM
  6
Continuous
 62
     5
370
    -2
100
AcDbLine
 10
71.89673915
 20
82.95659687668523
 30
0.0
 11
71.89673915
 21
98.98259687668522
 31
0.0
  0
LINE
  5
39C
330
39A
100
AcDbEntity
  8
D-STR-DIM
  6
Continuous
 62
     5
370
    -2
100
AcDbLine
 10
141.89673915
 20
82.95659687668523
 30
0.0
 11
141.89673915
 21
98.98259687668522
 31
0.0
  0
LINE
  5
39D
330
39A
100
AcDbEntity
  8
D-STR-DIM
  6
Continuous
 62
     5
370
    -2
100
AcDbLine
 10
72.89673914999997
 20
97.98259687668524
 30
0.0
 11
140.89673915
 21
97.98259687668524
 31
0.0
  0
SOLID
  5
39E
330
39A
100
AcDbEntity
  8
D-STR-DIM
 62
     5
100
AcDbTrace
 10
72.89673914999997
 20
98.14926354335189
 30
0.0
 11
72.89673914999997
 21
97.81593021001858
 31
0.0
 12
71.89673915
 22
97.98259687668524
 32
0.0
 13
71.89673915
 23
97.98259687668524
 33
0.0
  0
SOLID
  5
39F
330
39A
100
AcDbEntity
  8
D-STR-DIM
 62
     5
100
AcDbTrace
 10
140.89673915
 20
97.81593021001858
 30
0.0
 11
140.89673915
 21
98.14926354335189
 31
0.0
 12
141.89673915
 22
97.98259687668524
 32
0.0
 13
141.89673915
 23
97.98259687668524
 33
0.0
  0
MTEXT
  5
3A0
330
39A
100
AcDbEntity
  8
D-STR-DIM
 62
     5
370
    13
100
AcDbMText
 10
106.89673915
 20
100.2325968766852
 30
0.0
 40
2.777777777777778
 41
0.0
 71
     5
 72
     1
  1
\A1;車道幅員
  7
ＭＳ ゴシック
 73
     1
 44
1.0
1001
ACAD
1000
ACAD_MTEXT_DEFINED_HEIGHT_BEGIN
1070
    46
1040
0.2
1000
ACAD_MTEXT_DEFINED_HEIGHT_END
  0
POINT
  5
3A1
330
39A
100
AcDbEntity
  8
Defpoints
 62
     0
100
AcDbPoint
 10
71.89673915
 20
81.95659687668523
 30
0.0
  0
POINT
  5
3A2
330
39A
100
AcDbEntity
  8
Defpoints
 62
     0
100
AcDbPoint
 10
141.89673915
 20
81.95659687668523
 30
0.0
  0
POINT
  5
3A3
330
39A
100
AcDbEntity
  8
Defpoints
 62
     0
100
AcDbPoint
 10
141.89673915
 20
97.98259687668524
 30
0.0
  0
ENDBLK
  5
3A5
330
39A
100
AcDbEntity
  8
0
100
AcDbBlockEnd
  0
BLOCK
  5
3B2
330
3A8
100
AcDbEntity
  8
0
100
AcDbBlockBegin
  2
*D5
 70
     1
 10
0.0
 20
0.0
 30
0.0
  3
*D5
  1

  0
LINE
  5
3A9
330
3A8
100
AcDbEntity
  8
D-STR-DIM
  6
Continuous
 62
     5
370
    -2
100
AcDbLine
 10
141.89673915
 20
88.26231287701094
 30
0.0
 11
141.89673915
 21
104.288312877011
 31
0.0
  0
LINE
  5
3AA
330
3A8
100
AcDbEntity
  8
D-STR-DIM
  6
Continuous
 62
     5
370
    -2
100
AcDbLine
 10
146.89673915
 20
88.78831287701094
 30
0.0
 11
146.89673915
 21
104.288312877011
 31
0.0
  0
LINE
  5
3AB
330
3A8
100
AcDbEntity
  8
D-STR-DIM
  6
Continuous
 62
     5
370
    -2
100
AcDbLine
 10
142.89673915
 20
103.288312877011
 30
0.0
 11
145.89673915
 21
103.288312877011
 31
0.0
  0
SOLID
  5
3AC
330
3A8
100
AcDbEntity
  8
D-STR-DIM
 62
     5
100
AcDbTrace
 10
142.89673915
 20
103.4549795436776
 30
0.0
 11
142.89673915
 21
103.1216462103443
 31
0.0
 12
141.89673915
 22
103.288312877011
 32
0.0
 13
141.89673915
 23
103.288312877011
 33
0.0
  0
SOLID
  5
3AD
330
3A8
100
AcDbEntity
  8
D-STR-DIM
 62
     5
100
AcDbTrace
 10
145.89673915
 20
103.1216462103443
 30
0.0
 11
145.89673915
 21
103.4549795436776
 31
0.0
 12
146.89673915
 22
103.288312877011
 32
0.0
 13
146.89673915
 23
103.288312877011
 33
0.0
  0
MTEXT
  5
3AE
330
3A8
100
AcDbEntity
  8
D-STR-DIM
 62
     5
370
    13
100
AcDbMText
 10
144.39673915
 20
105.538312877011
 30
0.0
 40
2.777777777777778
 41
0.0
 71
     5
 72
     1
  1
\A1;施設帯
  7
ＭＳ ゴシック
 73
     1
 44
1.0
1001
ACAD
1000
ACAD_MTEXT_DEFINED_HEIGHT_BEGIN
1070
    46
1040
0.2
1000
ACAD_MTEXT_DEFINED_HEIGHT_END
  0
POINT
  5
3AF
330
3A8
100
AcDbEntity
  8
Defpoints
 62
     0
100
AcDbPoint
 10
141.89673915
 20
87.26231287701094
 30
0.0
  0
POINT
  5
3B0
330
3A8
100
AcDbEntity
  8
Defpoints
 62
     0
100
AcDbPoint
 10
146.89673915
 20
87.78831287701094
 30
0.0
  0
POINT
  5
3B1
330
3A8
100
AcDbEntity
  8
Defpoints
 62
     0
100
AcDbPoint
 10
146.89673915
 20
103.288312877011
 30
0.0
  0
ENDBLK
  5
3B3
330
3A8
100
AcDbEntity
  8
0
100
AcDbBlockEnd
  0
BLOCK
  5
3BF
330
3B5
100
AcDbEntity
  8
0
100
AcDbBlockBegin
  2
*D6
 70
     1
 10
0.0
 20
0.0
 30
0.0
  3
*D6
  1

  0
LINE
  5
3B6
330
3B5
100
AcDbEntity
  8
D-STR-DIM
  6
Continuous
 62
     5
370
    -2
100
AcDbLine
 10
146.89673915
 20
83.48259687668522
 30
0.0
 11
146.89673915
 21
98.98259687668522
 31
0.0
  0
LINE
  5
3B7
330
3B5
100
AcDbEntity
  8
D-STR-DIM
  6
Continuous
 62
     5
370
    -2
100
AcDbLine
 10
166.89673915
 20
94.95864687668522
 30
0.0
 11
166.89673915
 21
98.98259687668522
 31
0.0
  0
LINE
  5
3B8
330
3B5
100
AcDbEntity
  8
D-STR-DIM
  6
Continuous
 62
     5
370
    -2
100
AcDbLine
 10
147.89673915
 20
97.98259687668524
 30
0.0
 11
165.89673915
 21
97.98259687668524
 31
0.0
  0
SOLID
  5
3B9
330
3B5
100
AcDbEntity
  8
D-STR-DIM
 62
     5
100
AcDbTrace
 10
147.89673915
 20
98.1492635433519
 30
0.0
 11
147.89673915
 21
97.81593021001856
 31
0.0
 12
146.89673915
 22
97.98259687668524
 32
0.0
 13
146.89673915
 23
97.98259687668524
 33
0.0
  0
SOLID
  5
3BA
330
3B5
100
AcDbEntity
  8
D-STR-DIM
 62
     5
100
AcDbTrace
 10
165.89673915
 20
97.81593021001856
 30
0.0
 11
165.89673915
 21
98.1492635433519
 31
0.0
 12
166.89673915
 22
97.98259687668524
 32
0.0
 13
166.89673915
 23
97.98259687668524
 33
0.0
  0
MTEXT
  5
3BB
330
3B5
100
AcDbEntity
  8
D-STR-DIM
 62
     5
370
    13
100
AcDbMText
 10
156.89673915
 20
100.2325968766852
 30
0.0
 40
2.777777777777778
 41
0.0
 71
     5
 72
     1
  1
\A1;有効幅員
  7
ＭＳ ゴシック
 73
     1
 44
1.0
1001
ACAD
1000
ACAD_MTEXT_DEFINED_HEIGHT_BEGIN
1070
    46
1040
0.2
1000
ACAD_MTEXT_DEFINED_HEIGHT_END
  0
POINT
  5
3BC
330
3B5
100
AcDbEntity
  8
Defpoints
 62
     0
100
AcDbPoint
 10
146.89673915
 20
82.48259687668522
 30
0.0
  0
POINT
  5
3BD
330
3B5
100
AcDbEntity
  8
Defpoints
 62
     0
100
AcDbPoint
 10
166.89673915
 20
93.95864687668522
 30
0.0
  0
POINT
  5
3BE
330
3B5
100
AcDbEntity
  8
Defpoints
 62
     0
100
AcDbPoint
 10
166.89673915
 20
97.98259687668524
 30
0.0
  0
ENDBLK
  5
3C0
330
3B5
100
AcDbEntity
  8
0
100
AcDbBlockEnd
  0
BLOCK
  5
3C6
330
3C2
100
AcDbEntity
  8
0
100
AcDbBlockBegin
  2
_Open
 70
     0
 10
0.0
 20
0.0
 30
0.0
  3
_Open
  1

  0
LINE
  5
3C3
330
3C2
100
AcDbEntity
  8
0
 62
     0
100
AcDbLine
 10
-1.0
 20
0.1666666666666667
 30
0.0
 11
0.0
 21
0.0
 31
0.0
  0
LINE
  5
3C4
330
3C2
100
AcDbEntity
  8
0
 62
     0
100
AcDbLine
 10
-1.0
 20
-0.1666666666666667
 30
0.0
 11
0.0
 21
0.0
 31
0.0
  0
LINE
  5
3C5
330
3C2
100
AcDbEntity
  8
0
 62
     0
100
AcDbLine
 10
0.0
 20
0.0
 30
0.0
 11
-1.0
 21
0.0
 31
0.0
  0
ENDBLK
  5
3C7
330
3C2
100
AcDbEntity
  8
0
100
AcDbBlockEnd
  0
BLOCK
  5
3D3
330
3C9
100
AcDbEntity
  8
0
100
AcDbBlockBegin
  2
*D8
 70
     1
 10
0.0
 20
0.0
 30
0.0
  3
*D8
  1

  0
LINE
  5
3CA
330
3C9
100
AcDbEntity
  8
D-STR-DIM
  6
Continuous
 62
     5
370
    -2
100
AcDbLine
 10
65.78866372
 20
215.4024915752646
 30
0.0
 11
65.78866372
 21
231.4024915752646
 31
0.0
  0
LINE
  5
3CB
330
3C9
100
AcDbEntity
  8
D-STR-DIM
  6
Continuous
 62
     5
370
    -2
100
AcDbLine
 10
167.78866372
 20
215.4024915752646
 30
0.0
 11
167.78866372
 21
231.4024915752646
 31
0.0
  0
LINE
  5
3CC
330
3C9
100
AcDbEntity
  8
D-STR-DIM
  6
Continuous
 62
     5
370
    -2
100
AcDbLine
 10
66.78866372
 20
230.4024915752646
 30
0.0
 11
166.78866372
 21
230.4024915752646
 31
0.0
  0
INSERT
  5
3CD
330
3C9
100
AcDbEntity
  8
D-STR-DIM
 62
     5
370
    -2
100
AcDbBlockReference
  2
_Open
 10
65.78866372
 20
230.4024915752646
 30
0.0
 50
180.0
  0
INSERT
  5
3CE
330
3C9
100
AcDbEntity
  8
D-STR-DIM
 62
     5
370
    -2
100
AcDbBlockReference
  2
_Open
 10
167.78866372
 20
230.4024915752646
 30
0.0
  0
MTEXT
  5
3CF
330
3C9
100
AcDbEntity
  8
D-STR-DIM
 62
     5
370
    13
100
AcDbMText
 10
116.78866372
 20
233.1524915752646
 30
0.0
 40
2.777777777777778
 41
0.0
 71
     5
 72
     1
  1
\A1;有効幅員 5.0m以上
  7
ＭＳ ゴシック
 73
     1
 44
1.0
1001
ACAD
1000
ACAD_MTEXT_DEFINED_HEIGHT_BEGIN
1070
    46
1040
0.2
1000
ACAD_MTEXT_DEFINED_HEIGHT_END
  0
POINT
  5
3D0
330
3C9
100
AcDbEntity
  8
Defpoints
 62
     0
100
AcDbPoint
 10
65.78866372
 20
210.4024915752646
 30
0.0
  0
POINT
  5
3D1
330
3C9
100
AcDbEntity
  8
Defpoints
 62
     0
100
AcDbPoint
 10
167.78866372
 20
210.4024915752646
 30
0.0
  0
POINT
  5
3D2
330
3C9
100
AcDbEntity
  8
Defpoints
 62
     0
100
AcDbPoint
 10
167.78866372
 20
230.4024915752646
 30
0.0
  0
ENDBLK
  5
3D4
330
3C9
100
AcDbEntity
  8
0
100
AcDbBlockEnd
  0
BLOCK
  5
3F6
330
3EC
100
AcDbEntity
  8
0
100
AcDbBlockBegin
  2
*D9
 70
     1
 10
0.0
 20
0.0
 30
0.0
  3
*D9
  1

  0
LINE
  5
3ED
330
3EC
100
AcDbEntity
  8
D-STR-DIM
  6
Continuous
 62
     5
370
    -2
100
AcDbLine
 10
173.69923915
 20
73.64906142676553
 30
0.0
 11
182.3703285363677
 21
73.64906142676553
 31
0.0
  0
LINE
  5
3EE
330
3EC
100
AcDbEntity
  8
D-STR-DIM
  6
Continuous
 62
     5
370
    -2
100
AcDbLine
 10
173.69923915
 20
82.85864687668521
 30
0.0
 11
182.3703285363677
 21
82.85864687668521
 31
0.0
  0
LINE
  5
3EF
330
3EC
100
AcDbEntity
  8
D-STR-DIM
  6
Continuous
 62
     5
370
    -2
100
AcDbLine
 10
181.3703285363677
 20
74.64906142676553
 30
0.0
 11
181.3703285363677
 21
81.85864687668521
 31
0.0
  0
INSERT
  5
3F0
330
3EC
100
AcDbEntity
  8
D-STR-DIM
 62
     5
370
    -2
100
AcDbBlockReference
  2
_Open
 10
181.3703285363677
 20
73.64906142676553
 30
0.0
 50
270.0
  0
INSERT
  5
3F1
330
3EC
100
AcDbEntity
  8
D-STR-DIM
 62
     5
370
    -2
100
AcDbBlockReference
  2
_Open
 10
181.3703285363677
 20
82.85864687668521
 30
0.0
 50
90.0
  0
MTEXT
  5
3F2
330
3EC
100
AcDbEntity
  8
D-STR-DIM
 62
     5
370
    13
100
AcDbMText
 10
178.6203285363677
 20
78.25385415172536
 30
0.0
 40
2.777777777777778
 41
0.0
 71
     5
 72
     1
  1
\A1;1.0m以上
  7
ＭＳ ゴシック
 11
6.123233995736766E-17
 21
1.0
 31
0.0
 73
     1
 44
1.0
1001
ACAD
1000
ACAD_MTEXT_DEFINED_HEIGHT_BEGIN
1070
    46
1040
0.2
1000
ACAD_MTEXT_DEFINED_HEIGHT_END
  0
POINT
  5
3F3
330
3EC
100
AcDbEntity
  8
Defpoints
 62
     0
100
AcDbPoint
 10
168.69923915
 20
73.64906142676553
 30
0.0
  0
POINT
  5
3F4
330
3EC
100
AcDbEntity
  8
Defpoints
 62
     0
100
AcDbPoint
 10
168.69923915
 20
82.85864687668521
 30
0.0
  0
POINT
  5
3F5
330
3EC
100
AcDbEntity
  8
Defpoints
 62
     0
100
AcDbPoint
 10
181.3703285363677
 20
82.85864687668521
 30
0.0
  0
ENDBLK
  5
3F7
330
3EC
100
AcDbEntity
  8
0
100
AcDbBlockEnd
  0
ENDSEC
  0
SECTION
  2
ENTITIES
  0
TEXT
  5
4E
330
1F
100
AcDbEntity
  8
D-TTL-TXT
  6
Continuous
 62
     7
370
    13
100
AcDbText
 10
21.40466322
 20
254.7599690462833
 30
0.0
 40
3.968253968253968
  1
別図２０ 転落防止機能付き車両用防護柵　（第１７条第１項第２号関係)
 41
0.8
  7
ＭＳ ゴシック
 11
21.40466322
 21
254.0350806534261
 31
0.0
100
AcDbText
 73
     1
  0
LINE
  5
4F
330
1F
100
AcDbEntity
  8
D-BMK
  6
dashed dotted
 62
     5
370
    13
100
AcDbLine
 10
115.78866372
 20
227.1381125152646
 30
0.0
 11
115.78866372
 21
195.2903619152646
 31
0.0
  0
LINE
  5
50
330
1F
100
AcDbEntity
  8
D-STR
  6
Continuous
 62
     7
370
    50
100
AcDbLine
 10
66.68866372000001
 20
201.4023804552646
 30
0.0
 11
66.48866372
 21
201.4023804552646
 31
0.0
  0
LINE
  5
51
330
1F
100
AcDbEntity
  8
D-STR
  6
Continuous
 62
     7
370
    50
100
AcDbLine
 10
66.48866372
 20
201.6023804552646
 30
0.0
 11
66.68866372000001
 21
201.4023804552646
 31
0.0
  0
LINE
  5
52
330
1F
100
AcDbEntity
  8
D-STR
  6
Continuous
 62
     7
370
    50
100
AcDbLine
 10
74.28866372
 20
201.4023804552646
 30
0.0
 11
66.68866372000001
 21
201.4023804552646
 31
0.0
  0
LINE
  5
53
330
1F
100
AcDbEntity
  8
D-STR
  6
Continuous
 62
     7
370
    50
100
AcDbLine
 10
66.84573388
 20
201.4023804552646
 30
0.0
 11
74.04573388
 21
201.4023804552646
 31
0.0
  0
LINE
  5
54
330
1F
100
AcDbEntity
  8
D-STR
  6
Continuous
 62
     7
370
    50
100
AcDbLine
 10
66.48866372
 20
208.0023804552646
 30
0.0
 11
66.48866372
 21
201.6023804552646
 31
0.0
  0
LINE
  5
55
330
1F
100
AcDbEntity
  8
D-STR
  6
Continuous
 62
     7
370
    50
100
AcDbLine
 10
70.73866372
 20
208.6023804552646
 30
0.0
 11
70.60866372000001
 21
210.2423804552646
 31
0.0
  0
LINE
  5
56
330
1F
100
AcDbEntity
  8
D-STR
  6
Continuous
 62
     7
370
    50
100
AcDbLine
 10
70.23866372
 20
208.6023804552646
 30
0.0
 11
70.36866372
 21
210.2423804552646
 31
0.0
  0
ARC
  5
57
330
1F
100
AcDbEntity
  8
D-STR
  6
Continuous
 62
     7
370
    50
100
AcDbCircle
 10
72.48866372
 20
207.6023804552646
 30
0.0
 40
1.0
100
AcDbArc
 50
0.0
 51
90.0
  0
LINE
  5
58
330
1F
100
AcDbEntity
  8
D-STR
  6
Continuous
 62
     7
370
    50
100
AcDbLine
 10
73.48866372
 20
207.6023804552646
 30
0.0
 11
73.48866372
 21
204.0221843552646
 31
0.0
  0
ARC
  5
59
330
1F
100
AcDbEntity
  8
D-STR
  6
Continuous
 62
     7
370
    50
100
AcDbCircle
 10
72.48866372
 20
204.0221843552646
 30
0.0
 40
1.0
100
AcDbArc
 50
281.3099323089107
 51
0.0
  0
ARC
  5
5A
330
1F
100
AcDbEntity
  8
D-STR
  6
Continuous
 62
     7
370
    50
100
AcDbCircle
 10
68.48866372
 20
207.6023804552646
 30
0.0
 40
1.0
100
AcDbArc
 50
90.0
 51
180.0
  0
LINE
  5
5B
330
1F
100
AcDbEntity
  8
D-STR
  6
Continuous
 62
     7
370
    50
100
AcDbLine
 10
67.48866372
 20
207.6023804552646
 30
0.0
 11
67.48866372
 21
204.0221843552646
 31
0.0
  0
ARC
  5
5C
330
1F
100
AcDbEntity
  8
D-STR
  6
Continuous
 62
     7
370
    50
100
AcDbCircle
 10
68.48866372
 20
204.0221843552646
 30
0.0
 40
1.0
100
AcDbArc
 50
180.0
 51
258.6900676910893
  0
LINE
  5
5D
330
1F
100
AcDbEntity
  8
D-STR
  6
Continuous
 62
     7
370
    50
100
AcDbLine
 10
68.48866372
 20
208.6023804552646
 30
0.0
 11
72.48866372
 21
208.6023804552646
 31
0.0
  0
LINE
  5
5E
330
1F
100
AcDbEntity
  8
D-STR
  6
Continuous
 62
     7
370
    50
100
AcDbLine
 10
68.2925476
 20
203.0416036752646
 30
0.0
 11
70.48866372
 21
202.6023804552646
 31
0.0
  0
LINE
  5
5F
330
1F
100
AcDbEntity
  8
D-STR
  6
Continuous
 62
     7
370
    50
100
AcDbLine
 10
70.48866372
 20
202.6023804552646
 30
0.0
 11
72.68477986
 21
203.0416036752646
 31
0.0
  0
LINE
  5
60
330
1F
100
AcDbEntity
  8
D-STR
  6
Continuous
 62
     7
370
    50
100
AcDbLine
 10
65.78866372
 20
210.4024915752646
 30
0.0
 11
65.78866372
 21
196.2023804552646
 31
0.0
  0
LINE
  5
61
330
1F
100
AcDbEntity
  8
D-STR
  6
Continuous
 62
     7
370
    50
100
AcDbLine
 10
65.78866372
 20
209.0023804552646
 30
0.0
 11
66.48866372
 21
208.0023804552646
 31
0.0
  0
LINE
  5
62
330
1F
100
AcDbEntity
  8
D-STR
  6
Continuous
 62
     7
370
    50
100
AcDbLine
 10
65.78866372
 20
210.4024915752646
 30
0.0
 11
70.30866372
 21
210.3023804552646
 31
0.0
  0
LINE
  5
63
330
1F
100
AcDbEntity
  8
D-STR
  6
Continuous
 62
     7
370
    50
100
AcDbLine
 10
70.66866372000001
 20
210.3023804552646
 30
0.0
 11
75.18866372000001
 21
210.4022372152646
 31
0.0
  0
LINE
  5
64
330
1F
100
AcDbEntity
  8
D-STR
  6
Continuous
 62
     7
370
    50
100
AcDbLine
 10
70.58866372
 20
209.9023804552646
 30
0.0
 11
70.60866372
 21
210.2423804552646
 31
0.0
  0
LINE
  5
65
330
1F
100
AcDbEntity
  8
D-STR
  6
Continuous
 62
     7
370
    50
100
AcDbLine
 10
70.38866372000001
 20
209.9023804552646
 30
0.0
 11
70.36866372000001
 21
210.2423804552646
 31
0.0
  0
LINE
  5
66
330
1F
100
AcDbEntity
  8
D-STR
  6
Continuous
 62
     7
370
    50
100
AcDbLine
 10
70.38866372000001
 20
209.9023804552646
 30
0.0
 11
70.58866372000001
 21
209.9023804552646
 31
0.0
  0
LINE
  5
67
330
1F
100
AcDbEntity
  8
D-STR
  6
Continuous
 62
     7
370
    50
100
AcDbLine
 10
70.30866372000001
 20
210.3023804552646
 30
0.0
 11
70.36866372000001
 21
210.2423804552646
 31
0.0
  0
LINE
  5
68
330
1F
100
AcDbEntity
  8
D-STR
  6
Continuous
 62
     7
370
    50
100
AcDbLine
 10
70.66866372000001
 20
210.3023804552646
 30
0.0
 11
70.60866372000001
 21
210.2423804552646
 31
0.0
  0
LINE
  5
69
330
1F
100
AcDbEntity
  8
D-STR
  6
Continuous
 62
     7
370
    50
100
AcDbLine
 10
76.48866372
 20
196.2023804552646
 30
0.0
 11
76.48866372
 21
199.2023804552646
 31
0.0
  0
LINE
  5
6A
330
1F
100
AcDbEntity
  8
D-STR
  6
Continuous
 62
     7
370
    50
100
AcDbLine
 10
75.48866372
 20
199.2023804552646
 30
0.0
 11
75.48866372
 21
201.2023804552646
 31
0.0
  0
LINE
  5
6B
330
1F
100
AcDbEntity
  8
D-STR
  6
Continuous
 62
     7
370
    50
100
AcDbLine
 10
74.48866372
 20
201.4023804552646
 30
0.0
 11
74.48866372
 21
201.2023804552646
 31
0.0
  0
LINE
  5
6C
330
1F
100
AcDbEntity
  8
D-STR
  6
Continuous
 62
     7
370
    50
100
AcDbLine
 10
74.28866372
 20
201.4023804552646
 30
0.0
 11
74.48866372
 21
201.4023804552646
 31
0.0
  0
LINE
  5
6D
330
1F
100
AcDbEntity
  8
D-STR
  6
Continuous
 62
     7
370
    50
100
AcDbLine
 10
74.28866372
 20
201.4023804552646
 30
0.0
 11
74.48866372
 21
201.6023804552646
 31
0.0
  0
LINE
  5
6E
330
1F
100
AcDbEntity
  8
D-STR
  6
Continuous
 62
     7
370
    50
100
AcDbLine
 10
74.48866372
 20
208.0023804552646
 30
0.0
 11
74.48866372
 21
201.6023804552646
 31
0.0
  0
LINE
  5
6F
330
1F
100
AcDbEntity
  8
D-STR
  6
Continuous
 62
     7
370
    50
100
AcDbLine
 10
75.18866372000001
 20
210.4022372152646
 30
0.0
 11
75.18866372000001
 21
209.0023804552646
 31
0.0
  0
LINE
  5
70
330
1F
100
AcDbEntity
  8
D-STR
  6
Continuous
 62
     7
370
    50
100
AcDbLine
 10
75.18866372000001
 20
209.0023804552646
 30
0.0
 11
74.48866372
 21
208.0023804552646
 31
0.0
  0
ELLIPSE
  5
71
330
1F
100
AcDbEntity
  8
D-STR-STR2
  6
Continuous
 62
   134
370
    13
100
AcDbEllipse
 10
66.19965094
 20
196.9523804552646
 30
0.0
 11
0.1302361332501931
 21
0.7386058147591541
 31
0.0
210
0.0
220
0.0
230
1.0
 40
0.5
 41
0.0
 42
6.283185307179586
  0
ELLIPSE
  5
72
330
1F
100
AcDbEntity
  8
D-STR-STR2
  6
Continuous
 62
   134
370
    13
100
AcDbEllipse
 10
66.96700838
 20
196.9523804552646
 30
0.0
 11
0.1302361332501931
 21
0.7386058147591541
 31
0.0
210
0.0
220
0.0
230
1.0
 40
0.5
 41
0.0
 42
6.283185307179586
  0
ELLIPSE
  5
73
330
1F
100
AcDbEntity
  8
D-STR-STR2
  6
Continuous
 62
   134
370
    13
100
AcDbEllipse
 10
67.73436579999999
 20
196.9523804552646
 30
0.0
 11
0.1302361332501931
 21
0.7386058147591541
 31
0.0
210
0.0
220
0.0
230
1.0
 40
0.5
 41
0.0
 42
6.283185307179586
  0
ELLIPSE
  5
74
330
1F
100
AcDbEntity
  8
D-STR-STR2
  6
Continuous
 62
   134
370
    13
100
AcDbEllipse
 10
68.50172324
 20
196.9523804552646
 30
0.0
 11
0.1302361332501931
 21
0.7386058147591541
 31
0.0
210
0.0
220
0.0
230
1.0
 40
0.5
 41
0.0
 42
6.283185307179586
  0
ELLIPSE
  5
75
330
1F
100
AcDbEntity
  8
D-STR-STR2
  6
Continuous
 62
   134
370
    13
100
AcDbEllipse
 10
66.19965094
 20
198.4523804552646
 30
0.0
 11
0.1302361332501931
 21
0.7386058147591541
 31
0.0
210
0.0
220
0.0
230
1.0
 40
0.5
 41
0.0
 42
6.283185307179586
  0
ELLIPSE
  5
76
330
1F
100
AcDbEntity
  8
D-STR-STR2
  6
Continuous
 62
   134
370
    13
100
AcDbEllipse
 10
66.96700838
 20
198.4523804552646
 30
0.0
 11
0.1302361332501931
 21
0.7386058147591541
 31
0.0
210
0.0
220
0.0
230
1.0
 40
0.5
 41
0.0
 42
6.283185307179586
  0
ELLIPSE
  5
77
330
1F
100
AcDbEntity
  8
D-STR-STR2
  6
Continuous
 62
   134
370
    13
100
AcDbEllipse
 10
67.73436579999999
 20
198.4523804552646
 30
0.0
 11
0.1302361332501931
 21
0.7386058147591541
 31
0.0
210
0.0
220
0.0
230
1.0
 40
0.5
 41
0.0
 42
6.283185307179586
  0
ELLIPSE
  5
78
330
1F
100
AcDbEntity
  8
D-STR-STR2
  6
Continuous
 62
   134
370
    13
100
AcDbEllipse
 10
68.50172324
 20
198.4523804552646
 30
0.0
 11
0.1302361332501931
 21
0.7386058147591541
 31
0.0
210
0.0
220
0.0
230
1.0
 40
0.5
 41
0.0
 42
6.283185307179586
  0
ELLIPSE
  5
79
330
1F
100
AcDbEntity
  8
D-STR-STR2
  6
Continuous
 62
   134
370
    13
100
AcDbEllipse
 10
73.79460678000001
 20
196.9523804552646
 30
0.0
 11
0.1302361332501931
 21
0.7386058147591541
 31
0.0
210
0.0
220
0.0
230
1.0
 40
0.5
 41
0.0
 42
6.283185307179586
  0
ELLIPSE
  5
7A
330
1F
100
AcDbEntity
  8
D-STR-STR2
  6
Continuous
 62
   134
370
    13
100
AcDbEllipse
 10
74.56196422000001
 20
196.9523804552646
 30
0.0
 11
0.1302361332501931
 21
0.7386058147591541
 31
0.0
210
0.0
220
0.0
230
1.0
 40
0.5
 41
0.0
 42
6.283185307179586
  0
ELLIPSE
  5
7B
330
1F
100
AcDbEntity
  8
D-STR-STR2
  6
Continuous
 62
   134
370
    13
100
AcDbEllipse
 10
75.32932165999999
 20
196.9523804552646
 30
0.0
 11
0.1302361332501931
 21
0.7386058147591541
 31
0.0
210
0.0
220
0.0
230
1.0
 40
0.5
 41
0.0
 42
6.283185307179586
  0
ELLIPSE
  5
7C
330
1F
100
AcDbEntity
  8
D-STR-STR2
  6
Continuous
 62
   134
370
    13
100
AcDbEllipse
 10
73.79460678000001
 20
198.4523804552646
 30
0.0
 11
0.1302361332501931
 21
0.7386058147591541
 31
0.0
210
0.0
220
0.0
230
1.0
 40
0.5
 41
0.0
 42
6.283185307179586
  0
ELLIPSE
  5
7D
330
1F
100
AcDbEntity
  8
D-STR-STR2
  6
Continuous
 62
   134
370
    13
100
AcDbEllipse
 10
74.56196422000001
 20
198.4523804552646
 30
0.0
 11
0.1302361332501931
 21
0.7386058147591541
 31
0.0
210
0.0
220
0.0
230
1.0
 40
0.5
 41
0.0
 42
6.283185307179586
  0
ELLIPSE
  5
7E
330
1F
100
AcDbEntity
  8
D-STR-STR2
  6
Continuous
 62
   134
370
    13
100
AcDbEllipse
 10
75.32932165999999
 20
198.4523804552646
 30
0.0
 11
0.1302361332501931
 21
0.7386058147591541
 31
0.0
210
0.0
220
0.0
230
1.0
 40
0.5
 41
0.0
 42
6.283185307179586
  0
ELLIPSE
  5
7F
330
1F
100
AcDbEntity
  8
D-STR-STR2
  6
Continuous
 62
   134
370
    13
100
AcDbEllipse
 10
76.09667908
 20
196.9523804552646
 30
0.0
 11
0.1302361332501931
 21
0.7386058147591541
 31
0.0
210
0.0
220
0.0
230
1.0
 40
0.5
 41
0.0
 42
6.283185307179586
  0
ELLIPSE
  5
80
330
1F
100
AcDbEntity
  8
D-STR-STR2
  6
Continuous
 62
   134
370
    13
100
AcDbEllipse
 10
76.09667908
 20
198.4523804552646
 30
0.0
 11
0.1302361332501931
 21
0.7386058147591541
 31
0.0
210
0.0
220
0.0
230
1.0
 40
0.5
 41
0.0
 42
6.283185307179586
  0
HATCH
  5
81
330
1F
100
AcDbEntity
  8
D-STR-STR2
  6
Continuous
 62
   134
370
    13
100
AcDbHatch
 10
0.0
 20
0.0
 30
0.0
210
0.0
220
0.0
230
1.0
  2
SOLID
 70
     1
 71
     0
 91
        1
 92
        3
 72
     0
 73
     1
 93
        6
 10
66.68866372000001
 20
201.4023804552646
 10
66.48866372
 20
201.4023804552646
 10
66.48866372
 20
201.2023804552646
 10
74.48866372
 20
201.2023804552646
 10
74.48866372
 20
201.4023804552646
 10
74.28866372
 20
201.4023804552646
 97
        0
 75
     0
 76
     1
 98
        0
  0
LINE
  5
82
330
1F
100
AcDbEntity
  8
D-STR
  6
Continuous
 62
     7
370
    50
100
AcDbLine
 10
66.48866372
 20
201.4023804552646
 30
0.0
 11
66.48866372
 21
201.2023804552646
 31
0.0
  0
LINE
  5
83
330
1F
100
AcDbEntity
  8
D-STR
  6
Continuous
 62
     7
370
    50
100
AcDbLine
 10
75.48866372
 20
201.2023804552646
 30
0.0
 11
65.78866372
 21
201.2023804552646
 31
0.0
  0
LINE
  5
84
330
1F
100
AcDbEntity
  8
D-STR
  6
Continuous
 62
     7
370
    50
100
AcDbLine
 10
76.48866372
 20
199.2023804552646
 30
0.0
 11
65.78866372
 21
199.2023804552646
 31
0.0
  0
LINE
  5
85
330
1F
100
AcDbEntity
  8
D-STR
  6
Continuous
 62
     7
370
    50
100
AcDbLine
 10
76.48866372
 20
196.2023804552646
 30
0.0
 11
65.78866372
 21
196.2023804552646
 31
0.0
  0
LINE
  5
86
330
1F
100
AcDbEntity
  8
D-STR
  6
Continuous
 62
     7
370
    50
100
AcDbLine
 10
65.78866372
 20
210.4024915752646
 30
0.0
 11
57.78866372
 21
210.4024915752646
 31
0.0
  0
LINE
  5
87
330
1F
100
AcDbEntity
  8
D-STR
  6
Continuous
 62
     7
370
    50
100
AcDbLine
 10
87.78866372
 20
170.4024915752646
 30
0.0
 11
57.78866372
 21
170.4024915752646
 31
0.0
  0
LINE
  5
88
330
1F
100
AcDbEntity
  8
D-STR
  6
Continuous
 62
     7
370
    50
100
AcDbLine
 10
79.78866372
 20
172.6024915752647
 30
0.0
 11
64.38866372
 21
176.0024915752646
 31
0.0
  0
LINE
  5
89
330
1F
100
AcDbEntity
  8
D-STR
  6
Continuous
 62
     7
370
    50
100
AcDbLine
 10
63.38866372
 20
177.0024915752646
 30
0.0
 11
64.38866372000001
 21
176.0024915752646
 31
0.0
  0
LINE
  5
8A
330
1F
100
AcDbEntity
  8
D-STR
  6
Continuous
 62
     7
370
    50
100
AcDbLine
 10
59.98866372000001
 20
210.4024915752646
 30
0.0
 11
59.98866372000001
 21
175.6024915752646
 31
0.0
  0
LINE
  5
8B
330
1F
100
AcDbEntity
  8
D-STR
  6
Continuous
 62
     7
370
    50
100
AcDbLine
 10
59.98866372000001
 20
175.6024915752647
 30
0.0
 11
62.98866372000001
 21
172.6024915752647
 31
0.0
  0
LINE
  5
8C
330
1F
100
AcDbEntity
  8
D-STR
  6
Continuous
 62
     7
370
    50
100
AcDbLine
 10
65.78866372
 20
196.2023804552646
 30
0.0
 11
65.78866372
 21
210.4024915752646
 31
0.0
  0
LINE
  5
8D
330
1F
100
AcDbEntity
  8
D-STR
  6
Continuous
 62
     7
370
    50
100
AcDbLine
 10
87.78866372
 20
172.6024915752647
 30
0.0
 11
62.98866372000001
 21
172.6024915752647
 31
0.0
  0
LINE
  5
8E
330
1F
100
AcDbEntity
  8
D-STR
  6
Continuous
 62
     7
370
    50
100
AcDbLine
 10
63.38866372
 20
198.4024915752646
 30
0.0
 11
65.78866372
 21
200.4024915752646
 31
0.0
  0
LINE
  5
8F
330
1F
100
AcDbEntity
  8
D-STR
  6
Continuous
 62
     7
370
    50
100
AcDbLine
 10
63.38866372
 20
198.4024915752646
 30
0.0
 11
63.38866372
 21
177.0024915752646
 31
0.0
  0
LINE
  5
90
330
1F
100
AcDbEntity
  8
D-STR
  6
Continuous
 62
     7
370
    50
100
AcDbLine
 10
87.78866372
 20
172.6024915752647
 30
0.0
 11
87.78866372
 21
170.0024915752646
 31
0.0
  0
LINE
  5
91
330
1F
100
AcDbEntity
  8
D-STR
  6
Continuous
 62
     7
370
    50
100
AcDbLine
 10
89.78866372
 20
164.0024915752646
 30
0.0
 11
89.78866372
 21
170.0024915752646
 31
0.0
  0
LINE
  5
92
330
1F
100
AcDbEntity
  8
D-STR
  6
Continuous
 62
     7
370
    50
100
AcDbLine
 10
57.78866372
 20
210.4024915752646
 30
0.0
 11
57.78866372
 21
170.0024915752646
 31
0.0
  0
LINE
  5
93
330
1F
100
AcDbEntity
  8
D-STR
  6
Continuous
 62
     7
370
    50
100
AcDbLine
 10
89.78866372
 20
170.0024915752646
 30
0.0
 11
55.78866372
 21
170.0024915752646
 31
0.0
  0
LINE
  5
94
330
1F
100
AcDbEntity
  8
D-STR
  6
Continuous
 62
     7
370
    50
100
AcDbLine
 10
89.78866372
 20
168.0024915752646
 30
0.0
 11
55.78866372
 21
168.0024915752646
 31
0.0
  0
LINE
  5
95
330
1F
100
AcDbEntity
  8
D-STR
  6
Continuous
 62
     7
370
    50
100
AcDbLine
 10
55.78866372
 20
170.0024915752646
 30
0.0
 11
55.78866372
 21
164.0024915752646
 31
0.0
  0
LINE
  5
96
330
1F
100
AcDbEntity
  8
D-STR
  6
Continuous
 62
     7
370
    50
100
AcDbLine
 10
89.78866372
 20
164.0024915752646
 30
0.0
 11
55.78866372
 21
164.0024915752646
 31
0.0
  0
LINE
  5
97
330
1F
100
AcDbEntity
  8
D-STR
  6
Continuous
 62
     7
370
    50
100
AcDbLine
 10
60.58166371999999
 20
222.8024915752646
 30
0.0
 11
60.58166371999999
 21
222.0024915752646
 31
0.0
  0
LINE
  5
98
330
1F
100
AcDbEntity
  8
D-STR
  6
Continuous
 62
     7
370
    50
100
AcDbLine
 10
60.59966372
 20
229.5224915752646
 30
0.0
 11
60.59966372
 21
229.0424915752646
 31
0.0
  0
LINE
  5
99
330
1F
100
AcDbEntity
  8
D-STR
  6
Continuous
 62
     7
370
    50
100
AcDbLine
 10
60.64566372
 20
229.5224915752646
 30
0.0
 11
60.64566372
 21
229.0424915752646
 31
0.0
  0
LINE
  5
9A
330
1F
100
AcDbEntity
  8
D-STR
  6
Continuous
 62
     7
370
    50
100
AcDbLine
 10
60.59966372
 20
229.1424915752646
 30
0.0
 11
60.64566372000001
 21
229.1424915752646
 31
0.0
  0
LINE
  5
9B
330
1F
100
AcDbEntity
  8
D-STR
  6
Continuous
 62
     7
370
    50
100
AcDbLine
 10
60.59966372
 20
229.4224915752646
 30
0.0
 11
60.64566372000001
 21
229.4224915752646
 31
0.0
  0
LINE
  5
9C
330
1F
100
AcDbEntity
  8
D-STR
  6
Continuous
 62
     7
370
    50
100
AcDbLine
 10
60.59966372
 20
229.0424915752646
 30
0.0
 11
60.64566372000001
 21
229.0424915752646
 31
0.0
  0
LINE
  5
9D
330
1F
100
AcDbEntity
  8
D-STR
  6
Continuous
 62
     7
370
    50
100
AcDbLine
 10
60.59966372
 20
229.5224915752646
 30
0.0
 11
60.64566372000001
 21
229.5224915752646
 31
0.0
  0
LINE
  5
9E
330
1F
100
AcDbEntity
  8
D-STR
  6
USER_2
 62
     7
370
    50
100
AcDbLine
 10
64.4194465
 20
229.2824915752646
 30
0.0
 11
60.37897328
 21
229.2824915752646
 31
0.0
  0
ARC
  5
9F
330
1F
100
AcDbEntity
  8
D-STR
  6
Continuous
 62
     7
370
    50
100
AcDbCircle
 10
60.58391998
 20
229.1179915752647
 30
0.0
 40
0.08425626
100
AcDbArc
 50
139.6965059315715
 51
220.3034940684285
  0
ARC
  5
A0
330
1F
100
AcDbEntity
  8
D-STR
  6
Continuous
 62
     7
370
    50
100
AcDbCircle
 10
60.81216372
 20
229.2824915752646
 30
0.0
 40
0.3125
100
AcDbArc
 50
159.3903070624654
 51
200.6096929375346
  0
ARC
  5
A1
330
1F
100
AcDbEntity
  8
D-STR
  6
Continuous
 62
     7
370
    50
100
AcDbCircle
 10
60.58391998
 20
229.4469915752646
 30
0.0
 40
0.08425626
100
AcDbArc
 50
139.6965059315715
 51
220.3034940684285
  0
ARC
  5
A2
330
1F
100
AcDbEntity
  8
D-STR
  6
Continuous
 62
     7
370
    50
100
AcDbCircle
 10
60.77941998
 20
229.2824915752646
 30
0.0
 40
0.33975624
100
AcDbArc
 50
139.8658258320309
 51
220.1341741679683
  0
LINE
  5
A3
330
1F
100
AcDbEntity
  8
D-STR
  6
Continuous
 62
     7
370
    50
100
AcDbLine
 10
60.59966372
 20
229.0634915752646
 30
0.0
 11
60.51966372
 21
229.0634915752646
 31
0.0
  0
LINE
  5
A4
330
1F
100
AcDbEntity
  8
D-STR
  6
Continuous
 62
     7
370
    50
100
AcDbLine
 10
60.59966372
 20
229.5014915752646
 30
0.0
 11
60.51966372
 21
229.5014915752646
 31
0.0
  0
LINE
  5
A5
330
1F
100
AcDbEntity
  8
D-STR
  6
Continuous
 62
     7
370
    50
100
AcDbLine
 10
60.59966372
 20
229.1724915752646
 30
0.0
 11
60.51966372
 21
229.1724915752646
 31
0.0
  0
LINE
  5
A6
330
1F
100
AcDbEntity
  8
D-STR
  6
Continuous
 62
     7
370
    50
100
AcDbLine
 10
60.59966372
 20
229.3924915752646
 30
0.0
 11
60.51966372
 21
229.3924915752646
 31
0.0
  0
LINE
  5
A7
330
1F
100
AcDbEntity
  8
D-STR
  6
USER_3
 62
     7
370
    50
100
AcDbLine
 10
62.86166372
 20
229.4024915752646
 30
0.0
 11
60.63566372
 21
229.4024915752646
 31
0.0
  0
LINE
  5
A8
330
1F
100
AcDbEntity
  8
D-STR
  6
USER_3
 62
     7
370
    50
100
AcDbLine
 10
62.86166372
 20
229.1624915752646
 30
0.0
 11
60.63566372
 21
229.1624915752646
 31
0.0
  0
LINE
  5
A9
330
1F
100
AcDbEntity
  8
D-STR
  6
Continuous
 62
     7
370
    50
100
AcDbLine
 10
60.59966372
 20
232.2224915752646
 30
0.0
 11
60.59966372
 21
231.7424915752646
 31
0.0
  0
LINE
  5
AA
330
1F
100
AcDbEntity
  8
D-STR
  6
Continuous
 62
     7
370
    50
100
AcDbLine
 10
60.58166371999999
 20
222.0024915752646
 30
0.0
 11
60.64566372
 21
222.0024915752646
 31
0.0
  0
LINE
  5
AB
330
1F
100
AcDbEntity
  8
D-STR
  6
Continuous
 62
     7
370
    50
100
AcDbLine
 10
60.58166371999999
 20
222.8024915752646
 30
0.0
 11
60.64566372
 21
222.8024915752646
 31
0.0
  0
LINE
  5
AC
330
1F
100
AcDbEntity
  8
D-STR
  6
Continuous
 62
     7
370
    50
100
AcDbLine
 10
60.64566372
 20
232.2224915752646
 30
0.0
 11
60.64566372
 21
231.7424915752646
 31
0.0
  0
LINE
  5
AD
330
1F
100
AcDbEntity
  8
D-STR
  6
Continuous
 62
     7
370
    50
100
AcDbLine
 10
60.59966372
 20
231.8424915752646
 30
0.0
 11
60.64566372000001
 21
231.8424915752646
 31
0.0
  0
LINE
  5
AE
330
1F
100
AcDbEntity
  8
D-STR
  6
Continuous
 62
     7
370
    50
100
AcDbLine
 10
60.59966372
 20
232.1224915752646
 30
0.0
 11
60.64566372000001
 21
232.1224915752646
 31
0.0
  0
LINE
  5
AF
330
1F
100
AcDbEntity
  8
D-STR
  6
Continuous
 62
     7
370
    50
100
AcDbLine
 10
60.03166372
 20
222.5824915752646
 30
0.0
 11
60.03166372
 21
222.2224915752646
 31
0.0
  0
LINE
  5
B0
330
1F
100
AcDbEntity
  8
D-STR
  6
Continuous
 62
     7
370
    50
100
AcDbLine
 10
60.26166372
 20
222.2024915752646
 30
0.0
 11
60.05166372
 21
222.2024915752646
 31
0.0
  0
LINE
  5
B1
330
1F
100
AcDbEntity
  8
D-STR
  6
Continuous
 62
     7
370
    50
100
AcDbLine
 10
60.26166372
 20
222.6024915752646
 30
0.0
 11
60.05166372
 21
222.6024915752646
 31
0.0
  0
LINE
  5
B2
330
1F
100
AcDbEntity
  8
D-STR
  6
Continuous
 62
     7
370
    50
100
AcDbLine
 10
60.05166372
 20
222.6024915752646
 30
0.0
 11
60.05166372
 21
222.2024915752646
 31
0.0
  0
LINE
  5
B3
330
1F
100
AcDbEntity
  8
D-STR
  6
Continuous
 62
     7
370
    50
100
AcDbLine
 10
60.26166372
 20
222.5824915752646
 30
0.0
 11
60.03166372
 21
222.5824915752646
 31
0.0
  0
LINE
  5
B4
330
1F
100
AcDbEntity
  8
D-STR
  6
Continuous
 62
     7
370
    50
100
AcDbLine
 10
60.03166372
 20
222.2224915752646
 30
0.0
 11
60.26166371999999
 21
222.2224915752646
 31
0.0
  0
LINE
  5
B5
330
1F
100
AcDbEntity
  8
D-STR
  6
Continuous
 62
     7
370
    50
100
AcDbLine
 10
60.05166372
 20
222.2024915752646
 30
0.0
 11
60.03166372
 21
222.2224915752646
 31
0.0
  0
LINE
  5
B6
330
1F
100
AcDbEntity
  8
D-STR
  6
Continuous
 62
     7
370
    50
100
AcDbLine
 10
60.59966372
 20
213.4424915752646
 30
0.0
 11
60.59966372
 21
212.9624915752646
 31
0.0
  0
ARC
  5
B7
330
1F
100
AcDbEntity
  8
D-STR
  6
Continuous
 62
     7
370
    50
100
AcDbCircle
 10
61.78866372
 20
230.9609775152646
 30
0.0
 40
2.36151406
100
AcDbArc
 50
59.82494419630417
 51
120.1750558036958
  0
LINE
  5
B8
330
1F
100
AcDbEntity
  8
D-STR
  6
Continuous
 62
     7
370
    50
100
AcDbLine
 10
62.97566372000001
 20
232.7024915752646
 30
0.0
 11
60.60166372
 21
232.7024915752646
 31
0.0
  0
LINE
  5
B9
330
1F
100
AcDbEntity
  8
D-STR
  6
Continuous
 62
     7
370
    50
100
AcDbLine
 10
62.97566372000001
 20
233.0024915752646
 30
0.0
 11
62.97566372000001
 21
232.7024915752646
 31
0.0
  0
LINE
  5
BA
330
1F
100
AcDbEntity
  8
D-STR
  6
Continuous
 62
     7
370
    50
100
AcDbLine
 10
60.60166372
 20
233.0024915752646
 30
0.0
 11
60.60166372
 21
232.7024915752646
 31
0.0
  0
LINE
  5
BB
330
1F
100
AcDbEntity
  8
D-STR
  6
Continuous
 62
     7
370
    50
100
AcDbLine
 10
60.60166372
 20
233.0024915752646
 30
0.0
 11
62.97566372
 21
233.0024915752646
 31
0.0
  0
LINE
  5
BC
330
1F
100
AcDbEntity
  8
D-STR
  6
Continuous
 62
     7
370
    50
100
AcDbLine
 10
60.03166372
 20
222.5824915752646
 30
0.0
 11
60.05166372
 21
222.6024915752646
 31
0.0
  0
LINE
  5
BD
330
1F
100
AcDbEntity
  8
D-STR
  6
Continuous
 62
     7
370
    50
100
AcDbLine
 10
63.55166372
 20
221.7024915752646
 30
0.0
 11
62.75166372
 21
221.7024915752646
 31
0.0
  0
LINE
  5
BE
330
1F
100
AcDbEntity
  8
D-STR
  6
Continuous
 62
     7
370
    50
100
AcDbLine
 10
63.55166372
 20
223.1024915752646
 30
0.0
 11
62.75166372
 21
223.1024915752646
 31
0.0
  0
ARC
  5
BF
330
1F
100
AcDbEntity
  8
D-STR
  6
Continuous
 62
     7
370
    50
100
AcDbCircle
 10
63.62466372
 20
229.6764915752646
 30
0.0
 40
0.26
100
AcDbArc
 50
22.6198649480391
 51
157.3801350519609
  0
LINE
  5
C0
330
1F
100
AcDbEntity
  8
D-STR
  6
Continuous
 62
     7
370
    50
100
AcDbLine
 10
62.93166372
 20
223.1024915752646
 30
0.0
 11
62.93166372
 21
229.0324915752646
 31
0.0
  0
LINE
  5
C1
330
1F
100
AcDbEntity
  8
D-STR
  6
Continuous
 62
     7
370
    50
100
AcDbLine
 10
63.38466372
 20
229.7764915752646
 30
0.0
 11
63.86466372
 21
229.7764915752646
 31
0.0
  0
LINE
  5
C2
330
1F
100
AcDbEntity
  8
D-STR
  6
Continuous
 62
     7
370
    50
100
AcDbLine
 10
63.44466372
 20
229.7764915752646
 30
0.0
 11
63.44466372
 21
229.7482336952646
 31
0.0
  0
LINE
  5
C3
330
1F
100
AcDbEntity
  8
D-STR
  6
Continuous
 62
     7
370
    50
100
AcDbLine
 10
63.80466372
 20
229.7764915752646
 30
0.0
 11
63.80466372
 21
229.7425307152646
 31
0.0
  0
LINE
  5
C4
330
1F
100
AcDbEntity
  8
D-STR
  6
Continuous
 62
     7
370
    50
100
AcDbLine
 10
63.74466372
 20
228.9208826752646
 30
0.0
 11
63.74466372
 21
229.6441004752646
 31
0.0
  0
LINE
  5
C5
330
1F
100
AcDbEntity
  8
D-STR
  6
Continuous
 62
     7
370
    50
100
AcDbLine
 10
63.50466372
 20
228.4964915752646
 30
0.0
 11
63.50466372
 21
228.5424915752646
 31
0.0
  0
LINE
  5
C6
330
1F
100
AcDbEntity
  8
D-STR
  6
Continuous
 62
     7
370
    50
100
AcDbLine
 10
60.64566372
 20
213.4424915752646
 30
0.0
 11
60.64566372
 21
212.9624915752646
 31
0.0
  0
LINE
  5
C7
330
1F
100
AcDbEntity
  8
D-STR
  6
Continuous
 62
     7
370
    50
100
AcDbLine
 10
60.59966372
 20
213.0624915752646
 30
0.0
 11
60.64566372000001
 21
213.0624915752646
 31
0.0
  0
LINE
  5
C8
330
1F
100
AcDbEntity
  8
D-STR
  6
Continuous
 62
     7
370
    50
100
AcDbLine
 10
60.59966372
 20
213.3424915752646
 30
0.0
 11
60.64566372000001
 21
213.3424915752646
 31
0.0
  0
LINE
  5
C9
330
1F
100
AcDbEntity
  8
D-STR
  6
Continuous
 62
     7
370
    50
100
AcDbLine
 10
63.74466372
 20
228.4964915752646
 30
0.0
 11
63.74466372
 21
228.5424915752646
 31
0.0
  0
LINE
  5
CA
330
1F
100
AcDbEntity
  8
D-STR
  6
Continuous
 62
     7
370
    50
100
AcDbLine
 10
63.50466372
 20
228.9764915752646
 30
0.0
 11
63.74466372000001
 21
228.9764915752646
 31
0.0
  0
LINE
  5
CB
330
1F
100
AcDbEntity
  8
D-STR
  6
Continuous
 62
     7
370
    50
100
AcDbLine
 10
63.72466372
 20
228.4764915752646
 30
0.0
 11
63.52466372
 21
228.4764915752646
 31
0.0
  0
LINE
  5
CC
330
1F
100
AcDbEntity
  8
D-STR
  6
Continuous
 62
     7
370
    50
100
AcDbLine
 10
63.52466372
 20
228.4764915752646
 30
0.0
 11
63.52466372
 21
228.5424915752646
 31
0.0
  0
LINE
  5
CD
330
1F
100
AcDbEntity
  8
D-STR
  6
Continuous
 62
     7
370
    50
100
AcDbLine
 10
63.72466372
 20
228.4764915752646
 30
0.0
 11
63.72466372
 21
228.5424915752646
 31
0.0
  0
LINE
  5
CE
330
1F
100
AcDbEntity
  8
D-STR
  6
Continuous
 62
     7
370
    50
100
AcDbLine
 10
63.01866372000001
 20
229.0324915752646
 30
0.0
 11
63.01866372000001
 21
229.5324915752646
 31
0.0
  0
LINE
  5
CF
330
1F
100
AcDbEntity
  8
D-STR
  6
Continuous
 62
     7
370
    50
100
AcDbLine
 10
63.74466372
 20
228.4964915752646
 30
0.0
 11
63.50466372
 21
228.4964915752646
 31
0.0
  0
LINE
  5
D0
330
1F
100
AcDbEntity
  8
D-STR
  6
Continuous
 62
     7
370
    50
100
AcDbLine
 10
62.85866372
 20
229.5324915752646
 30
0.0
 11
62.85866372
 21
229.0324915752646
 31
0.0
  0
LINE
  5
D1
330
1F
100
AcDbEntity
  8
D-STR
  6
Continuous
 62
     7
370
    50
100
AcDbLine
 10
63.01866372000001
 20
229.0324915752646
 30
0.0
 11
62.85866372000001
 21
229.0324915752646
 31
0.0
  0
LINE
  5
D2
330
1F
100
AcDbEntity
  8
D-STR
  6
Continuous
 62
     7
370
    50
100
AcDbLine
 10
63.01866372000001
 20
229.5324915752646
 30
0.0
 11
62.85866372000001
 21
229.5324915752646
 31
0.0
  0
LINE
  5
D3
330
1F
100
AcDbEntity
  8
D-STR
  6
Continuous
 62
     7
370
    50
100
AcDbLine
 10
63.50466372
 20
228.4964915752646
 30
0.0
 11
63.52466372000001
 21
228.4764915752646
 31
0.0
  0
LINE
  5
D4
330
1F
100
AcDbEntity
  8
D-STR
  6
Continuous
 62
     7
370
    50
100
AcDbLine
 10
63.0963649
 20
229.5357650552646
 30
0.0
 11
63.53228212
 21
229.7128059352646
 31
0.0
  0
ARC
  5
D5
330
1F
100
AcDbEntity
  8
D-STR
  6
Continuous
 62
     7
370
    50
100
AcDbCircle
 10
63.11066372000001
 20
229.5005579152646
 30
0.0
 40
0.038
100
AcDbArc
 50
112.103750107622
 51
180.0
  0
ARC
  5
D6
330
1F
100
AcDbEntity
  8
D-STR
  6
Continuous
 62
     7
370
    50
100
AcDbCircle
 10
63.11066372000001
 20
229.0644252352647
 30
0.0
 40
0.038
100
AcDbArc
 50
180.0
 51
247.896249892378
  0
LINE
  5
D7
330
1F
100
AcDbEntity
  8
D-STR
  6
Continuous
 62
     7
370
    50
100
AcDbLine
 10
63.07266372
 20
229.0644252352647
 30
0.0
 11
63.07266372
 21
229.5005579152646
 31
0.0
  0
LINE
  5
D8
330
1F
100
AcDbEntity
  8
D-STR
  6
Continuous
 62
     7
370
    50
100
AcDbLine
 10
63.0963649
 20
229.0292180952646
 30
0.0
 11
63.53228212
 21
228.8521772152646
 31
0.0
  0
ARC
  5
D9
330
1F
100
AcDbEntity
  8
D-STR
  6
Continuous
 62
     7
370
    50
100
AcDbCircle
 10
63.62466372
 20
229.2824915752646
 30
0.0
 40
0.44
100
AcDbArc
 50
257.7059865682857
 51
354.7840914295507
  0
ARC
  5
DA
330
1F
100
AcDbEntity
  8
D-STR
  6
Continuous
 62
     7
370
    50
100
AcDbCircle
 10
63.62466372
 20
229.2824915752646
 30
0.0
 40
0.44
100
AcDbArc
 50
5.215908570445638
 51
102.2940134317106
  0
LINE
  5
DB
330
1F
100
AcDbEntity
  8
D-STR
  6
Continuous
 62
     7
370
    50
100
AcDbLine
 10
63.74466372
 20
228.4964915752646
 30
0.0
 11
63.72466372
 21
228.4764915752646
 31
0.0
  0
LINE
  5
DC
330
1F
100
AcDbEntity
  8
D-STR
  6
Continuous
 62
     7
370
    50
100
AcDbLine
 10
63.38466372
 20
228.7884915752646
 30
0.0
 11
63.86466372
 21
228.7884915752646
 31
0.0
  0
ARC
  5
DD
330
1F
100
AcDbEntity
  8
D-STR
  6
Continuous
 62
     7
370
    50
100
AcDbCircle
 10
63.11066372000001
 20
229.5005579152646
 30
0.0
 40
0.092
100
AcDbArc
 50
112.1037501076279
 51
180.0
  0
LINE
  5
DE
330
1F
100
AcDbEntity
  8
D-STR
  6
Continuous
 62
     7
370
    50
100
AcDbLine
 10
63.01866372000001
 20
229.0644252352647
 30
0.0
 11
63.01866372000001
 21
229.5005579152646
 31
0.0
  0
LINE
  5
DF
330
1F
100
AcDbEntity
  8
D-STR
  6
USER_2
 62
     7
370
    50
100
AcDbLine
 10
63.62466372
 20
228.2690731752647
 30
0.0
 11
63.62466372
 21
230.0371822952646
 31
0.0
  0
ARC
  5
E0
330
1F
100
AcDbEntity
  8
D-STR
  6
Continuous
 62
     7
370
    50
100
AcDbCircle
 10
63.62466372
 20
229.2824915752646
 30
0.0
 40
0.494
100
AcDbArc
 50
4.644418952146634
 51
102.7629655448802
  0
LINE
  5
E1
330
1F
100
AcDbEntity
  8
D-STR
  6
Continuous
 62
     7
370
    50
100
AcDbLine
 10
60.59966372
 20
212.9624915752646
 30
0.0
 11
60.64566372000001
 21
212.9624915752646
 31
0.0
  0
LINE
  5
E2
330
1F
100
AcDbEntity
  8
D-STR
  6
Continuous
 62
     7
370
    50
100
AcDbLine
 10
60.59966372
 20
213.4424915752646
 30
0.0
 11
60.64566372000001
 21
213.4424915752646
 31
0.0
  0
ARC
  5
E3
330
1F
100
AcDbEntity
  8
D-STR
  6
Continuous
 62
     7
370
    50
100
AcDbCircle
 10
63.62466372
 20
229.2824915752646
 30
0.0
 40
0.494
100
AcDbArc
 50
257.2370344551206
 51
355.35558104786
  0
LINE
  5
E4
330
1F
100
AcDbEntity
  8
D-STR
  6
Continuous
 62
     7
370
    50
100
AcDbLine
 10
64.11704164
 20
229.3224915752646
 30
0.0
 11
64.06284178
 21
229.3224915752646
 31
0.0
  0
LINE
  5
E5
330
1F
100
AcDbEntity
  8
D-STR
  6
Continuous
 62
     7
370
    50
100
AcDbLine
 10
64.06284178
 20
229.2424915752646
 30
0.0
 11
64.11704164
 21
229.2424915752646
 31
0.0
  0
ARC
  5
E6
330
1F
100
AcDbEntity
  8
D-STR
  6
Continuous
 62
     7
370
    50
100
AcDbCircle
 10
63.11066372000001
 20
229.0644252352647
 30
0.0
 40
0.092
100
AcDbArc
 50
180.0
 51
247.8962498923721
  0
LINE
  5
E7
330
1F
100
AcDbEntity
  8
D-STR
  6
Continuous
 62
     7
370
    50
100
AcDbLine
 10
63.07604552
 20
228.9791868752646
 30
0.0
 11
63.51553016
 21
228.8006971552647
 31
0.0
  0
LINE
  5
E8
330
1F
100
AcDbEntity
  8
D-STR
  6
Continuous
 62
     7
370
    50
100
AcDbLine
 10
63.07604552
 20
229.5857962752646
 30
0.0
 11
63.51553016
 21
229.7642859952646
 31
0.0
  0
LINE
  5
E9
330
1F
100
AcDbEntity
  8
D-STR
  6
Continuous
 62
     7
370
    50
100
AcDbLine
 10
63.86466372
 20
228.7424915752646
 30
0.0
 11
63.38466372000001
 21
228.7424915752646
 31
0.0
  0
LINE
  5
EA
330
1F
100
AcDbEntity
  8
D-STR
  6
Continuous
 62
     7
370
    50
100
AcDbLine
 10
63.86466372
 20
228.7884915752646
 30
0.0
 11
63.86466372
 21
228.7424915752646
 31
0.0
  0
LINE
  5
EB
330
1F
100
AcDbEntity
  8
D-STR
  6
Continuous
 62
     7
370
    50
100
AcDbLine
 10
63.48466372
 20
228.7424915752646
 30
0.0
 11
63.48466372
 21
228.7884915752646
 31
0.0
  0
LINE
  5
EC
330
1F
100
AcDbEntity
  8
D-STR
  6
Continuous
 62
     7
370
    50
100
AcDbLine
 10
63.76466372
 20
228.7884915752646
 30
0.0
 11
63.76466372
 21
228.7424915752646
 31
0.0
  0
LINE
  5
ED
330
1F
100
AcDbEntity
  8
D-STR
  6
Continuous
 62
     7
370
    50
100
AcDbLine
 10
63.38466372
 20
228.7884915752646
 30
0.0
 11
63.38466372
 21
228.7424915752646
 31
0.0
  0
LINE
  5
EE
330
1F
100
AcDbEntity
  8
D-STR
  6
USER_2
 62
     7
370
    50
100
AcDbLine
 10
64.4194465
 20
213.2024915752646
 30
0.0
 11
60.37897328
 21
213.2024915752646
 31
0.0
  0
LINE
  5
EF
330
1F
100
AcDbEntity
  8
D-STR
  6
Continuous
 62
     7
370
    50
100
AcDbLine
 10
63.72466372
 20
228.9148490952646
 30
0.0
 11
63.72466372
 21
228.9764915752646
 31
0.0
  0
LINE
  5
F0
330
1F
100
AcDbEntity
  8
D-STR
  6
Continuous
 62
     7
370
    50
100
AcDbLine
 10
63.52466372
 20
228.9148490952646
 30
0.0
 11
63.52466372
 21
228.9764915752646
 31
0.0
  0
LINE
  5
F1
330
1F
100
AcDbEntity
  8
D-STR
  6
Continuous
 62
     7
370
    50
100
AcDbLine
 10
63.50466372
 20
228.9208826752646
 30
0.0
 11
63.50466372
 21
229.6441004752646
 31
0.0
  0
CIRCLE
  5
F2
330
1F
100
AcDbEntity
  8
D-STR
  6
Continuous
 62
     7
370
    50
100
AcDbCircle
 10
63.62466372
 20
229.2824915752646
 30
0.0
 40
0.427
  0
CIRCLE
  5
F3
330
1F
100
AcDbEntity
  8
D-STR
  6
Continuous
 62
     7
370
    50
100
AcDbCircle
 10
63.62466372
 20
229.2824915752646
 30
0.0
 40
0.381
  0
POINT
  5
F4
330
1F
100
AcDbEntity
  8
D-STR
  6
Continuous
 62
     7
370
    13
100
AcDbPoint
 10
64.11866372
 20
229.2824915752646
 30
0.0
 50
180.0
  0
ARC
  5
F5
330
1F
100
AcDbEntity
  8
D-STR
  6
Continuous
 62
     7
370
    50
100
AcDbCircle
 10
60.58391998
 20
213.0379915752646
 30
0.0
 40
0.08425626
100
AcDbArc
 50
139.6965059315715
 51
220.3034940684285
  0
ARC
  5
F6
330
1F
100
AcDbEntity
  8
D-STR
  6
Continuous
 62
     7
370
    50
100
AcDbCircle
 10
60.81216372
 20
213.2024915752646
 30
0.0
 40
0.3125
100
AcDbArc
 50
159.3903070624654
 51
200.6096929375346
  0
ARC
  5
F7
330
1F
100
AcDbEntity
  8
D-STR
  6
Continuous
 62
     7
370
    50
100
AcDbCircle
 10
60.58391998
 20
213.3669915752646
 30
0.0
 40
0.08425626
100
AcDbArc
 50
139.6965059315715
 51
220.3034940684285
  0
ARC
  5
F8
330
1F
100
AcDbEntity
  8
D-STR
  6
Continuous
 62
     7
370
    50
100
AcDbCircle
 10
60.77941998
 20
213.2024915752646
 30
0.0
 40
0.33975624
100
AcDbArc
 50
139.8658258320309
 51
220.1341741679683
  0
LINE
  5
F9
330
1F
100
AcDbEntity
  8
D-STR
  6
Continuous
 62
     7
370
    50
100
AcDbLine
 10
60.59966372
 20
212.9834915752646
 30
0.0
 11
60.51966372
 21
212.9834915752646
 31
0.0
  0
LINE
  5
FA
330
1F
100
AcDbEntity
  8
D-BMK
  6
dashed dotted
 62
     5
370
    13
100
AcDbLine
 10
61.78866372
 20
233.3224915752646
 30
0.0
 11
61.78866372
 21
202.4024915752646
 31
0.0
  0
LINE
  5
FB
330
1F
100
AcDbEntity
  8
D-STR
  6
USER_2
 62
     7
370
    50
100
AcDbLine
 10
59.760596
 20
222.4024915752646
 30
0.0
 11
64.27915888000001
 21
222.4024915752646
 31
0.0
  0
LINE
  5
FC
330
1F
100
AcDbEntity
  8
D-STR
  6
Continuous
 62
     7
370
    50
100
AcDbLine
 10
60.59966372
 20
213.4214915752646
 30
0.0
 11
60.51966372
 21
213.4214915752646
 31
0.0
  0
LINE
  5
FD
330
1F
100
AcDbEntity
  8
D-STR
  6
Continuous
 62
     7
370
    50
100
AcDbLine
 10
63.41066372
 20
229.1824915752646
 30
0.0
 11
63.27266372
 21
229.1824915752646
 31
0.0
  0
LINE
  5
FE
330
1F
100
AcDbEntity
  8
D-STR
  6
Continuous
 62
     7
370
    50
100
AcDbLine
 10
63.41066372
 20
229.3824915752646
 30
0.0
 11
63.27266372
 21
229.3824915752646
 31
0.0
  0
LINE
  5
FF
330
1F
100
AcDbEntity
  8
D-STR
  6
Continuous
 62
     7
370
    50
100
AcDbLine
 10
63.39066372000001
 20
229.1624915752646
 30
0.0
 11
63.39066372000001
 21
229.4024915752646
 31
0.0
  0
LINE
  5
100
330
1F
100
AcDbEntity
  8
D-STR
  6
Continuous
 62
     7
370
    50
100
AcDbLine
 10
63.39066372000001
 20
229.1624915752646
 30
0.0
 11
63.41066372000001
 21
229.1824915752646
 31
0.0
  0
LINE
  5
101
330
1F
100
AcDbEntity
  8
D-STR
  6
Continuous
 62
     7
370
    50
100
AcDbLine
 10
63.39066372000001
 20
229.1624915752646
 30
0.0
 11
63.27266372
 21
229.1624915752646
 31
0.0
  0
LINE
  5
102
330
1F
100
AcDbEntity
  8
D-STR
  6
Continuous
 62
     7
370
    50
100
AcDbLine
 10
63.39066372000001
 20
229.4024915752646
 30
0.0
 11
63.41066372000001
 21
229.3824915752646
 31
0.0
  0
LINE
  5
103
330
1F
100
AcDbEntity
  8
D-STR
  6
Continuous
 62
     7
370
    50
100
AcDbLine
 10
63.39066372000001
 20
229.4024915752646
 30
0.0
 11
63.27266372
 21
229.4024915752646
 31
0.0
  0
LINE
  5
104
330
1F
100
AcDbEntity
  8
D-STR
  6
Continuous
 62
     7
370
    50
100
AcDbLine
 10
63.41066372
 20
229.3824915752646
 30
0.0
 11
63.41066372
 21
229.1824915752646
 31
0.0
  0
ARC
  5
105
330
1F
100
AcDbEntity
  8
D-STR
  6
Continuous
 62
     7
370
    50
100
AcDbCircle
 10
63.62466372
 20
232.3764915752646
 30
0.0
 40
0.26
100
AcDbArc
 50
22.6198649480391
 51
157.3801350519609
  0
LINE
  5
106
330
1F
100
AcDbEntity
  8
D-STR
  6
Continuous
 62
     7
370
    50
100
AcDbLine
 10
63.38466372
 20
232.4764915752646
 30
0.0
 11
63.86466372
 21
232.4764915752646
 31
0.0
  0
LINE
  5
107
330
1F
100
AcDbEntity
  8
D-STR
  6
Continuous
 62
     7
370
    50
100
AcDbLine
 10
63.44466372
 20
232.4764915752646
 30
0.0
 11
63.44466372
 21
232.4482336952646
 31
0.0
  0
LINE
  5
108
330
1F
100
AcDbEntity
  8
D-STR
  6
Continuous
 62
     7
370
    50
100
AcDbLine
 10
63.80466372
 20
232.4764915752646
 30
0.0
 11
63.80466372
 21
232.4425307152646
 31
0.0
  0
LINE
  5
109
330
1F
100
AcDbEntity
  8
D-STR
  6
Continuous
 62
     7
370
    50
100
AcDbLine
 10
60.59966372
 20
231.7424915752646
 30
0.0
 11
60.64566372000001
 21
231.7424915752646
 31
0.0
  0
LINE
  5
10A
330
1F
100
AcDbEntity
  8
D-STR
  6
Continuous
 62
     7
370
    50
100
AcDbLine
 10
60.59966372
 20
232.2224915752646
 30
0.0
 11
60.64566372000001
 21
232.2224915752646
 31
0.0
  0
LINE
  5
10B
330
1F
100
AcDbEntity
  8
D-STR
  6
Continuous
 62
     7
370
    50
100
AcDbLine
 10
63.74466372
 20
231.6208826752646
 30
0.0
 11
63.74466372
 21
232.3441004752646
 31
0.0
  0
LINE
  5
10C
330
1F
100
AcDbEntity
  8
D-STR
  6
Continuous
 62
     7
370
    50
100
AcDbLine
 10
63.50466372
 20
231.1964915752646
 30
0.0
 11
63.50466372
 21
231.2424915752646
 31
0.0
  0
LINE
  5
10D
330
1F
100
AcDbEntity
  8
D-STR
  6
Continuous
 62
     7
370
    50
100
AcDbLine
 10
63.74466372
 20
231.1964915752646
 30
0.0
 11
63.74466372
 21
231.2424915752646
 31
0.0
  0
LINE
  5
10E
330
1F
100
AcDbEntity
  8
D-STR
  6
Continuous
 62
     7
370
    50
100
AcDbLine
 10
63.50466372
 20
231.6764915752646
 30
0.0
 11
63.74466372000001
 21
231.6764915752646
 31
0.0
  0
LINE
  5
10F
330
1F
100
AcDbEntity
  8
D-STR
  6
Continuous
 62
     7
370
    50
100
AcDbLine
 10
63.72466372
 20
231.1764915752646
 30
0.0
 11
63.52466372
 21
231.1764915752646
 31
0.0
  0
LINE
  5
110
330
1F
100
AcDbEntity
  8
D-STR
  6
Continuous
 62
     7
370
    50
100
AcDbLine
 10
63.52466372
 20
231.1764915752646
 30
0.0
 11
63.52466372
 21
231.2424915752646
 31
0.0
  0
LINE
  5
111
330
1F
100
AcDbEntity
  8
D-STR
  6
Continuous
 62
     7
370
    50
100
AcDbLine
 10
63.72466372
 20
231.1764915752646
 30
0.0
 11
63.72466372
 21
231.2424915752646
 31
0.0
  0
LINE
  5
112
330
1F
100
AcDbEntity
  8
D-STR
  6
Continuous
 62
     7
370
    50
100
AcDbLine
 10
63.01866372000001
 20
231.7324915752646
 30
0.0
 11
63.01866372000001
 21
232.2324915752646
 31
0.0
  0
LINE
  5
113
330
1F
100
AcDbEntity
  8
D-STR
  6
Continuous
 62
     7
370
    50
100
AcDbLine
 10
63.74466372
 20
231.1964915752646
 30
0.0
 11
63.50466372
 21
231.1964915752646
 31
0.0
  0
LINE
  5
114
330
1F
100
AcDbEntity
  8
D-STR
  6
USER_2
 62
     7
370
    50
100
AcDbLine
 10
64.4194465
 20
231.9824915752646
 30
0.0
 11
60.37897328
 21
231.9824915752646
 31
0.0
  0
LINE
  5
115
330
1F
100
AcDbEntity
  8
D-STR
  6
Continuous
 62
     7
370
    50
100
AcDbLine
 10
62.85866372
 20
232.2324915752646
 30
0.0
 11
62.85866372
 21
231.7324915752646
 31
0.0
  0
LINE
  5
116
330
1F
100
AcDbEntity
  8
D-STR
  6
Continuous
 62
     7
370
    50
100
AcDbLine
 10
63.01866372000001
 20
231.7324915752646
 30
0.0
 11
62.85866372000001
 21
231.7324915752646
 31
0.0
  0
LINE
  5
117
330
1F
100
AcDbEntity
  8
D-STR
  6
Continuous
 62
     7
370
    50
100
AcDbLine
 10
63.01866372000001
 20
232.2324915752646
 30
0.0
 11
62.85866372000001
 21
232.2324915752646
 31
0.0
  0
LINE
  5
118
330
1F
100
AcDbEntity
  8
D-STR
  6
Continuous
 62
     7
370
    50
100
AcDbLine
 10
63.50466372
 20
231.1964915752646
 30
0.0
 11
63.52466372000001
 21
231.1764915752646
 31
0.0
  0
LINE
  5
119
330
1F
100
AcDbEntity
  8
D-STR
  6
Continuous
 62
     7
370
    50
100
AcDbLine
 10
63.0963649
 20
232.2357650552646
 30
0.0
 11
63.53228212
 21
232.4128059352646
 31
0.0
  0
ARC
  5
11A
330
1F
100
AcDbEntity
  8
D-STR
  6
Continuous
 62
     7
370
    50
100
AcDbCircle
 10
63.11066372000001
 20
232.2005579152646
 30
0.0
 40
0.038
100
AcDbArc
 50
112.103750107622
 51
180.0
  0
ARC
  5
11B
330
1F
100
AcDbEntity
  8
D-STR
  6
Continuous
 62
     7
370
    50
100
AcDbCircle
 10
63.11066372000001
 20
231.7644252352646
 30
0.0
 40
0.038
100
AcDbArc
 50
180.0
 51
247.896249892378
  0
LINE
  5
11C
330
1F
100
AcDbEntity
  8
D-STR
  6
Continuous
 62
     7
370
    50
100
AcDbLine
 10
63.07266372
 20
231.7644252352646
 30
0.0
 11
63.07266372
 21
232.2005579152646
 31
0.0
  0
LINE
  5
11D
330
1F
100
AcDbEntity
  8
D-STR
  6
Continuous
 62
     7
370
    50
100
AcDbLine
 10
63.0963649
 20
231.7292180952646
 30
0.0
 11
63.53228212
 21
231.5521772152646
 31
0.0
  0
ARC
  5
11E
330
1F
100
AcDbEntity
  8
D-STR
  6
Continuous
 62
     7
370
    50
100
AcDbCircle
 10
63.62466372
 20
231.9824915752646
 30
0.0
 40
0.44
100
AcDbArc
 50
257.7059865682857
 51
354.7840914295507
  0
ARC
  5
11F
330
1F
100
AcDbEntity
  8
D-STR
  6
Continuous
 62
     7
370
    50
100
AcDbCircle
 10
63.62466372
 20
231.9824915752646
 30
0.0
 40
0.44
100
AcDbArc
 50
5.215908570445638
 51
102.2940134317106
  0
LINE
  5
120
330
1F
100
AcDbEntity
  8
D-STR
  6
Continuous
 62
     7
370
    50
100
AcDbLine
 10
63.74466372
 20
231.1964915752646
 30
0.0
 11
63.72466372
 21
231.1764915752646
 31
0.0
  0
LINE
  5
121
330
1F
100
AcDbEntity
  8
D-STR
  6
Continuous
 62
     7
370
    50
100
AcDbLine
 10
63.38466372
 20
231.4884915752646
 30
0.0
 11
63.86466372
 21
231.4884915752646
 31
0.0
  0
ARC
  5
122
330
1F
100
AcDbEntity
  8
D-STR
  6
Continuous
 62
     7
370
    50
100
AcDbCircle
 10
63.11066372000001
 20
232.2005579152646
 30
0.0
 40
0.092
100
AcDbArc
 50
112.1037501076279
 51
180.0
  0
LINE
  5
123
330
1F
100
AcDbEntity
  8
D-STR
  6
Continuous
 62
     7
370
    50
100
AcDbLine
 10
63.01866372000001
 20
231.7644252352646
 30
0.0
 11
63.01866372000001
 21
232.2005579152646
 31
0.0
  0
LINE
  5
124
330
1F
100
AcDbEntity
  8
D-STR
  6
USER_2
 62
     7
370
    50
100
AcDbLine
 10
63.62466372
 20
230.9690731752646
 30
0.0
 11
63.62466372
 21
232.7371822952646
 31
0.0
  0
ARC
  5
125
330
1F
100
AcDbEntity
  8
D-STR
  6
Continuous
 62
     7
370
    50
100
AcDbCircle
 10
63.62466372
 20
231.9824915752646
 30
0.0
 40
0.494
100
AcDbArc
 50
4.644418952146634
 51
102.7629655448802
  0
ARC
  5
126
330
1F
100
AcDbEntity
  8
D-STR
  6
Continuous
 62
     7
370
    50
100
AcDbCircle
 10
60.58391998
 20
231.8179915752646
 30
0.0
 40
0.08425626
100
AcDbArc
 50
139.6965059315715
 51
220.3034940684285
  0
ARC
  5
127
330
1F
100
AcDbEntity
  8
D-STR
  6
Continuous
 62
     7
370
    50
100
AcDbCircle
 10
60.81216372
 20
231.9824915752646
 30
0.0
 40
0.3125
100
AcDbArc
 50
159.3903070624654
 51
200.6096929375346
  0
ARC
  5
128
330
1F
100
AcDbEntity
  8
D-STR
  6
Continuous
 62
     7
370
    50
100
AcDbCircle
 10
60.58391998
 20
232.1469915752646
 30
0.0
 40
0.08425626
100
AcDbArc
 50
139.6965059315715
 51
220.3034940684285
  0
ARC
  5
129
330
1F
100
AcDbEntity
  8
D-STR
  6
Continuous
 62
     7
370
    50
100
AcDbCircle
 10
60.77941998
 20
231.9824915752646
 30
0.0
 40
0.33975624
100
AcDbArc
 50
139.8658258320309
 51
220.1341741679683
  0
LINE
  5
12A
330
1F
100
AcDbEntity
  8
D-STR
  6
Continuous
 62
     7
370
    50
100
AcDbLine
 10
60.59966372
 20
231.7634915752646
 30
0.0
 11
60.51966372
 21
231.7634915752646
 31
0.0
  0
LINE
  5
12B
330
1F
100
AcDbEntity
  8
D-STR
  6
Continuous
 62
     7
370
    50
100
AcDbLine
 10
60.59966372
 20
232.2014915752646
 30
0.0
 11
60.51966372
 21
232.2014915752646
 31
0.0
  0
LINE
  5
12C
330
1F
100
AcDbEntity
  8
D-STR
  6
Continuous
 62
     7
370
    50
100
AcDbLine
 10
60.59966372
 20
231.8724915752646
 30
0.0
 11
60.51966372
 21
231.8724915752646
 31
0.0
  0
LINE
  5
12D
330
1F
100
AcDbEntity
  8
D-STR
  6
Continuous
 62
     7
370
    50
100
AcDbLine
 10
60.59966372
 20
232.0924915752646
 30
0.0
 11
60.51966372
 21
232.0924915752646
 31
0.0
  0
ARC
  5
12E
330
1F
100
AcDbEntity
  8
D-STR
  6
Continuous
 62
     7
370
    50
100
AcDbCircle
 10
63.62466372
 20
231.9824915752646
 30
0.0
 40
0.494
100
AcDbArc
 50
257.2370344551206
 51
355.35558104786
  0
LINE
  5
12F
330
1F
100
AcDbEntity
  8
D-STR
  6
Continuous
 62
     7
370
    50
100
AcDbLine
 10
64.11704164
 20
232.0224915752646
 30
0.0
 11
64.06284178
 21
232.0224915752646
 31
0.0
  0
LINE
  5
130
330
1F
100
AcDbEntity
  8
D-STR
  6
Continuous
 62
     7
370
    50
100
AcDbLine
 10
64.06284178
 20
231.9424915752646
 30
0.0
 11
64.11704164
 21
231.9424915752646
 31
0.0
  0
ARC
  5
131
330
1F
100
AcDbEntity
  8
D-STR
  6
Continuous
 62
     7
370
    50
100
AcDbCircle
 10
63.11066372000001
 20
231.7644252352646
 30
0.0
 40
0.092
100
AcDbArc
 50
180.0
 51
247.8962498923721
  0
LINE
  5
132
330
1F
100
AcDbEntity
  8
D-STR
  6
Continuous
 62
     7
370
    50
100
AcDbLine
 10
63.07604552
 20
231.6791868752646
 30
0.0
 11
63.51553016
 21
231.5006971552646
 31
0.0
  0
LINE
  5
133
330
1F
100
AcDbEntity
  8
D-STR
  6
Continuous
 62
     7
370
    50
100
AcDbLine
 10
63.07604552
 20
232.2857962752646
 30
0.0
 11
63.51553016
 21
232.4642859952646
 31
0.0
  0
LINE
  5
134
330
1F
100
AcDbEntity
  8
D-STR
  6
Continuous
 62
     7
370
    50
100
AcDbLine
 10
63.86466372
 20
231.4424915752646
 30
0.0
 11
63.38466372000001
 21
231.4424915752646
 31
0.0
  0
LINE
  5
135
330
1F
100
AcDbEntity
  8
D-STR
  6
Continuous
 62
     7
370
    50
100
AcDbLine
 10
63.86466372
 20
231.4884915752646
 30
0.0
 11
63.86466372
 21
231.4424915752646
 31
0.0
  0
LINE
  5
136
330
1F
100
AcDbEntity
  8
D-STR
  6
Continuous
 62
     7
370
    50
100
AcDbLine
 10
60.59966372
 20
213.0924915752646
 30
0.0
 11
60.51966372
 21
213.0924915752646
 31
0.0
  0
LINE
  5
137
330
1F
100
AcDbEntity
  8
D-STR
  6
Continuous
 62
     7
370
    50
100
AcDbLine
 10
60.59966372
 20
213.3124915752646
 30
0.0
 11
60.51966372
 21
213.3124915752646
 31
0.0
  0
LINE
  5
138
330
1F
100
AcDbEntity
  8
D-STR
  6
Continuous
 62
     7
370
    50
100
AcDbLine
 10
63.48466372
 20
231.4424915752646
 30
0.0
 11
63.48466372
 21
231.4884915752646
 31
0.0
  0
LINE
  5
139
330
1F
100
AcDbEntity
  8
D-STR
  6
USER_3
 62
     7
370
    50
100
AcDbLine
 10
62.86166372
 20
232.1024915752646
 30
0.0
 11
60.63566372
 21
232.1024915752646
 31
0.0
  0
LINE
  5
13A
330
1F
100
AcDbEntity
  8
D-STR
  6
USER_3
 62
     7
370
    50
100
AcDbLine
 10
62.86166372
 20
231.8624915752646
 30
0.0
 11
60.63566372
 21
231.8624915752646
 31
0.0
  0
LINE
  5
13B
330
1F
100
AcDbEntity
  8
D-STR
  6
Continuous
 62
     7
370
    50
100
AcDbLine
 10
63.76466372
 20
231.4884915752646
 30
0.0
 11
63.76466372
 21
231.4424915752646
 31
0.0
  0
LINE
  5
13C
330
1F
100
AcDbEntity
  8
D-STR
  6
Continuous
 62
     7
370
    50
100
AcDbLine
 10
63.38466372
 20
231.4884915752646
 30
0.0
 11
63.38466372
 21
231.4424915752646
 31
0.0
  0
LINE
  5
13D
330
1F
100
AcDbEntity
  8
D-STR
  6
Continuous
 62
     7
370
    50
100
AcDbLine
 10
63.72466372
 20
231.6148490952646
 30
0.0
 11
63.72466372
 21
231.6764915752646
 31
0.0
  0
LINE
  5
13E
330
1F
100
AcDbEntity
  8
D-STR
  6
Continuous
 62
     7
370
    50
100
AcDbLine
 10
63.52466372
 20
231.6148490952646
 30
0.0
 11
63.52466372
 21
231.6764915752646
 31
0.0
  0
LINE
  5
13F
330
1F
100
AcDbEntity
  8
D-STR
  6
Continuous
 62
     7
370
    50
100
AcDbLine
 10
62.75166372
 20
223.1024915752646
 30
0.0
 11
62.75166372
 21
221.7024915752646
 31
0.0
  0
ARC
  5
140
330
1F
100
AcDbEntity
  8
D-STR
  6
Continuous
 62
     7
370
    50
100
AcDbCircle
 10
63.38635336
 20
222.3948508952647
 30
0.0
 40
0.4203125
100
AcDbArc
 50
308.2672864118136
 51
51.73271358818642
  0
LINE
  5
141
330
1F
100
AcDbEntity
  8
D-STR
  6
Continuous
 62
     7
370
    50
100
AcDbLine
 10
64.50566372
 20
224.9648687952646
 30
0.0
 11
64.50566372
 21
224.2042145752646
 31
0.0
  0
LINE
  5
142
330
1F
100
AcDbEntity
  8
D-STR
  6
Continuous
 62
     7
370
    50
100
AcDbLine
 10
64.29587896
 20
225.3720236952646
 30
0.0
 11
63.60421545999999
 21
225.8650333352647
 31
0.0
  0
ARC
  5
143
330
1F
100
AcDbEntity
  8
D-STR
  6
Continuous
 62
     7
370
    50
100
AcDbCircle
 10
64.00566372
 20
224.9648687952646
 30
0.0
 40
0.5
100
AcDbArc
 50
0.0
 51
54.51917452070129
  0
LINE
  5
144
330
1F
100
AcDbEntity
  8
D-STR
  6
Continuous
 62
     7
370
    50
100
AcDbLine
 10
64.26022918
 20
223.7003116952646
 30
0.0
 11
63.81473888000001
 21
223.3514843952646
 31
0.0
  0
ARC
  5
145
330
1F
100
AcDbEntity
  8
D-STR
  6
Continuous
 62
     7
370
    50
100
AcDbCircle
 10
63.86566372
 20
224.2042145752646
 30
0.0
 40
0.64
100
AcDbArc
 50
308.0616141946621
 51
0.0
  0
ARC
  5
146
330
1F
100
AcDbEntity
  8
D-STR
  6
Continuous
 62
     7
370
    50
100
AcDbCircle
 10
64.23766372
 20
222.8113634952646
 30
0.0
 40
0.6859999999999999
100
AcDbArc
 50
128.0616141946649
 51
180.0
  0
LINE
  5
147
330
1F
100
AcDbEntity
  8
D-STR
  6
Continuous
 62
     7
370
    50
100
AcDbLine
 10
64.50566372
 20
219.8401143552646
 30
0.0
 11
64.50566372
 21
220.6007685952646
 31
0.0
  0
LINE
  5
148
330
1F
100
AcDbEntity
  8
D-STR
  6
Continuous
 62
     7
370
    50
100
AcDbLine
 10
64.29587896
 20
219.4329594552646
 30
0.0
 11
63.60421545999999
 21
218.9399498352646
 31
0.0
  0
ARC
  5
149
330
1F
100
AcDbEntity
  8
D-STR
  6
Continuous
 62
     7
370
    50
100
AcDbCircle
 10
64.00566372
 20
219.8401143552646
 30
0.0
 40
0.5
100
AcDbArc
 50
305.4808254792987
 51
0.0
  0
LINE
  5
14A
330
1F
100
AcDbEntity
  8
D-STR
  6
Continuous
 62
     7
370
    50
100
AcDbLine
 10
64.26022918
 20
221.1046714552646
 30
0.0
 11
63.81473888000001
 21
221.4534987752646
 31
0.0
  0
ARC
  5
14B
330
1F
100
AcDbEntity
  8
D-STR
  6
Continuous
 62
     7
370
    50
100
AcDbCircle
 10
63.86566372
 20
220.6007685952646
 30
0.0
 40
0.64
100
AcDbArc
 50
0.0
 51
51.93838580533683
  0
ARC
  5
14C
330
1F
100
AcDbEntity
  8
D-STR
  6
Continuous
 62
     7
370
    50
100
AcDbCircle
 10
64.23766372
 20
221.9936196552646
 30
0.0
 40
0.6859999999999999
100
AcDbArc
 50
180.0
 51
231.9383858053351
  0
LINE
  5
14D
330
1F
100
AcDbEntity
  8
D-STR
  6
Continuous
 62
     7
370
    50
100
AcDbLine
 10
63.63091526
 20
218.9024915752646
 30
0.0
 11
63.60421546
 21
218.9399498352646
 31
0.0
  0
LINE
  5
14E
330
1F
100
AcDbEntity
  8
D-STR
  6
Continuous
 62
     7
370
    50
100
AcDbLine
 10
63.60421546
 20
225.8650333352646
 30
0.0
 11
63.63091526
 21
225.9024915752646
 31
0.0
  0
LINE
  5
14F
330
1F
100
AcDbEntity
  8
D-STR
  6
USER_2
 62
     7
370
    50
100
AcDbLine
 10
65.03350786
 20
224.5845416752646
 30
0.0
 11
64.28961086
 21
224.5845416752646
 31
0.0
  0
LINE
  5
150
330
1F
100
AcDbEntity
  8
D-STR
  6
USER_2
 62
     7
370
    50
100
AcDbLine
 10
64.93921106
 20
220.2204414752646
 30
0.0
 11
64.22674632
 21
220.2204414752646
 31
0.0
  0
ARC
  5
151
330
1F
100
AcDbEntity
  8
D-STR
  6
Continuous
 62
     7
370
    50
100
AcDbCircle
 10
64.33812774
 20
224.5908358352646
 30
0.0
 40
0.4203125
100
AcDbArc
 50
308.2672864118136
 51
51.73271358818642
  0
ARC
  5
152
330
1F
100
AcDbEntity
  8
D-STR
  6
Continuous
 62
     7
370
    50
100
AcDbCircle
 10
64.3397988
 20
220.2225319952646
 30
0.0
 40
0.4203125
100
AcDbArc
 50
308.2672864118136
 51
51.73271358818642
  0
LINE
  5
153
330
1F
100
AcDbEntity
  8
D-STR
  6
Continuous
 62
     7
370
    50
100
AcDbLine
 10
63.68472216
 20
225.8641386352647
 30
0.0
 11
63.71142196
 21
225.9015968952646
 31
0.0
  0
LINE
  5
154
330
1F
100
AcDbEntity
  8
D-STR
  6
Continuous
 62
     7
370
    50
100
AcDbLine
 10
63.66789734
 20
218.9288519752646
 30
0.0
 11
63.69459714
 21
218.8913937152646
 31
0.0
  0
LINE
  5
155
330
1F
100
AcDbEntity
  8
D-STR
  6
Continuous
 62
     7
370
    50
100
AcDbLine
 10
63.55166372
 20
223.1024915752646
 30
0.0
 11
63.55166372
 21
221.7024915752646
 31
0.0
  0
LINE
  5
156
330
1F
100
AcDbEntity
  8
D-STR
  6
Continuous
 62
     7
370
    50
100
AcDbLine
 10
63.50466372
 20
231.6208826752646
 30
0.0
 11
63.50466372
 21
232.3441004752646
 31
0.0
  0
CIRCLE
  5
157
330
1F
100
AcDbEntity
  8
D-STR
  6
Continuous
 62
     7
370
    50
100
AcDbCircle
 10
63.62466372
 20
231.9824915752646
 30
0.0
 40
0.427
  0
CIRCLE
  5
158
330
1F
100
AcDbEntity
  8
D-STR
  6
Continuous
 62
     7
370
    50
100
AcDbCircle
 10
63.62466372
 20
231.9824915752646
 30
0.0
 40
0.381
  0
POINT
  5
159
330
1F
100
AcDbEntity
  8
D-STR
  6
Continuous
 62
     7
370
    13
100
AcDbPoint
 10
64.11866372
 20
231.9824915752646
 30
0.0
 50
180.0
  0
LINE
  5
15A
330
1F
100
AcDbEntity
  8
D-STR
  6
Continuous
 62
     7
370
    50
100
AcDbLine
 10
63.41066372
 20
231.8824915752646
 30
0.0
 11
63.27266372
 21
231.8824915752646
 31
0.0
  0
LINE
  5
15B
330
1F
100
AcDbEntity
  8
D-STR
  6
Continuous
 62
     7
370
    50
100
AcDbLine
 10
63.41066372
 20
232.0824915752646
 30
0.0
 11
63.27266372
 21
232.0824915752646
 31
0.0
  0
LINE
  5
15C
330
1F
100
AcDbEntity
  8
D-STR
  6
Continuous
 62
     7
370
    50
100
AcDbLine
 10
63.39066372000001
 20
231.8624915752646
 30
0.0
 11
63.39066372000001
 21
232.1024915752646
 31
0.0
  0
LINE
  5
15D
330
1F
100
AcDbEntity
  8
D-STR
  6
Continuous
 62
     7
370
    50
100
AcDbLine
 10
63.39066372000001
 20
231.8624915752646
 30
0.0
 11
63.41066372000001
 21
231.8824915752646
 31
0.0
  0
LINE
  5
15E
330
1F
100
AcDbEntity
  8
D-STR
  6
Continuous
 62
     7
370
    50
100
AcDbLine
 10
63.39066372000001
 20
231.8624915752646
 30
0.0
 11
63.27266372
 21
231.8624915752646
 31
0.0
  0
LINE
  5
15F
330
1F
100
AcDbEntity
  8
D-STR
  6
Continuous
 62
     7
370
    50
100
AcDbLine
 10
63.39066372000001
 20
232.1024915752646
 30
0.0
 11
63.41066372000001
 21
232.0824915752646
 31
0.0
  0
LINE
  5
160
330
1F
100
AcDbEntity
  8
D-STR
  6
Continuous
 62
     7
370
    50
100
AcDbLine
 10
63.39066372000001
 20
232.1024915752646
 30
0.0
 11
63.27266372
 21
232.1024915752646
 31
0.0
  0
LINE
  5
161
330
1F
100
AcDbEntity
  8
D-STR
  6
Continuous
 62
     7
370
    50
100
AcDbLine
 10
63.41066372
 20
232.0824915752646
 30
0.0
 11
63.41066372
 21
231.8824915752646
 31
0.0
  0
LINE
  5
162
330
1F
100
AcDbEntity
  8
D-STR
  6
USER_3
 62
     7
370
    50
100
AcDbLine
 10
62.86166372
 20
213.3224915752646
 30
0.0
 11
60.63566372
 21
213.3224915752646
 31
0.0
  0
LINE
  5
163
330
1F
100
AcDbEntity
  8
D-STR
  6
USER_3
 62
     7
370
    50
100
AcDbLine
 10
62.86166372
 20
213.0824915752646
 30
0.0
 11
60.63566372
 21
213.0824915752646
 31
0.0
  0
LINE
  5
164
330
1F
100
AcDbEntity
  8
D-STR
  6
Continuous
 62
     7
370
    50
100
AcDbLine
 10
63.46166372
 20
223.1024915752646
 30
0.0
 11
63.46166372
 21
221.7024915752646
 31
0.0
  0
ARC
  5
165
330
1F
100
AcDbEntity
  8
D-STR
  6
Continuous
 62
     7
370
    50
100
AcDbCircle
 10
63.62466372
 20
213.5964915752646
 30
0.0
 40
0.26
100
AcDbArc
 50
22.6198649480391
 51
157.3801350519609
  0
LINE
  5
166
330
1F
100
AcDbEntity
  8
D-STR
  6
Continuous
 62
     7
370
    50
100
AcDbLine
 10
63.38466372
 20
213.6964915752646
 30
0.0
 11
63.86466372
 21
213.6964915752646
 31
0.0
  0
LINE
  5
167
330
1F
100
AcDbEntity
  8
D-STR
  6
Continuous
 62
     7
370
    50
100
AcDbLine
 10
63.44466372
 20
213.6964915752646
 30
0.0
 11
63.44466372
 21
213.6682336952646
 31
0.0
  0
LINE
  5
168
330
1F
100
AcDbEntity
  8
D-STR
  6
Continuous
 62
     7
370
    50
100
AcDbLine
 10
63.80466372
 20
213.6964915752646
 30
0.0
 11
63.80466372
 21
213.6625307152646
 31
0.0
  0
LINE
  5
169
330
1F
100
AcDbEntity
  8
D-STR
  6
Continuous
 62
     7
370
    50
100
AcDbLine
 10
63.74466372
 20
212.8408826752646
 30
0.0
 11
63.74466372
 21
213.5641004752646
 31
0.0
  0
LINE
  5
16A
330
1F
100
AcDbEntity
  8
D-STR
  6
Continuous
 62
     7
370
    50
100
AcDbLine
 10
63.50466372
 20
212.4164915752646
 30
0.0
 11
63.50466372
 21
212.4624915752646
 31
0.0
  0
LINE
  5
16B
330
1F
100
AcDbEntity
  8
D-STR
  6
Continuous
 62
     7
370
    50
100
AcDbLine
 10
63.74466372
 20
212.4164915752646
 30
0.0
 11
63.74466372
 21
212.4624915752646
 31
0.0
  0
LINE
  5
16C
330
1F
100
AcDbEntity
  8
D-STR
  6
Continuous
 62
     7
370
    50
100
AcDbLine
 10
63.50466372
 20
212.8964915752646
 30
0.0
 11
63.74466372000001
 21
212.8964915752646
 31
0.0
  0
LINE
  5
16D
330
1F
100
AcDbEntity
  8
D-STR
  6
Continuous
 62
     7
370
    50
100
AcDbLine
 10
63.72466372
 20
212.3964915752646
 30
0.0
 11
63.52466372
 21
212.3964915752646
 31
0.0
  0
LINE
  5
16E
330
1F
100
AcDbEntity
  8
D-STR
  6
Continuous
 62
     7
370
    50
100
AcDbLine
 10
63.52466372
 20
212.3964915752646
 30
0.0
 11
63.52466372
 21
212.4624915752646
 31
0.0
  0
LINE
  5
16F
330
1F
100
AcDbEntity
  8
D-STR
  6
Continuous
 62
     7
370
    50
100
AcDbLine
 10
63.72466372
 20
212.3964915752646
 30
0.0
 11
63.72466372
 21
212.4624915752646
 31
0.0
  0
LINE
  5
170
330
1F
100
AcDbEntity
  8
D-STR
  6
Continuous
 62
     7
370
    50
100
AcDbLine
 10
63.01866372000001
 20
212.9524915752646
 30
0.0
 11
63.01866372000001
 21
213.4524915752646
 31
0.0
  0
LINE
  5
171
330
1F
100
AcDbEntity
  8
D-STR
  6
Continuous
 62
     7
370
    50
100
AcDbLine
 10
63.74466372
 20
212.4164915752646
 30
0.0
 11
63.50466372
 21
212.4164915752646
 31
0.0
  0
LINE
  5
172
330
1F
100
AcDbEntity
  8
D-STR
  6
Continuous
 62
     7
370
    50
100
AcDbLine
 10
62.85866372
 20
213.4524915752646
 30
0.0
 11
62.85866372
 21
212.9524915752646
 31
0.0
  0
LINE
  5
173
330
1F
100
AcDbEntity
  8
D-STR
  6
Continuous
 62
     7
370
    50
100
AcDbLine
 10
63.01866372000001
 20
212.9524915752646
 30
0.0
 11
62.85866372000001
 21
212.9524915752646
 31
0.0
  0
LINE
  5
174
330
1F
100
AcDbEntity
  8
D-STR
  6
Continuous
 62
     7
370
    50
100
AcDbLine
 10
63.01866372000001
 20
213.4524915752646
 30
0.0
 11
62.85866372000001
 21
213.4524915752646
 31
0.0
  0
LINE
  5
175
330
1F
100
AcDbEntity
  8
D-STR
  6
Continuous
 62
     7
370
    50
100
AcDbLine
 10
63.50466372
 20
212.4164915752646
 30
0.0
 11
63.52466372000001
 21
212.3964915752646
 31
0.0
  0
LINE
  5
176
330
1F
100
AcDbEntity
  8
D-STR
  6
Continuous
 62
     7
370
    50
100
AcDbLine
 10
63.0963649
 20
213.4557650552646
 30
0.0
 11
63.53228212
 21
213.6328059352646
 31
0.0
  0
ARC
  5
177
330
1F
100
AcDbEntity
  8
D-STR
  6
Continuous
 62
     7
370
    50
100
AcDbCircle
 10
63.11066372000001
 20
213.4205579152646
 30
0.0
 40
0.038
100
AcDbArc
 50
112.103750107622
 51
180.0
  0
ARC
  5
178
330
1F
100
AcDbEntity
  8
D-STR
  6
Continuous
 62
     7
370
    50
100
AcDbCircle
 10
63.11066372000001
 20
212.9844252352646
 30
0.0
 40
0.038
100
AcDbArc
 50
180.0
 51
247.896249892378
  0
LINE
  5
179
330
1F
100
AcDbEntity
  8
D-STR
  6
Continuous
 62
     7
370
    50
100
AcDbLine
 10
63.07266372
 20
212.9844252352646
 30
0.0
 11
63.07266372
 21
213.4205579152647
 31
0.0
  0
LINE
  5
17A
330
1F
100
AcDbEntity
  8
D-STR
  6
Continuous
 62
     7
370
    50
100
AcDbLine
 10
63.0963649
 20
212.9492180952646
 30
0.0
 11
63.53228212
 21
212.7721772152646
 31
0.0
  0
ARC
  5
17B
330
1F
100
AcDbEntity
  8
D-STR
  6
Continuous
 62
     7
370
    50
100
AcDbCircle
 10
63.62466372
 20
213.2024915752646
 30
0.0
 40
0.44
100
AcDbArc
 50
257.7059865682857
 51
354.7840914295507
  0
ARC
  5
17C
330
1F
100
AcDbEntity
  8
D-STR
  6
Continuous
 62
     7
370
    50
100
AcDbCircle
 10
63.62466372
 20
213.2024915752646
 30
0.0
 40
0.44
100
AcDbArc
 50
5.215908570445638
 51
102.2940134317106
  0
LINE
  5
17D
330
1F
100
AcDbEntity
  8
D-STR
  6
Continuous
 62
     7
370
    50
100
AcDbLine
 10
63.74466372
 20
212.4164915752646
 30
0.0
 11
63.72466372
 21
212.3964915752646
 31
0.0
  0
LINE
  5
17E
330
1F
100
AcDbEntity
  8
D-STR
  6
Continuous
 62
     7
370
    50
100
AcDbLine
 10
63.38466372
 20
212.7084915752646
 30
0.0
 11
63.86466372
 21
212.7084915752646
 31
0.0
  0
LINE
  5
17F
330
1F
100
AcDbEntity
  8
D-STR
  6
Continuous
 62
     7
370
    50
100
AcDbLine
 10
60.59966372
 20
216.3424915752646
 30
0.0
 11
60.59966372
 21
215.8624915752646
 31
0.0
  0
ARC
  5
180
330
1F
100
AcDbEntity
  8
D-STR
  6
Continuous
 62
     7
370
    50
100
AcDbCircle
 10
63.11066372000001
 20
213.4205579152646
 30
0.0
 40
0.092
100
AcDbArc
 50
112.1037501076279
 51
180.0
  0
LINE
  5
181
330
1F
100
AcDbEntity
  8
D-STR
  6
Continuous
 62
     7
370
    50
100
AcDbLine
 10
63.01866372000001
 20
212.9844252352646
 30
0.0
 11
63.01866372000001
 21
213.4205579152647
 31
0.0
  0
LINE
  5
182
330
1F
100
AcDbEntity
  8
D-STR
  6
USER_2
 62
     7
370
    50
100
AcDbLine
 10
63.62466372
 20
212.1890731752646
 30
0.0
 11
63.62466372
 21
213.9571822952646
 31
0.0
  0
ARC
  5
183
330
1F
100
AcDbEntity
  8
D-STR
  6
Continuous
 62
     7
370
    50
100
AcDbCircle
 10
63.62466372
 20
213.2024915752646
 30
0.0
 40
0.494
100
AcDbArc
 50
4.644418952146634
 51
102.7629655448802
  0
ARC
  5
184
330
1F
100
AcDbEntity
  8
D-STR
  6
Continuous
 62
     7
370
    50
100
AcDbCircle
 10
63.62466372
 20
213.2024915752646
 30
0.0
 40
0.494
100
AcDbArc
 50
257.2370344551206
 51
355.35558104786
  0
LINE
  5
185
330
1F
100
AcDbEntity
  8
D-STR
  6
Continuous
 62
     7
370
    50
100
AcDbLine
 10
64.11704164
 20
213.2424915752646
 30
0.0
 11
64.06284178
 21
213.2424915752646
 31
0.0
  0
LINE
  5
186
330
1F
100
AcDbEntity
  8
D-STR
  6
Continuous
 62
     7
370
    50
100
AcDbLine
 10
64.06284178
 20
213.1624915752646
 30
0.0
 11
64.11704164
 21
213.1624915752646
 31
0.0
  0
ARC
  5
187
330
1F
100
AcDbEntity
  8
D-STR
  6
Continuous
 62
     7
370
    50
100
AcDbCircle
 10
63.11066372000001
 20
212.9844252352646
 30
0.0
 40
0.092
100
AcDbArc
 50
180.0
 51
247.8962498923721
  0
LINE
  5
188
330
1F
100
AcDbEntity
  8
D-STR
  6
Continuous
 62
     7
370
    50
100
AcDbLine
 10
63.07604552
 20
212.8991868752646
 30
0.0
 11
63.51553016
 21
212.7206971552646
 31
0.0
  0
LINE
  5
189
330
1F
100
AcDbEntity
  8
D-STR
  6
Continuous
 62
     7
370
    50
100
AcDbLine
 10
63.07604552
 20
213.5057962752646
 30
0.0
 11
63.51553016
 21
213.6842859952646
 31
0.0
  0
LINE
  5
18A
330
1F
100
AcDbEntity
  8
D-STR
  6
Continuous
 62
     7
370
    50
100
AcDbLine
 10
63.86466372
 20
212.6624915752646
 30
0.0
 11
63.38466372000001
 21
212.6624915752646
 31
0.0
  0
LINE
  5
18B
330
1F
100
AcDbEntity
  8
D-STR
  6
Continuous
 62
     7
370
    50
100
AcDbLine
 10
63.86466372
 20
212.7084915752646
 30
0.0
 11
63.86466372
 21
212.6624915752647
 31
0.0
  0
LINE
  5
18C
330
1F
100
AcDbEntity
  8
D-STR
  6
Continuous
 62
     7
370
    50
100
AcDbLine
 10
63.48466372
 20
212.6624915752646
 30
0.0
 11
63.48466372
 21
212.7084915752646
 31
0.0
  0
LINE
  5
18D
330
1F
100
AcDbEntity
  8
D-STR
  6
Continuous
 62
     7
370
    50
100
AcDbLine
 10
63.76466372
 20
212.7084915752646
 30
0.0
 11
63.76466372
 21
212.6624915752647
 31
0.0
  0
LINE
  5
18E
330
1F
100
AcDbEntity
  8
D-STR
  6
Continuous
 62
     7
370
    50
100
AcDbLine
 10
63.38466372
 20
212.7084915752646
 30
0.0
 11
63.38466372
 21
212.6624915752647
 31
0.0
  0
LINE
  5
18F
330
1F
100
AcDbEntity
  8
D-STR
  6
Continuous
 62
     7
370
    50
100
AcDbLine
 10
60.64566372
 20
216.3424915752646
 30
0.0
 11
60.64566372
 21
215.8624915752646
 31
0.0
  0
LINE
  5
190
330
1F
100
AcDbEntity
  8
D-STR
  6
Continuous
 62
     7
370
    50
100
AcDbLine
 10
60.59966372
 20
215.9624915752646
 30
0.0
 11
60.64566372000001
 21
215.9624915752646
 31
0.0
  0
LINE
  5
191
330
1F
100
AcDbEntity
  8
D-STR
  6
Continuous
 62
     7
370
    50
100
AcDbLine
 10
60.59966372
 20
216.2424915752646
 30
0.0
 11
60.64566372000001
 21
216.2424915752646
 31
0.0
  0
LINE
  5
192
330
1F
100
AcDbEntity
  8
D-STR
  6
Continuous
 62
     7
370
    50
100
AcDbLine
 10
63.72466372
 20
212.8348490952646
 30
0.0
 11
63.72466372
 21
212.8964915752646
 31
0.0
  0
LINE
  5
193
330
1F
100
AcDbEntity
  8
D-STR
  6
Continuous
 62
     7
370
    50
100
AcDbLine
 10
63.52466372
 20
212.8348490952646
 30
0.0
 11
63.52466372
 21
212.8964915752646
 31
0.0
  0
LINE
  5
194
330
1F
100
AcDbEntity
  8
D-STR
  6
Continuous
 62
     7
370
    50
100
AcDbLine
 10
63.50466372
 20
212.8408826752646
 30
0.0
 11
63.50466372
 21
213.5641004752646
 31
0.0
  0
CIRCLE
  5
195
330
1F
100
AcDbEntity
  8
D-STR
  6
Continuous
 62
     7
370
    50
100
AcDbCircle
 10
63.62466372
 20
213.2024915752646
 30
0.0
 40
0.427
  0
CIRCLE
  5
196
330
1F
100
AcDbEntity
  8
D-STR
  6
Continuous
 62
     7
370
    50
100
AcDbCircle
 10
63.62466372
 20
213.2024915752646
 30
0.0
 40
0.381
  0
POINT
  5
197
330
1F
100
AcDbEntity
  8
D-STR
  6
Continuous
 62
     7
370
    13
100
AcDbPoint
 10
64.11866372
 20
213.2024915752646
 30
0.0
 50
180.0
  0
LINE
  5
198
330
1F
100
AcDbEntity
  8
D-STR
  6
Continuous
 62
     7
370
    50
100
AcDbLine
 10
60.59966372
 20
215.8624915752646
 30
0.0
 11
60.64566372000001
 21
215.8624915752646
 31
0.0
  0
LINE
  5
199
330
1F
100
AcDbEntity
  8
D-STR
  6
Continuous
 62
     7
370
    50
100
AcDbLine
 10
60.59966372
 20
216.3424915752646
 30
0.0
 11
60.64566372000001
 21
216.3424915752646
 31
0.0
  0
LINE
  5
19A
330
1F
100
AcDbEntity
  8
D-STR
  6
Continuous
 62
     7
370
    50
100
AcDbLine
 10
63.41066372
 20
213.1024915752646
 30
0.0
 11
63.27266372
 21
213.1024915752646
 31
0.0
  0
LINE
  5
19B
330
1F
100
AcDbEntity
  8
D-STR
  6
Continuous
 62
     7
370
    50
100
AcDbLine
 10
63.41066372
 20
213.3024915752646
 30
0.0
 11
63.27266372
 21
213.3024915752646
 31
0.0
  0
LINE
  5
19C
330
1F
100
AcDbEntity
  8
D-STR
  6
Continuous
 62
     7
370
    50
100
AcDbLine
 10
63.39066372000001
 20
213.0824915752646
 30
0.0
 11
63.39066372000001
 21
213.3224915752646
 31
0.0
  0
LINE
  5
19D
330
1F
100
AcDbEntity
  8
D-STR
  6
Continuous
 62
     7
370
    50
100
AcDbLine
 10
63.39066372000001
 20
213.0824915752646
 30
0.0
 11
63.41066372000001
 21
213.1024915752647
 31
0.0
  0
LINE
  5
19E
330
1F
100
AcDbEntity
  8
D-STR
  6
Continuous
 62
     7
370
    50
100
AcDbLine
 10
63.39066372000001
 20
213.0824915752646
 30
0.0
 11
63.27266372
 21
213.0824915752646
 31
0.0
  0
LINE
  5
19F
330
1F
100
AcDbEntity
  8
D-STR
  6
Continuous
 62
     7
370
    50
100
AcDbLine
 10
63.39066372000001
 20
213.3224915752646
 30
0.0
 11
63.41066372000001
 21
213.3024915752646
 31
0.0
  0
LINE
  5
1A0
330
1F
100
AcDbEntity
  8
D-STR
  6
Continuous
 62
     7
370
    50
100
AcDbLine
 10
63.39066372000001
 20
213.3224915752646
 30
0.0
 11
63.27266372
 21
213.3224915752646
 31
0.0
  0
LINE
  5
1A1
330
1F
100
AcDbEntity
  8
D-STR
  6
Continuous
 62
     7
370
    50
100
AcDbLine
 10
63.41066372
 20
213.3024915752646
 30
0.0
 11
63.41066372
 21
213.1024915752647
 31
0.0
  0
LINE
  5
1A2
330
1F
100
AcDbEntity
  8
D-STR
  6
USER_2
 62
     7
370
    50
100
AcDbLine
 10
64.4194465
 20
216.1024915752646
 30
0.0
 11
60.37897328
 21
216.1024915752646
 31
0.0
  0
ARC
  5
1A3
330
1F
100
AcDbEntity
  8
D-STR
  6
Continuous
 62
     7
370
    50
100
AcDbCircle
 10
63.62466372
 20
216.4964915752646
 30
0.0
 40
0.26
100
AcDbArc
 50
22.6198649480391
 51
157.3801350519609
  0
LINE
  5
1A4
330
1F
100
AcDbEntity
  8
D-STR
  6
Continuous
 62
     7
370
    50
100
AcDbLine
 10
63.38466372
 20
216.5964915752646
 30
0.0
 11
63.86466372
 21
216.5964915752646
 31
0.0
  0
LINE
  5
1A5
330
1F
100
AcDbEntity
  8
D-STR
  6
Continuous
 62
     7
370
    50
100
AcDbLine
 10
63.44466372
 20
216.5964915752646
 30
0.0
 11
63.44466372
 21
216.5682336952646
 31
0.0
  0
LINE
  5
1A6
330
1F
100
AcDbEntity
  8
D-STR
  6
Continuous
 62
     7
370
    50
100
AcDbLine
 10
63.80466372
 20
216.5964915752646
 30
0.0
 11
63.80466372
 21
216.5625307152646
 31
0.0
  0
LINE
  5
1A7
330
1F
100
AcDbEntity
  8
D-STR
  6
Continuous
 62
     7
370
    50
100
AcDbLine
 10
63.74466372
 20
215.7408826752646
 30
0.0
 11
63.74466372
 21
216.4641004752646
 31
0.0
  0
LINE
  5
1A8
330
1F
100
AcDbEntity
  8
D-STR
  6
Continuous
 62
     7
370
    50
100
AcDbLine
 10
63.50466372
 20
215.3164915752646
 30
0.0
 11
63.50466372
 21
215.3624915752646
 31
0.0
  0
LINE
  5
1A9
330
1F
100
AcDbEntity
  8
D-STR
  6
Continuous
 62
     7
370
    50
100
AcDbLine
 10
63.74466372
 20
215.3164915752646
 30
0.0
 11
63.74466372
 21
215.3624915752646
 31
0.0
  0
LINE
  5
1AA
330
1F
100
AcDbEntity
  8
D-STR
  6
Continuous
 62
     7
370
    50
100
AcDbLine
 10
63.50466372
 20
215.7964915752646
 30
0.0
 11
63.74466372000001
 21
215.7964915752646
 31
0.0
  0
LINE
  5
1AB
330
1F
100
AcDbEntity
  8
D-STR
  6
Continuous
 62
     7
370
    50
100
AcDbLine
 10
63.72466372
 20
215.2964915752646
 30
0.0
 11
63.52466372
 21
215.2964915752646
 31
0.0
  0
LINE
  5
1AC
330
1F
100
AcDbEntity
  8
D-STR
  6
Continuous
 62
     7
370
    50
100
AcDbLine
 10
63.52466372
 20
215.2964915752646
 30
0.0
 11
63.52466372
 21
215.3624915752646
 31
0.0
  0
LINE
  5
1AD
330
1F
100
AcDbEntity
  8
D-STR
  6
Continuous
 62
     7
370
    50
100
AcDbLine
 10
63.72466372
 20
215.2964915752646
 30
0.0
 11
63.72466372
 21
215.3624915752646
 31
0.0
  0
LINE
  5
1AE
330
1F
100
AcDbEntity
  8
D-STR
  6
Continuous
 62
     7
370
    50
100
AcDbLine
 10
63.01866372000001
 20
215.8524915752646
 30
0.0
 11
63.01866372000001
 21
216.3524915752646
 31
0.0
  0
LINE
  5
1AF
330
1F
100
AcDbEntity
  8
D-STR
  6
Continuous
 62
     7
370
    50
100
AcDbLine
 10
63.74466372
 20
215.3164915752646
 30
0.0
 11
63.50466372
 21
215.3164915752646
 31
0.0
  0
LINE
  5
1B0
330
1F
100
AcDbEntity
  8
D-STR
  6
Continuous
 62
     7
370
    50
100
AcDbLine
 10
62.85866372
 20
216.3524915752646
 30
0.0
 11
62.85866372
 21
215.8524915752646
 31
0.0
  0
LINE
  5
1B1
330
1F
100
AcDbEntity
  8
D-STR
  6
Continuous
 62
     7
370
    50
100
AcDbLine
 10
63.01866372000001
 20
215.8524915752646
 30
0.0
 11
62.85866372000001
 21
215.8524915752646
 31
0.0
  0
LINE
  5
1B2
330
1F
100
AcDbEntity
  8
D-STR
  6
Continuous
 62
     7
370
    50
100
AcDbLine
 10
63.01866372000001
 20
216.3524915752646
 30
0.0
 11
62.85866372000001
 21
216.3524915752646
 31
0.0
  0
LINE
  5
1B3
330
1F
100
AcDbEntity
  8
D-STR
  6
Continuous
 62
     7
370
    50
100
AcDbLine
 10
63.50466372
 20
215.3164915752646
 30
0.0
 11
63.52466372000001
 21
215.2964915752646
 31
0.0
  0
ARC
  5
1B4
330
1F
100
AcDbEntity
  8
D-STR
  6
Continuous
 62
     7
370
    50
100
AcDbCircle
 10
60.58391998
 20
215.9379915752646
 30
0.0
 40
0.08425626
100
AcDbArc
 50
139.6965059315715
 51
220.3034940684285
  0
ARC
  5
1B5
330
1F
100
AcDbEntity
  8
D-STR
  6
Continuous
 62
     7
370
    50
100
AcDbCircle
 10
60.81216372
 20
216.1024915752646
 30
0.0
 40
0.3125
100
AcDbArc
 50
159.3903070624654
 51
200.6096929375346
  0
ARC
  5
1B6
330
1F
100
AcDbEntity
  8
D-STR
  6
Continuous
 62
     7
370
    50
100
AcDbCircle
 10
60.58391998
 20
216.2669915752646
 30
0.0
 40
0.08425626
100
AcDbArc
 50
139.6965059315715
 51
220.3034940684285
  0
ARC
  5
1B7
330
1F
100
AcDbEntity
  8
D-STR
  6
Continuous
 62
     7
370
    50
100
AcDbCircle
 10
60.77941998
 20
216.1024915752646
 30
0.0
 40
0.33975624
100
AcDbArc
 50
139.8658258320309
 51
220.1341741679683
  0
LINE
  5
1B8
330
1F
100
AcDbEntity
  8
D-STR
  6
Continuous
 62
     7
370
    50
100
AcDbLine
 10
60.59966372
 20
215.8834915752646
 30
0.0
 11
60.51966372
 21
215.8834915752646
 31
0.0
  0
LINE
  5
1B9
330
1F
100
AcDbEntity
  8
D-STR
  6
Continuous
 62
     7
370
    50
100
AcDbLine
 10
60.59966372
 20
216.3214915752646
 30
0.0
 11
60.51966372
 21
216.3214915752646
 31
0.0
  0
LINE
  5
1BA
330
1F
100
AcDbEntity
  8
D-STR
  6
Continuous
 62
     7
370
    50
100
AcDbLine
 10
60.59966372
 20
215.9924915752646
 30
0.0
 11
60.51966372
 21
215.9924915752646
 31
0.0
  0
LINE
  5
1BB
330
1F
100
AcDbEntity
  8
D-STR
  6
Continuous
 62
     7
370
    50
100
AcDbLine
 10
60.59966372
 20
216.2124915752646
 30
0.0
 11
60.51966372
 21
216.2124915752646
 31
0.0
  0
LINE
  5
1BC
330
1F
100
AcDbEntity
  8
D-STR
  6
Continuous
 62
     7
370
    50
100
AcDbLine
 10
63.0963649
 20
216.3557650552646
 30
0.0
 11
63.53228212
 21
216.5328059352646
 31
0.0
  0
ARC
  5
1BD
330
1F
100
AcDbEntity
  8
D-STR
  6
Continuous
 62
     7
370
    50
100
AcDbCircle
 10
63.11066372000001
 20
216.3205579152646
 30
0.0
 40
0.038
100
AcDbArc
 50
112.103750107622
 51
180.0
  0
ARC
  5
1BE
330
1F
100
AcDbEntity
  8
D-STR
  6
Continuous
 62
     7
370
    50
100
AcDbCircle
 10
63.11066372000001
 20
215.8844252352646
 30
0.0
 40
0.038
100
AcDbArc
 50
180.0
 51
247.896249892378
  0
LINE
  5
1BF
330
1F
100
AcDbEntity
  8
D-STR
  6
Continuous
 62
     7
370
    50
100
AcDbLine
 10
63.07266372
 20
215.8844252352646
 30
0.0
 11
63.07266372
 21
216.3205579152646
 31
0.0
  0
LINE
  5
1C0
330
1F
100
AcDbEntity
  8
D-STR
  6
Continuous
 62
     7
370
    50
100
AcDbLine
 10
63.0963649
 20
215.8492180952646
 30
0.0
 11
63.53228212
 21
215.6721772152646
 31
0.0
  0
ARC
  5
1C1
330
1F
100
AcDbEntity
  8
D-STR
  6
Continuous
 62
     7
370
    50
100
AcDbCircle
 10
63.62466372
 20
216.1024915752646
 30
0.0
 40
0.44
100
AcDbArc
 50
257.7059865682857
 51
354.7840914295507
  0
ARC
  5
1C2
330
1F
100
AcDbEntity
  8
D-STR
  6
Continuous
 62
     7
370
    50
100
AcDbCircle
 10
63.62466372
 20
216.1024915752646
 30
0.0
 40
0.44
100
AcDbArc
 50
5.215908570445638
 51
102.2940134317106
  0
LINE
  5
1C3
330
1F
100
AcDbEntity
  8
D-STR
  6
Continuous
 62
     7
370
    50
100
AcDbLine
 10
63.74466372
 20
215.3164915752646
 30
0.0
 11
63.72466372
 21
215.2964915752646
 31
0.0
  0
LINE
  5
1C4
330
1F
100
AcDbEntity
  8
D-STR
  6
Continuous
 62
     7
370
    50
100
AcDbLine
 10
63.38466372
 20
215.6084915752646
 30
0.0
 11
63.86466372
 21
215.6084915752646
 31
0.0
  0
LINE
  5
1C5
330
1F
100
AcDbEntity
  8
D-STR
  6
USER_3
 62
     7
370
    50
100
AcDbLine
 10
62.86166372
 20
216.2224915752646
 30
0.0
 11
60.63566372
 21
216.2224915752646
 31
0.0
  0
LINE
  5
1C6
330
1F
100
AcDbEntity
  8
D-STR
  6
USER_3
 62
     7
370
    50
100
AcDbLine
 10
62.86166372
 20
215.9824915752646
 30
0.0
 11
60.63566372
 21
215.9824915752646
 31
0.0
  0
ARC
  5
1C7
330
1F
100
AcDbEntity
  8
D-STR
  6
Continuous
 62
     7
370
    50
100
AcDbCircle
 10
63.11066372000001
 20
216.3205579152646
 30
0.0
 40
0.092
100
AcDbArc
 50
112.1037501076279
 51
180.0
  0
LINE
  5
1C8
330
1F
100
AcDbEntity
  8
D-STR
  6
Continuous
 62
     7
370
    50
100
AcDbLine
 10
63.01866372000001
 20
215.8844252352646
 30
0.0
 11
63.01866372000001
 21
216.3205579152646
 31
0.0
  0
LINE
  5
1C9
330
1F
100
AcDbEntity
  8
D-STR
  6
USER_2
 62
     7
370
    50
100
AcDbLine
 10
63.62466372
 20
215.0890731752646
 30
0.0
 11
63.62466372
 21
216.8571822952646
 31
0.0
  0
ARC
  5
1CA
330
1F
100
AcDbEntity
  8
D-STR
  6
Continuous
 62
     7
370
    50
100
AcDbCircle
 10
63.62466372
 20
216.1024915752646
 30
0.0
 40
0.494
100
AcDbArc
 50
4.644418952146634
 51
102.7629655448802
  0
ARC
  5
1CB
330
1F
100
AcDbEntity
  8
D-STR
  6
Continuous
 62
     7
370
    50
100
AcDbCircle
 10
63.62466372
 20
216.1024915752646
 30
0.0
 40
0.494
100
AcDbArc
 50
257.2370344551206
 51
355.35558104786
  0
LINE
  5
1CC
330
1F
100
AcDbEntity
  8
D-STR
  6
Continuous
 62
     7
370
    50
100
AcDbLine
 10
64.11704164
 20
216.1424915752646
 30
0.0
 11
64.06284178
 21
216.1424915752646
 31
0.0
  0
LINE
  5
1CD
330
1F
100
AcDbEntity
  8
D-STR
  6
Continuous
 62
     7
370
    50
100
AcDbLine
 10
64.06284178
 20
216.0624915752646
 30
0.0
 11
64.11704164
 21
216.0624915752646
 31
0.0
  0
ARC
  5
1CE
330
1F
100
AcDbEntity
  8
D-STR
  6
Continuous
 62
     7
370
    50
100
AcDbCircle
 10
63.11066372000001
 20
215.8844252352646
 30
0.0
 40
0.092
100
AcDbArc
 50
180.0
 51
247.8962498923721
  0
LINE
  5
1CF
330
1F
100
AcDbEntity
  8
D-STR
  6
Continuous
 62
     7
370
    50
100
AcDbLine
 10
63.07604552
 20
215.7991868752646
 30
0.0
 11
63.51553016
 21
215.6206971552647
 31
0.0
  0
LINE
  5
1D0
330
1F
100
AcDbEntity
  8
D-STR
  6
Continuous
 62
     7
370
    50
100
AcDbLine
 10
63.07604552
 20
216.4057962752646
 30
0.0
 11
63.51553016
 21
216.5842859952646
 31
0.0
  0
LINE
  5
1D1
330
1F
100
AcDbEntity
  8
D-STR
  6
Continuous
 62
     7
370
    50
100
AcDbLine
 10
63.86466372
 20
215.5624915752646
 30
0.0
 11
63.38466372000001
 21
215.5624915752646
 31
0.0
  0
LINE
  5
1D2
330
1F
100
AcDbEntity
  8
D-STR
  6
Continuous
 62
     7
370
    50
100
AcDbLine
 10
63.86466372
 20
215.6084915752646
 30
0.0
 11
63.86466372
 21
215.5624915752646
 31
0.0
  0
LINE
  5
1D3
330
1F
100
AcDbEntity
  8
D-STR
  6
Continuous
 62
     7
370
    50
100
AcDbLine
 10
63.48466372
 20
215.5624915752646
 30
0.0
 11
63.48466372
 21
215.6084915752646
 31
0.0
  0
LINE
  5
1D4
330
1F
100
AcDbEntity
  8
D-STR
  6
Continuous
 62
     7
370
    50
100
AcDbLine
 10
63.76466372
 20
215.6084915752646
 30
0.0
 11
63.76466372
 21
215.5624915752646
 31
0.0
  0
LINE
  5
1D5
330
1F
100
AcDbEntity
  8
D-STR
  6
Continuous
 62
     7
370
    50
100
AcDbLine
 10
63.38466372
 20
215.6084915752646
 30
0.0
 11
63.38466372
 21
215.5624915752646
 31
0.0
  0
LINE
  5
1D6
330
1F
100
AcDbEntity
  8
D-STR
  6
Continuous
 62
     7
370
    50
100
AcDbLine
 10
63.72466372
 20
215.7348490952646
 30
0.0
 11
63.72466372
 21
215.7964915752646
 31
0.0
  0
LINE
  5
1D7
330
1F
100
AcDbEntity
  8
D-STR
  6
Continuous
 62
     7
370
    50
100
AcDbLine
 10
63.52466372
 20
215.7348490952646
 30
0.0
 11
63.52466372
 21
215.7964915752646
 31
0.0
  0
LINE
  5
1D8
330
1F
100
AcDbEntity
  8
D-STR
  6
Continuous
 62
     7
370
    50
100
AcDbLine
 10
63.50466372
 20
215.7408826752646
 30
0.0
 11
63.50466372
 21
216.4641004752646
 31
0.0
  0
CIRCLE
  5
1D9
330
1F
100
AcDbEntity
  8
D-STR
  6
Continuous
 62
     7
370
    50
100
AcDbCircle
 10
63.62466372
 20
216.1024915752646
 30
0.0
 40
0.427
  0
CIRCLE
  5
1DA
330
1F
100
AcDbEntity
  8
D-STR
  6
Continuous
 62
     7
370
    50
100
AcDbCircle
 10
63.62466372
 20
216.1024915752646
 30
0.0
 40
0.381
  0
POINT
  5
1DB
330
1F
100
AcDbEntity
  8
D-STR
  6
Continuous
 62
     7
370
    13
100
AcDbPoint
 10
64.11866372
 20
216.1024915752646
 30
0.0
 50
180.0
  0
LINE
  5
1DC
330
1F
100
AcDbEntity
  8
D-STR
  6
Continuous
 62
     7
370
    50
100
AcDbLine
 10
62.93166372
 20
232.2324915752646
 30
0.0
 11
62.93166372
 21
232.7024915752646
 31
0.0
  0
LINE
  5
1DD
330
1F
100
AcDbEntity
  8
D-STR
  6
Continuous
 62
     7
370
    50
100
AcDbLine
 10
62.93166372
 20
229.5324915752646
 30
0.0
 11
62.93166372
 21
231.7324915752646
 31
0.0
  0
LINE
  5
1DE
330
1F
100
AcDbEntity
  8
D-STR
  6
Continuous
 62
     7
370
    50
100
AcDbLine
 10
62.93166372
 20
216.3524915752646
 30
0.0
 11
62.93166372
 21
221.6574915752646
 31
0.0
  0
LINE
  5
1DF
330
1F
100
AcDbEntity
  8
D-STR
  6
Continuous
 62
     7
370
    50
100
AcDbLine
 10
62.93166372
 20
213.4524915752646
 30
0.0
 11
62.93166372
 21
215.8524915752646
 31
0.0
  0
LINE
  5
1E0
330
1F
100
AcDbEntity
  8
D-STR
  6
Continuous
 62
     7
370
    50
100
AcDbLine
 10
63.41066372
 20
216.0024915752646
 30
0.0
 11
63.27266372
 21
216.0024915752646
 31
0.0
  0
LINE
  5
1E1
330
1F
100
AcDbEntity
  8
D-STR
  6
Continuous
 62
     7
370
    50
100
AcDbLine
 10
63.41066372
 20
216.2024915752646
 30
0.0
 11
63.27266372
 21
216.2024915752646
 31
0.0
  0
LINE
  5
1E2
330
1F
100
AcDbEntity
  8
D-STR
  6
Continuous
 62
     7
370
    50
100
AcDbLine
 10
63.39066372000001
 20
215.9824915752646
 30
0.0
 11
63.39066372000001
 21
216.2224915752646
 31
0.0
  0
LINE
  5
1E3
330
1F
100
AcDbEntity
  8
D-STR
  6
Continuous
 62
     7
370
    50
100
AcDbLine
 10
63.39066372000001
 20
215.9824915752646
 30
0.0
 11
63.41066372000001
 21
216.0024915752646
 31
0.0
  0
LINE
  5
1E4
330
1F
100
AcDbEntity
  8
D-STR
  6
Continuous
 62
     7
370
    50
100
AcDbLine
 10
63.39066372000001
 20
215.9824915752646
 30
0.0
 11
63.27266372
 21
215.9824915752646
 31
0.0
  0
LINE
  5
1E5
330
1F
100
AcDbEntity
  8
D-STR
  6
Continuous
 62
     7
370
    50
100
AcDbLine
 10
63.39066372000001
 20
216.2224915752646
 30
0.0
 11
63.41066372000001
 21
216.2024915752646
 31
0.0
  0
LINE
  5
1E6
330
1F
100
AcDbEntity
  8
D-STR
  6
Continuous
 62
     7
370
    50
100
AcDbLine
 10
63.39066372000001
 20
216.2224915752646
 30
0.0
 11
63.27266372
 21
216.2224915752646
 31
0.0
  0
LINE
  5
1E7
330
1F
100
AcDbEntity
  8
D-STR
  6
Continuous
 62
     7
370
    50
100
AcDbLine
 10
63.41066372
 20
216.2024915752646
 30
0.0
 11
63.41066372
 21
216.0024915752646
 31
0.0
  0
LINE
  5
1E8
330
1F
100
AcDbEntity
  8
D-STR
  6
Continuous
 62
     7
370
    50
100
AcDbLine
 10
60.26166372
 20
222.1426839552646
 30
0.0
 11
60.26166372
 21
222.6622991952646
 31
0.0
  0
ARC
  5
1E9
330
1F
100
AcDbEntity
  8
D-STR
  6
Continuous
 62
     7
370
    50
100
AcDbCircle
 10
60.42124262
 20
222.6622991952646
 30
0.0
 40
0.1595789
100
AcDbArc
 50
147.1327677635146
 51
212.8672322364868
  0
ARC
  5
1EA
330
1F
100
AcDbEntity
  8
D-STR
  6
Continuous
 62
     7
370
    50
100
AcDbCircle
 10
60.42124262
 20
222.1426839552646
 30
0.0
 40
0.1595789
100
AcDbArc
 50
147.1327677635146
 51
212.8672322364868
  0
ARC
  5
1EB
330
1F
100
AcDbEntity
  8
D-STR
  6
Continuous
 62
     7
370
    50
100
AcDbCircle
 10
60.86166372
 20
222.4024915752646
 30
0.0
 40
0.6
100
AcDbArc
 50
163.2213451190385
 51
196.778654880959
  0
LINE
  5
1EC
330
1F
100
AcDbEntity
  8
D-STR
  6
Continuous
 62
     7
370
    50
100
AcDbLine
 10
60.58166371999999
 20
222.2292864952646
 30
0.0
 11
60.28720746
 21
222.2292864952646
 31
0.0
  0
LINE
  5
1ED
330
1F
100
AcDbEntity
  8
D-STR
  6
Continuous
 62
     7
370
    50
100
AcDbLine
 10
60.58166371999999
 20
222.5756966552646
 30
0.0
 11
60.28720746
 21
222.5756966552646
 31
0.0
  0
LINE
  5
1EE
330
1F
100
AcDbEntity
  8
D-STR
  6
Continuous
 62
     7
370
    50
100
AcDbLine
 10
60.58166371999999
 20
222.0560814152646
 30
0.0
 11
60.28720746
 21
222.0560814152646
 31
0.0
  0
LINE
  5
1EF
330
1F
100
AcDbEntity
  8
D-STR
  6
Continuous
 62
     7
370
    50
100
AcDbLine
 10
60.28720746
 20
222.7489017352646
 30
0.0
 11
60.58166371999999
 21
222.7489017352646
 31
0.0
  0
LINE
  5
1F0
330
1F
100
AcDbEntity
  8
D-STR
  6
Continuous
 62
     7
370
    50
100
AcDbLine
 10
63.78920856
 20
228.5424915752646
 30
0.0
 11
63.4601189
 21
228.5424915752646
 31
0.0
  0
ARC
  5
1F1
330
1F
100
AcDbEntity
  8
D-STR
  6
Continuous
 62
     7
370
    50
100
AcDbCircle
 10
63.4601189
 20
228.6389115952646
 30
0.0
 40
0.09642002
100
AcDbArc
 50
235.3301090391505
 51
304.6698909608426
  0
ARC
  5
1F2
330
1F
100
AcDbEntity
  8
D-STR
  6
Continuous
 62
     7
370
    50
100
AcDbCircle
 10
63.78920856
 20
228.6389115952646
 30
0.0
 40
0.09642002
100
AcDbArc
 50
235.3301090391505
 51
304.6698909608426
  0
ARC
  5
1F3
330
1F
100
AcDbEntity
  8
D-STR
  6
Continuous
 62
     7
370
    50
100
AcDbCircle
 10
63.62466372
 20
228.9024915752646
 30
0.0
 40
0.36
100
AcDbArc
 50
252.259123393962
 51
287.7408766060402
  0
LINE
  5
1F4
330
1F
100
AcDbEntity
  8
D-STR
  6
Continuous
 62
     7
370
    50
100
AcDbLine
 10
63.73436028
 20
228.7424915752646
 30
0.0
 11
63.73436028
 21
228.5596116152646
 31
0.0
  0
LINE
  5
1F5
330
1F
100
AcDbEntity
  8
D-STR
  6
Continuous
 62
     7
370
    50
100
AcDbLine
 10
63.51496718000001
 20
228.7424915752646
 30
0.0
 11
63.51496718000001
 21
228.5596116152646
 31
0.0
  0
LINE
  5
1F6
330
1F
100
AcDbEntity
  8
D-STR
  6
Continuous
 62
     7
370
    50
100
AcDbLine
 10
63.84405682
 20
228.7424915752646
 30
0.0
 11
63.84405682
 21
228.5596116152646
 31
0.0
  0
LINE
  5
1F7
330
1F
100
AcDbEntity
  8
D-STR
  6
Continuous
 62
     7
370
    50
100
AcDbLine
 10
63.40527062
 20
228.7424915752646
 30
0.0
 11
63.84405682
 21
228.7424915752646
 31
0.0
  0
LINE
  5
1F8
330
1F
100
AcDbEntity
  8
D-STR
  6
Continuous
 62
     7
370
    50
100
AcDbLine
 10
63.40527062
 20
228.5596116152646
 30
0.0
 11
63.40527062
 21
228.7424915752646
 31
0.0
  0
ARC
  5
1F9
330
1F
100
AcDbEntity
  8
D-STR
  6
Continuous
 62
     7
370
    50
100
AcDbCircle
 10
63.03266372
 20
229.3774915752646
 30
0.0
 40
0.24
100
AcDbArc
 50
336.6820429346593
 51
9.997941642810343
  0
LINE
  5
1FA
330
1F
100
AcDbEntity
  8
D-STR
  6
Continuous
 62
     7
370
    50
100
AcDbLine
 10
63.07266372
 20
229.0924915752646
 30
0.0
 11
63.24226472
 21
229.0924915752646
 31
0.0
  0
LINE
  5
1FB
330
1F
100
AcDbEntity
  8
D-STR
  6
Continuous
 62
     7
370
    50
100
AcDbLine
 10
63.07266372
 20
229.0924915752646
 30
0.0
 11
63.07266372
 21
229.4724915752646
 31
0.0
  0
LINE
  5
1FC
330
1F
100
AcDbEntity
  8
D-STR
  6
Continuous
 62
     7
370
    50
100
AcDbLine
 10
63.07266372
 20
229.4724915752646
 30
0.0
 11
63.24226472
 21
229.4724915752646
 31
0.0
  0
LINE
  5
1FD
330
1F
100
AcDbEntity
  8
D-STR
  6
Continuous
 62
     7
370
    50
100
AcDbLine
 10
63.27266372
 20
229.4282893752646
 30
0.0
 11
63.27266372
 21
229.1366937752646
 31
0.0
  0
LINE
  5
1FE
330
1F
100
AcDbEntity
  8
D-STR
  6
Continuous
 62
     7
370
    50
100
AcDbLine
 10
63.2530611
 20
229.2824915752646
 30
0.0
 11
63.24366372
 21
229.2824915752646
 31
0.0
  0
ARC
  5
1FF
330
1F
100
AcDbEntity
  8
D-STR
  6
Continuous
 62
     7
370
    50
100
AcDbCircle
 10
63.03266372
 20
229.1874915752646
 30
0.0
 40
0.24
100
AcDbArc
 50
350.0020583571897
 51
23.31795706532692
  0
LINE
  5
200
330
1F
100
AcDbEntity
  8
D-STR
  6
Continuous
 62
     7
370
    50
100
AcDbLine
 10
63.19766372
 20
229.2824915752646
 30
0.0
 11
63.07266372
 21
229.2824915752646
 31
0.0
  0
LINE
  5
201
330
1F
100
AcDbEntity
  8
D-STR
  6
Continuous
 62
     7
370
    50
100
AcDbLine
 10
63.78920856
 20
231.2424915752646
 30
0.0
 11
63.4601189
 21
231.2424915752646
 31
0.0
  0
ARC
  5
202
330
1F
100
AcDbEntity
  8
D-STR
  6
Continuous
 62
     7
370
    50
100
AcDbCircle
 10
63.4601189
 20
231.3389115952646
 30
0.0
 40
0.09642002
100
AcDbArc
 50
235.3301090391505
 51
304.6698909608426
  0
ARC
  5
203
330
1F
100
AcDbEntity
  8
D-STR
  6
Continuous
 62
     7
370
    50
100
AcDbCircle
 10
63.78920856
 20
231.3389115952646
 30
0.0
 40
0.09642002
100
AcDbArc
 50
235.3301090391505
 51
304.6698909608426
  0
ARC
  5
204
330
1F
100
AcDbEntity
  8
D-STR
  6
Continuous
 62
     7
370
    50
100
AcDbCircle
 10
63.62466372
 20
231.6024915752646
 30
0.0
 40
0.36
100
AcDbArc
 50
252.259123393962
 51
287.7408766060402
  0
LINE
  5
205
330
1F
100
AcDbEntity
  8
D-STR
  6
Continuous
 62
     7
370
    50
100
AcDbLine
 10
63.73436028
 20
231.4424915752646
 30
0.0
 11
63.73436028
 21
231.2596116152646
 31
0.0
  0
LINE
  5
206
330
1F
100
AcDbEntity
  8
D-STR
  6
Continuous
 62
     7
370
    50
100
AcDbLine
 10
63.51496718000001
 20
231.4424915752646
 30
0.0
 11
63.51496718000001
 21
231.2596116152646
 31
0.0
  0
LINE
  5
207
330
1F
100
AcDbEntity
  8
D-STR
  6
Continuous
 62
     7
370
    50
100
AcDbLine
 10
63.84405682
 20
231.4424915752646
 30
0.0
 11
63.84405682
 21
231.2596116152646
 31
0.0
  0
LINE
  5
208
330
1F
100
AcDbEntity
  8
D-STR
  6
Continuous
 62
     7
370
    50
100
AcDbLine
 10
63.40527062
 20
231.4424915752646
 30
0.0
 11
63.84405682
 21
231.4424915752646
 31
0.0
  0
LINE
  5
209
330
1F
100
AcDbEntity
  8
D-STR
  6
Continuous
 62
     7
370
    50
100
AcDbLine
 10
63.40527062
 20
231.2596116152646
 30
0.0
 11
63.40527062
 21
231.4424915752646
 31
0.0
  0
LINE
  5
20A
330
1F
100
AcDbEntity
  8
D-STR
  6
Continuous
 62
     7
370
    50
100
AcDbLine
 10
64.32257876
 20
219.3955012152646
 30
0.0
 11
63.63091526
 21
218.9024915752646
 31
0.0
  0
ARC
  5
20B
330
1F
100
AcDbEntity
  8
D-STR
  6
Continuous
 62
     7
370
    50
100
AcDbCircle
 10
64.00566372
 20
219.8401143552646
 30
0.0
 40
0.546
100
AcDbArc
 50
305.4808254792985
 51
0.0
  0
LINE
  5
20C
330
1F
100
AcDbEntity
  8
D-STR
  6
Continuous
 62
     7
370
    50
100
AcDbLine
 10
64.55166372
 20
219.8401143552646
 30
0.0
 11
64.55166372
 21
220.2124915752646
 31
0.0
  0
LINE
  5
20D
330
1F
100
AcDbEntity
  8
D-STR
  6
Continuous
 62
     7
370
    50
100
AcDbLine
 10
64.55166372
 20
220.2124915752646
 30
0.0
 11
64.55166372
 21
220.6007685952646
 31
0.0
  0
ARC
  5
20E
330
1F
100
AcDbEntity
  8
D-STR
  6
Continuous
 62
     7
370
    50
100
AcDbCircle
 10
63.86566372
 20
220.6007685952646
 30
0.0
 40
0.6859999999999999
100
AcDbArc
 50
0.0
 51
51.93838580533604
  0
LINE
  5
20F
330
1F
100
AcDbEntity
  8
D-STR
  6
Continuous
 62
     7
370
    50
100
AcDbLine
 10
64.28858858
 20
221.1408894752646
 30
0.0
 11
63.84309828000001
 21
221.4897167952646
 31
0.0
  0
ARC
  5
210
330
1F
100
AcDbEntity
  8
D-STR
  6
Continuous
 62
     7
370
    50
100
AcDbCircle
 10
64.23766372
 20
221.9936196552646
 30
0.0
 40
0.64
100
AcDbArc
 50
180.0
 51
231.9383858053373
  0
LINE
  5
211
330
1F
100
AcDbEntity
  8
D-STR
  6
Continuous
 62
     7
370
    50
100
AcDbLine
 10
63.59766372
 20
222.4024915752646
 30
0.0
 11
63.59766372
 21
221.9936196552646
 31
0.0
  0
LINE
  5
212
330
1F
100
AcDbEntity
  8
D-STR
  6
Continuous
 62
     7
370
    50
100
AcDbLine
 10
63.59766372
 20
222.4024915752646
 30
0.0
 11
63.59766372
 21
222.8113634952646
 31
0.0
  0
ARC
  5
213
330
1F
100
AcDbEntity
  8
D-STR
  6
Continuous
 62
     7
370
    50
100
AcDbCircle
 10
64.23766372
 20
222.8113634952646
 30
0.0
 40
0.64
100
AcDbArc
 50
128.0616141946617
 51
180.0
  0
LINE
  5
214
330
1F
100
AcDbEntity
  8
D-STR
  6
Continuous
 62
     7
370
    50
100
AcDbLine
 10
63.84309828000001
 20
223.3152663752646
 30
0.0
 11
64.28858858
 21
223.6640936752646
 31
0.0
  0
ARC
  5
215
330
1F
100
AcDbEntity
  8
D-STR
  6
Continuous
 62
     7
370
    50
100
AcDbCircle
 10
63.86566372
 20
224.2042145752646
 30
0.0
 40
0.6859999999999999
100
AcDbArc
 50
308.061614194663
 51
0.0
  0
LINE
  5
216
330
1F
100
AcDbEntity
  8
D-STR
  6
Continuous
 62
     7
370
    50
100
AcDbLine
 10
64.55166372
 20
224.2042145752646
 30
0.0
 11
64.55166372
 21
224.2124915752646
 31
0.0
  0
LINE
  5
217
330
1F
100
AcDbEntity
  8
D-STR
  6
Continuous
 62
     7
370
    50
100
AcDbLine
 10
64.55166372
 20
224.2124915752646
 30
0.0
 11
64.55166372
 21
224.5924915752646
 31
0.0
  0
LINE
  5
218
330
1F
100
AcDbEntity
  8
D-STR
  6
Continuous
 62
     7
370
    50
100
AcDbLine
 10
64.55166372
 20
224.5924915752646
 30
0.0
 11
64.55166372
 21
224.9648687952646
 31
0.0
  0
ARC
  5
219
330
1F
100
AcDbEntity
  8
D-STR
  6
Continuous
 62
     7
370
    50
100
AcDbCircle
 10
64.00566372
 20
224.9648687952646
 30
0.0
 40
0.546
100
AcDbArc
 50
0.0
 51
0.8735410322232858
  0
ARC
  5
21A
330
1F
100
AcDbEntity
  8
D-STR
  6
Continuous
 62
     7
370
    50
100
AcDbCircle
 10
64.00566372
 20
224.9648687952646
 30
0.0
 40
0.546
100
AcDbArc
 50
0.8735410322232858
 51
54.51917452070148
  0
LINE
  5
21B
330
1F
100
AcDbEntity
  8
D-STR
  6
Continuous
 62
     7
370
    50
100
AcDbLine
 10
64.32257876
 20
225.4094819352646
 30
0.0
 11
63.63091526
 21
225.9024915752646
 31
0.0
  0
LINE
  5
21C
330
1F
100
AcDbEntity
  8
D-STR
  6
Continuous
 62
     7
370
    50
100
AcDbLine
 10
64.34927856
 20
225.4469401952646
 30
0.0
 11
63.71142196
 21
225.9015968952646
 31
0.0
  0
ARC
  5
21D
330
1F
100
AcDbEntity
  8
D-STR
  6
Continuous
 62
     7
370
    50
100
AcDbCircle
 10
64.00566372
 20
224.9648687952646
 30
0.0
 40
0.5920000000000001
100
AcDbArc
 50
0.8735410322235563
 51
54.51917452070116
  0
ARC
  5
21E
330
1F
100
AcDbEntity
  8
D-STR
  6
Continuous
 62
     7
370
    50
100
AcDbCircle
 10
64.00566372
 20
224.9648687952646
 30
0.0
 40
0.5920000000000001
100
AcDbArc
 50
0.0
 51
0.8735410322235563
  0
LINE
  5
21F
330
1F
100
AcDbEntity
  8
D-STR
  6
Continuous
 62
     7
370
    50
100
AcDbLine
 10
64.59766372
 20
224.9648687952646
 30
0.0
 11
64.59766372
 21
224.9224915752646
 31
0.0
  0
LINE
  5
220
330
1F
100
AcDbEntity
  8
D-STR
  6
Continuous
 62
     7
370
    50
100
AcDbLine
 10
64.59766372
 20
224.1323567752646
 30
0.0
 11
64.59766372
 21
224.9181634552646
 31
0.0
  0
ARC
  5
221
330
1F
100
AcDbEntity
  8
D-STR
  6
Continuous
 62
     7
370
    50
100
AcDbCircle
 10
63.86566372
 20
224.2042145752646
 30
0.0
 40
0.732
100
AcDbArc
 50
308.0616141946672
 51
353.8505790416314
  0
LINE
  5
222
330
1F
100
AcDbEntity
  8
D-STR
  6
Continuous
 62
     7
370
    50
100
AcDbLine
 10
64.31694796
 20
223.6278756552646
 30
0.0
 11
63.87145765999999
 21
223.2790483552646
 31
0.0
  0
ARC
  5
223
330
1F
100
AcDbEntity
  8
D-STR
  6
Continuous
 62
     7
370
    50
100
AcDbCircle
 10
64.23766372
 20
222.8113634952646
 30
0.0
 40
0.594
100
AcDbArc
 50
128.0616141946689
 51
180.0
  0
LINE
  5
224
330
1F
100
AcDbEntity
  8
D-STR
  6
Continuous
 62
     7
370
    50
100
AcDbLine
 10
63.64366372000001
 20
222.8113634952646
 30
0.0
 11
63.64366372000001
 21
221.9595183352646
 31
0.0
  0
ARC
  5
225
330
1F
100
AcDbEntity
  8
D-STR
  6
Continuous
 62
     7
370
    50
100
AcDbCircle
 10
64.23766372
 20
221.9936196552646
 30
0.0
 40
0.594
100
AcDbArc
 50
183.2911384417683
 51
231.9383858053332
  0
LINE
  5
226
330
1F
100
AcDbEntity
  8
D-STR
  6
Continuous
 62
     7
370
    50
100
AcDbLine
 10
63.87145766
 20
221.5259348152646
 30
0.0
 11
64.31694796
 21
221.1771074952646
 31
0.0
  0
ARC
  5
227
330
1F
100
AcDbEntity
  8
D-STR
  6
Continuous
 62
     7
370
    50
100
AcDbCircle
 10
63.86566372
 20
220.6007685952646
 30
0.0
 40
0.732
100
AcDbArc
 50
0.0
 51
51.93838580533448
  0
LINE
  5
228
330
1F
100
AcDbEntity
  8
D-STR
  6
Continuous
 62
     7
370
    50
100
AcDbLine
 10
64.59766372
 20
220.6007685952646
 30
0.0
 11
64.59766372
 21
219.8401143552646
 31
0.0
  0
LINE
  5
229
330
1F
100
AcDbEntity
  8
D-STR
  6
Continuous
 62
     7
370
    50
100
AcDbLine
 10
64.34927856
 20
219.3580429552646
 30
0.0
 11
63.69459714
 21
218.8913937152646
 31
0.0
  0
ARC
  5
22A
330
1F
100
AcDbEntity
  8
D-STR
  6
Continuous
 62
     7
370
    50
100
AcDbCircle
 10
64.00566372
 20
219.8401143552646
 30
0.0
 40
0.5920000000000001
100
AcDbArc
 50
305.4808254792999
 51
0.0
  0
ARC
  5
22B
330
1F
100
AcDbEntity
  8
D-STR
  6
Continuous
 62
     7
370
    50
100
AcDbCircle
 10
63.03266372
 20
232.0774915752646
 30
0.0
 40
0.24
100
AcDbArc
 50
336.6820429346593
 51
9.997941642810343
  0
LINE
  5
22C
330
1F
100
AcDbEntity
  8
D-STR
  6
Continuous
 62
     7
370
    50
100
AcDbLine
 10
63.07266372
 20
231.7924915752646
 30
0.0
 11
63.24226472
 21
231.7924915752646
 31
0.0
  0
LINE
  5
22D
330
1F
100
AcDbEntity
  8
D-STR
  6
Continuous
 62
     7
370
    50
100
AcDbLine
 10
63.07266372
 20
231.7924915752646
 30
0.0
 11
63.07266372
 21
232.1724915752646
 31
0.0
  0
LINE
  5
22E
330
1F
100
AcDbEntity
  8
D-STR
  6
Continuous
 62
     7
370
    50
100
AcDbLine
 10
63.07266372
 20
232.1724915752646
 30
0.0
 11
63.24226472
 21
232.1724915752646
 31
0.0
  0
LINE
  5
22F
330
1F
100
AcDbEntity
  8
D-STR
  6
Continuous
 62
     7
370
    50
100
AcDbLine
 10
63.27266372
 20
232.1282893752646
 30
0.0
 11
63.27266372
 21
231.8366937752646
 31
0.0
  0
LINE
  5
230
330
1F
100
AcDbEntity
  8
D-STR
  6
Continuous
 62
     7
370
    50
100
AcDbLine
 10
63.2530611
 20
231.9824915752646
 30
0.0
 11
63.24366372
 21
231.9824915752646
 31
0.0
  0
ARC
  5
231
330
1F
100
AcDbEntity
  8
D-STR
  6
Continuous
 62
     7
370
    50
100
AcDbCircle
 10
63.03266372
 20
231.8874915752646
 30
0.0
 40
0.24
100
AcDbArc
 50
350.0020583571897
 51
23.31795706532692
  0
LINE
  5
232
330
1F
100
AcDbEntity
  8
D-STR
  6
Continuous
 62
     7
370
    50
100
AcDbLine
 10
63.19766372
 20
231.9824915752646
 30
0.0
 11
63.07266372
 21
231.9824915752646
 31
0.0
  0
LINE
  5
233
330
1F
100
AcDbEntity
  8
D-STR
  6
Continuous
 62
     7
370
    50
100
AcDbLine
 10
63.40527062
 20
212.4796116152646
 30
0.0
 11
63.40527062
 21
212.6624915752646
 31
0.0
  0
LINE
  5
234
330
1F
100
AcDbEntity
  8
D-STR
  6
Continuous
 62
     7
370
    50
100
AcDbLine
 10
63.40527062
 20
212.6624915752646
 30
0.0
 11
63.84405682
 21
212.6624915752646
 31
0.0
  0
LINE
  5
235
330
1F
100
AcDbEntity
  8
D-STR
  6
Continuous
 62
     7
370
    50
100
AcDbLine
 10
63.84405682
 20
212.6624915752646
 30
0.0
 11
63.84405682
 21
212.4796116152646
 31
0.0
  0
LINE
  5
236
330
1F
100
AcDbEntity
  8
D-STR
  6
Continuous
 62
     7
370
    50
100
AcDbLine
 10
63.51496718000001
 20
212.6624915752646
 30
0.0
 11
63.51496718000001
 21
212.4796116152646
 31
0.0
  0
LINE
  5
237
330
1F
100
AcDbEntity
  8
D-STR
  6
Continuous
 62
     7
370
    50
100
AcDbLine
 10
63.73436028
 20
212.6624915752646
 30
0.0
 11
63.73436028
 21
212.4796116152646
 31
0.0
  0
ARC
  5
238
330
1F
100
AcDbEntity
  8
D-STR
  6
Continuous
 62
     7
370
    50
100
AcDbCircle
 10
63.62466372
 20
212.8224915752646
 30
0.0
 40
0.36
100
AcDbArc
 50
252.259123393962
 51
287.7408766060402
  0
ARC
  5
239
330
1F
100
AcDbEntity
  8
D-STR
  6
Continuous
 62
     7
370
    50
100
AcDbCircle
 10
63.78920856
 20
212.5589115952646
 30
0.0
 40
0.09642002
100
AcDbArc
 50
235.3301090391505
 51
304.6698909608426
  0
ARC
  5
23A
330
1F
100
AcDbEntity
  8
D-STR
  6
Continuous
 62
     7
370
    50
100
AcDbCircle
 10
63.4601189
 20
212.5589115952646
 30
0.0
 40
0.09642002
100
AcDbArc
 50
235.3301090391505
 51
304.6698909608426
  0
LINE
  5
23B
330
1F
100
AcDbEntity
  8
D-STR
  6
Continuous
 62
     7
370
    50
100
AcDbLine
 10
63.78920856
 20
212.4624915752646
 30
0.0
 11
63.4601189
 21
212.4624915752646
 31
0.0
  0
LINE
  5
23C
330
1F
100
AcDbEntity
  8
D-STR
  6
Continuous
 62
     7
370
    50
100
AcDbLine
 10
63.19766372
 20
213.2024915752646
 30
0.0
 11
63.07266372
 21
213.2024915752646
 31
0.0
  0
ARC
  5
23D
330
1F
100
AcDbEntity
  8
D-STR
  6
Continuous
 62
     7
370
    50
100
AcDbCircle
 10
63.03266372
 20
213.1074915752646
 30
0.0
 40
0.24
100
AcDbArc
 50
350.0020583571897
 51
23.31795706532692
  0
LINE
  5
23E
330
1F
100
AcDbEntity
  8
D-STR
  6
Continuous
 62
     7
370
    50
100
AcDbLine
 10
63.2530611
 20
213.2024915752646
 30
0.0
 11
63.24366372
 21
213.2024915752646
 31
0.0
  0
LINE
  5
23F
330
1F
100
AcDbEntity
  8
D-STR
  6
Continuous
 62
     7
370
    50
100
AcDbLine
 10
63.27266372
 20
213.3482893752646
 30
0.0
 11
63.27266372
 21
213.0566937752646
 31
0.0
  0
LINE
  5
240
330
1F
100
AcDbEntity
  8
D-STR
  6
Continuous
 62
     7
370
    50
100
AcDbLine
 10
63.07266372
 20
213.3924915752646
 30
0.0
 11
63.24226472
 21
213.3924915752646
 31
0.0
  0
LINE
  5
241
330
1F
100
AcDbEntity
  8
D-STR
  6
Continuous
 62
     7
370
    50
100
AcDbLine
 10
63.07266372
 20
213.0124915752646
 30
0.0
 11
63.07266372
 21
213.3924915752646
 31
0.0
  0
LINE
  5
242
330
1F
100
AcDbEntity
  8
D-STR
  6
Continuous
 62
     7
370
    50
100
AcDbLine
 10
63.07266372
 20
213.0124915752646
 30
0.0
 11
63.24226472
 21
213.0124915752646
 31
0.0
  0
ARC
  5
243
330
1F
100
AcDbEntity
  8
D-STR
  6
Continuous
 62
     7
370
    50
100
AcDbCircle
 10
63.03266372
 20
213.2974915752646
 30
0.0
 40
0.24
100
AcDbArc
 50
336.6820429346593
 51
9.997941642810343
  0
LINE
  5
244
330
1F
100
AcDbEntity
  8
D-STR
  6
Continuous
 62
     7
370
    50
100
AcDbLine
 10
63.40527062
 20
215.3796116152646
 30
0.0
 11
63.40527062
 21
215.5624915752646
 31
0.0
  0
LINE
  5
245
330
1F
100
AcDbEntity
  8
D-STR
  6
Continuous
 62
     7
370
    50
100
AcDbLine
 10
63.40527062
 20
215.5624915752646
 30
0.0
 11
63.84405682
 21
215.5624915752646
 31
0.0
  0
LINE
  5
246
330
1F
100
AcDbEntity
  8
D-STR
  6
Continuous
 62
     7
370
    50
100
AcDbLine
 10
63.84405682
 20
215.5624915752646
 30
0.0
 11
63.84405682
 21
215.3796116152646
 31
0.0
  0
LINE
  5
247
330
1F
100
AcDbEntity
  8
D-STR
  6
Continuous
 62
     7
370
    50
100
AcDbLine
 10
63.51496718000001
 20
215.5624915752646
 30
0.0
 11
63.51496718000001
 21
215.3796116152646
 31
0.0
  0
LINE
  5
248
330
1F
100
AcDbEntity
  8
D-STR
  6
Continuous
 62
     7
370
    50
100
AcDbLine
 10
63.73436028
 20
215.5624915752646
 30
0.0
 11
63.73436028
 21
215.3796116152646
 31
0.0
  0
ARC
  5
249
330
1F
100
AcDbEntity
  8
D-STR
  6
Continuous
 62
     7
370
    50
100
AcDbCircle
 10
63.62466372
 20
215.7224915752646
 30
0.0
 40
0.36
100
AcDbArc
 50
252.259123393962
 51
287.7408766060402
  0
ARC
  5
24A
330
1F
100
AcDbEntity
  8
D-STR
  6
Continuous
 62
     7
370
    50
100
AcDbCircle
 10
63.78920856
 20
215.4589115952646
 30
0.0
 40
0.09642002
100
AcDbArc
 50
235.3301090391505
 51
304.6698909608426
  0
ARC
  5
24B
330
1F
100
AcDbEntity
  8
D-STR
  6
Continuous
 62
     7
370
    50
100
AcDbCircle
 10
63.4601189
 20
215.4589115952646
 30
0.0
 40
0.09642002
100
AcDbArc
 50
235.3301090391505
 51
304.6698909608426
  0
LINE
  5
24C
330
1F
100
AcDbEntity
  8
D-STR
  6
Continuous
 62
     7
370
    50
100
AcDbLine
 10
63.78920856
 20
215.3624915752646
 30
0.0
 11
63.4601189
 21
215.3624915752646
 31
0.0
  0
LINE
  5
24D
330
1F
100
AcDbEntity
  8
D-STR
  6
Continuous
 62
     7
370
    50
100
AcDbLine
 10
63.19766372
 20
216.1024915752646
 30
0.0
 11
63.07266372
 21
216.1024915752646
 31
0.0
  0
ARC
  5
24E
330
1F
100
AcDbEntity
  8
D-STR
  6
Continuous
 62
     7
370
    50
100
AcDbCircle
 10
63.03266372
 20
216.0074915752646
 30
0.0
 40
0.24
100
AcDbArc
 50
350.0020583571897
 51
23.31795706532692
  0
LINE
  5
24F
330
1F
100
AcDbEntity
  8
D-STR
  6
Continuous
 62
     7
370
    50
100
AcDbLine
 10
63.2530611
 20
216.1024915752646
 30
0.0
 11
63.24366372
 21
216.1024915752646
 31
0.0
  0
LINE
  5
250
330
1F
100
AcDbEntity
  8
D-STR
  6
Continuous
 62
     7
370
    50
100
AcDbLine
 10
63.27266372
 20
216.2482893752646
 30
0.0
 11
63.27266372
 21
215.9566937752646
 31
0.0
  0
LINE
  5
251
330
1F
100
AcDbEntity
  8
D-STR
  6
Continuous
 62
     7
370
    50
100
AcDbLine
 10
63.07266372
 20
216.2924915752646
 30
0.0
 11
63.24226472
 21
216.2924915752646
 31
0.0
  0
LINE
  5
252
330
1F
100
AcDbEntity
  8
D-STR
  6
Continuous
 62
     7
370
    50
100
AcDbLine
 10
63.07266372
 20
215.9124915752646
 30
0.0
 11
63.07266372
 21
216.2924915752646
 31
0.0
  0
LINE
  5
253
330
1F
100
AcDbEntity
  8
D-STR
  6
Continuous
 62
     7
370
    50
100
AcDbLine
 10
63.07266372
 20
215.9124915752646
 30
0.0
 11
63.24226472
 21
215.9124915752646
 31
0.0
  0
ARC
  5
254
330
1F
100
AcDbEntity
  8
D-STR
  6
Continuous
 62
     7
370
    50
100
AcDbCircle
 10
63.03266372
 20
216.1974915752646
 30
0.0
 40
0.24
100
AcDbArc
 50
336.6820429346593
 51
9.997941642810343
  0
LINE
  5
255
330
1F
100
AcDbEntity
  8
D-STR
  6
Continuous
 62
     7
370
    50
100
AcDbLine
 10
62.93166372
 20
210.4024915752646
 30
0.0
 11
62.93166372
 21
212.9524915752646
 31
0.0
  0
LINE
  5
256
330
1F
100
AcDbEntity
  8
D-STR
  6
Continuous
 62
     7
370
    50
100
AcDbLine
 10
60.64566372
 20
232.7024915752646
 30
0.0
 11
60.64566372
 21
210.4024915752646
 31
0.0
  0
LINE
  5
257
330
1F
100
AcDbEntity
  8
D-STR
  6
USER_1
 62
     7
370
    50
100
AcDbLine
 10
62.93166372
 20
202.4024915752646
 30
0.0
 11
62.93166372
 21
210.4024915752646
 31
0.0
  0
LINE
  5
258
330
1F
100
AcDbEntity
  8
D-STR
  6
USER_1
 62
     7
370
    50
100
AcDbLine
 10
60.64566372
 20
210.4024915752646
 30
0.0
 11
60.64566372
 21
202.4024915752646
 31
0.0
  0
LINE
  5
259
330
1F
100
AcDbEntity
  8
D-STR
  6
USER_1
 62
     7
370
    50
100
AcDbLine
 10
62.93166372
 20
202.4024915752646
 30
0.0
 11
60.64566372
 21
202.4024915752646
 31
0.0
  0
LINE
  5
25A
330
1F
100
AcDbEntity
  8
D-STR
  6
Continuous
 62
     7
370
    50
100
AcDbLine
 10
27.52927586
 20
180.4024915752646
 30
0.0
 11
57.78866372
 21
180.4024915752646
 31
0.0
  0
LINE
  5
25B
330
1F
100
AcDbEntity
  8
D-STR-STR2
  6
Continuous
 62
   134
370
    13
100
AcDbLine
 10
30.48592708
 20
178.6024915752647
 30
0.0
 11
32.28592708
 21
180.4024915752646
 31
0.0
  0
LINE
  5
25C
330
1F
100
AcDbEntity
  8
D-STR-STR2
  6
Continuous
 62
   134
370
    13
100
AcDbLine
 10
31.38592708
 20
178.6024915752647
 30
0.0
 11
33.18592708
 21
180.4024915752646
 31
0.0
  0
LINE
  5
25D
330
1F
100
AcDbEntity
  8
D-STR-STR2
  6
Continuous
 62
   134
370
    13
100
AcDbLine
 10
32.28592708
 20
178.6024915752647
 30
0.0
 11
34.08592708
 21
180.4024915752646
 31
0.0
  0
LINE
  5
25E
330
1F
100
AcDbEntity
  8
D-STR-STR2
  6
Continuous
 62
   134
370
    13
100
AcDbLine
 10
34.08592708
 20
180.4024915752646
 30
0.0
 11
34.98592708
 21
179.5024915752646
 31
0.0
  0
LINE
  5
25F
330
1F
100
AcDbEntity
  8
D-STR-STR2
  6
Continuous
 62
   134
370
    13
100
AcDbLine
 10
33.63592708
 20
179.9524915752646
 30
0.0
 11
34.53592708
 21
179.0524915752646
 31
0.0
  0
LINE
  5
260
330
1F
100
AcDbEntity
  8
D-STR-STR2
  6
Continuous
 62
   134
370
    13
100
AcDbLine
 10
33.18592708
 20
179.5024915752646
 30
0.0
 11
34.08592708
 21
178.6024915752646
 31
0.0
  0
LINE
  5
261
330
1F
100
AcDbEntity
  8
D-STR-STR2
  6
Continuous
 62
   134
370
    13
100
AcDbLine
 10
34.08592708
 20
178.6024915752647
 30
0.0
 11
35.88592708
 21
180.4024915752646
 31
0.0
  0
LINE
  5
262
330
1F
100
AcDbEntity
  8
D-STR-STR2
  6
Continuous
 62
   134
370
    13
100
AcDbLine
 10
34.98592708
 20
178.6024915752647
 30
0.0
 11
36.78592708
 21
180.4024915752646
 31
0.0
  0
LINE
  5
263
330
1F
100
AcDbEntity
  8
D-STR-STR2
  6
Continuous
 62
   134
370
    13
100
AcDbLine
 10
35.88592708
 20
178.6024915752647
 30
0.0
 11
37.68592708
 21
180.4024915752646
 31
0.0
  0
LINE
  5
264
330
1F
100
AcDbEntity
  8
D-STR-STR2
  6
Continuous
 62
   134
370
    13
100
AcDbLine
 10
37.68592708
 20
180.4024915752646
 30
0.0
 11
38.58592708
 21
179.5024915752646
 31
0.0
  0
LINE
  5
265
330
1F
100
AcDbEntity
  8
D-STR-STR2
  6
Continuous
 62
   134
370
    13
100
AcDbLine
 10
37.23592708
 20
179.9524915752646
 30
0.0
 11
38.13592708
 21
179.0524915752646
 31
0.0
  0
LINE
  5
266
330
1F
100
AcDbEntity
  8
D-STR-STR2
  6
Continuous
 62
   134
370
    13
100
AcDbLine
 10
36.78592708
 20
179.5024915752646
 30
0.0
 11
37.68592708
 21
178.6024915752646
 31
0.0
  0
LINE
  5
267
330
1F
100
AcDbEntity
  8
D-STR-STR2
  6
Continuous
 62
   134
370
    13
100
AcDbLine
 10
37.68592708
 20
178.6024915752647
 30
0.0
 11
39.48592708
 21
180.4024915752646
 31
0.0
  0
LINE
  5
268
330
1F
100
AcDbEntity
  8
D-STR-STR2
  6
Continuous
 62
   134
370
    13
100
AcDbLine
 10
38.58592708
 20
178.6024915752647
 30
0.0
 11
40.38592708
 21
180.4024915752646
 31
0.0
  0
LINE
  5
269
330
1F
100
AcDbEntity
  8
D-STR-STR2
  6
Continuous
 62
   134
370
    13
100
AcDbLine
 10
39.48592708
 20
178.6024915752647
 30
0.0
 11
41.28592708
 21
180.4024915752646
 31
0.0
  0
LINE
  5
26A
330
1F
100
AcDbEntity
  8
D-STR-STR2
  6
Continuous
 62
   134
370
    13
100
AcDbLine
 10
41.28592708
 20
180.4024915752646
 30
0.0
 11
42.18592708
 21
179.5024915752646
 31
0.0
  0
LINE
  5
26B
330
1F
100
AcDbEntity
  8
D-STR-STR2
  6
Continuous
 62
   134
370
    13
100
AcDbLine
 10
40.83592708
 20
179.9524915752646
 30
0.0
 11
41.73592708
 21
179.0524915752646
 31
0.0
  0
LINE
  5
26C
330
1F
100
AcDbEntity
  8
D-STR-STR2
  6
Continuous
 62
   134
370
    13
100
AcDbLine
 10
40.38592708
 20
179.5024915752646
 30
0.0
 11
41.28592708
 21
178.6024915752646
 31
0.0
  0
LINE
  5
26D
330
1F
100
AcDbEntity
  8
D-STR-STR2
  6
Continuous
 62
   134
370
    13
100
AcDbLine
 10
41.28592708
 20
178.6024915752647
 30
0.0
 11
43.08592708
 21
180.4024915752646
 31
0.0
  0
LINE
  5
26E
330
1F
100
AcDbEntity
  8
D-STR-STR2
  6
Continuous
 62
   134
370
    13
100
AcDbLine
 10
42.18592708
 20
178.6024915752647
 30
0.0
 11
43.98592708
 21
180.4024915752646
 31
0.0
  0
LINE
  5
26F
330
1F
100
AcDbEntity
  8
D-STR-STR2
  6
Continuous
 62
   134
370
    13
100
AcDbLine
 10
43.08592708
 20
178.6024915752647
 30
0.0
 11
44.88592708
 21
180.4024915752646
 31
0.0
  0
LINE
  5
270
330
1F
100
AcDbEntity
  8
D-STR-STR2
  6
Continuous
 62
   134
370
    13
100
AcDbLine
 10
44.88592708
 20
180.4024915752646
 30
0.0
 11
46.68592708
 21
178.6024915752647
 31
0.0
  0
LINE
  5
271
330
1F
100
AcDbEntity
  8
D-STR-STR2
  6
Continuous
 62
   134
370
    13
100
AcDbLine
 10
44.43592708
 20
179.9524915752646
 30
0.0
 11
45.78592708
 21
178.6024915752646
 31
0.0
  0
LINE
  5
272
330
1F
100
AcDbEntity
  8
D-STR-STR2
  6
Continuous
 62
   134
370
    13
100
AcDbLine
 10
43.98592708
 20
179.5024915752646
 30
0.0
 11
44.88592708
 21
178.6024915752646
 31
0.0
  0
LINE
  5
273
330
1F
100
AcDbEntity
  8
D-STR-HTXT
  6
Continuous
 62
     7
370
    13
100
AcDbLine
 10
60.07680832228318
 20
225.9717785330697
 30
0.0
 11
53.45325252
 21
235.5479574352646
 31
0.0
  0
LINE
  5
274
330
1F
100
AcDbEntity
  8
D-STR-HTXT
  6
Continuous
 62
     7
370
    13
100
AcDbLine
 10
60.64566372
 20
225.1493409752646
 30
0.0
 11
60.21388124858403
 21
226.0665877660225
 31
0.0
  0
LINE
  5
275
330
1F
100
AcDbEntity
  8
D-STR-HTXT
  6
Continuous
 62
     7
370
    13
100
AcDbLine
 10
60.64566372
 20
225.1493409752646
 30
0.0
 11
59.93973539598234
 21
225.8769693001169
 31
0.0
  0
LINE
  5
276
330
1F
100
AcDbEntity
  8
D-STR-HTXT
  6
Continuous
 62
     7
370
    13
100
AcDbLine
 10
60.21388124858403
 20
226.0665877660225
 30
0.0
 11
59.93973539598234
 21
225.8769693001169
 31
0.0
  0
LINE
  5
277
330
1F
100
AcDbEntity
  8
D-STR-HTXT
  6
Continuous
 62
     7
370
    13
100
AcDbLine
 10
60.30023774286722
 20
225.8831384078709
 30
0.0
 11
60.18646666332386
 21
226.0476259194319
 31
0.0
  0
LINE
  5
278
330
1F
100
AcDbEntity
  8
D-STR-HTXT
  6
Continuous
 62
     7
370
    13
100
AcDbLine
 10
60.15905207806369
 20
226.0286640728414
 30
0.0
 11
60.38659423715041
 21
225.6996890497194
 31
0.0
  0
LINE
  5
279
330
1F
100
AcDbEntity
  8
D-STR-HTXT
  6
Continuous
 62
     7
370
    13
100
AcDbLine
 10
60.4729507314336
 20
225.5162396915678
 30
0.0
 11
60.13163749280352
 21
226.0097022262508
 31
0.0
  0
LINE
  5
27A
330
1F
100
AcDbEntity
  8
D-STR-HTXT
  6
Continuous
 62
     7
370
    13
100
AcDbLine
 10
60.10422290754335
 20
225.9907403796603
 30
0.0
 11
60.55930722571679
 21
225.3327903334162
 31
0.0
  0
LINE
  5
27B
330
1F
100
AcDbEntity
  8
D-STR-HTXT
  6
Continuous
 62
     7
370
    13
100
AcDbLine
 10
60.64566371999999
 20
225.1493409752646
 30
0.0
 11
60.07680832228318
 21
225.9717785330697
 31
0.0
  0
LINE
  5
27C
330
1F
100
AcDbEntity
  8
D-STR-HTXT
  6
Continuous
 62
     7
370
    13
100
AcDbLine
 10
60.04939373702301
 20
225.9528166864791
 30
0.0
 11
60.50447805519645
 21
225.2948666402351
 31
0.0
  0
LINE
  5
27D
330
1F
100
AcDbEntity
  8
D-STR-HTXT
  6
Continuous
 62
     7
370
    13
100
AcDbLine
 10
60.36329239039292
 20
225.4403923052055
 30
0.0
 11
60.02197915176284
 21
225.9338548398886
 31
0.0
  0
LINE
  5
27E
330
1F
100
AcDbEntity
  8
D-STR-HTXT
  6
Continuous
 62
     7
370
    13
100
AcDbLine
 10
59.99456456650267
 20
225.914892993298
 30
0.0
 11
60.2221067255894
 21
225.585917970176
 31
0.0
  0
LINE
  5
27F
330
1F
100
AcDbEntity
  8
D-STR-HTXT
  6
Continuous
 62
     7
370
    13
100
AcDbLine
 10
60.08092106078586
 20
225.7314436351464
 30
0.0
 11
59.9671499812425
 21
225.8959311467075
 31
0.0
  0
LINE
  5
280
330
1F
100
AcDbEntity
  8
D-STR-HTXT
  6
Continuous
 62
     7
370
    13
100
AcDbLine
 10
53.45325252
 20
235.5479574352646
 30
0.0
 11
27.15325252
 21
235.5479574352646
 31
0.0
  0
TEXT
  5
281
330
1F
100
AcDbEntity
  8
D-STR-HTXT
  6
Continuous
 62
     7
370
    13
100
AcDbText
 10
31.63658585333334
 20
236.5553793102646
 30
0.0
 40
2.777777777777778
  1
転落防止兼用
 41
0.8
  7
ＭＳ ゴシック
 72
     1
 11
40.30325252
 21
236.0479574352646
 31
0.0
100
AcDbText
 73
     1
  0
TEXT
  5
282
330
1F
100
AcDbEntity
  8
D-STR-HTXT
  6
Continuous
 62
     7
370
    13
100
AcDbText
 10
31.63658585333334
 20
232.0553793102646
 30
0.0
 40
2.777777777777778
  1
ガードレール
 41
0.8
  7
ＭＳ ゴシック
 72
     1
 11
40.30325252
 21
231.5479574352646
 31
0.0
100
AcDbText
 73
     1
  0
LINE
  5
283
330
1F
100
AcDbEntity
  8
D-STR
  6
Continuous
 62
     7
370
    50
100
AcDbLine
 10
75.18866372000001
 20
210.4022372152646
 30
0.0
 11
115.78866372
 21
211.2142372152646
 31
0.0
  0
LINE
  5
284
330
1F
100
AcDbEntity
  8
D-STR
  6
Continuous
 62
     7
370
    50
100
AcDbLine
 10
156.38866372
 20
210.4022372152646
 30
0.0
 11
115.78866372
 21
211.2142372152646
 31
0.0
  0
LINE
  5
285
330
1F
100
AcDbEntity
  8
D-STR
  6
Continuous
 62
     7
370
    50
100
AcDbLine
 10
155.08866372
 20
196.2023804552646
 30
0.0
 11
155.08866372
 21
199.2023804552646
 31
0.0
  0
LINE
  5
286
330
1F
100
AcDbEntity
  8
D-STR
  6
Continuous
 62
     7
370
    50
100
AcDbLine
 10
156.08866372
 20
199.2023804552646
 30
0.0
 11
156.08866372
 21
201.2023804552646
 31
0.0
  0
ELLIPSE
  5
287
330
1F
100
AcDbEntity
  8
D-STR-STR2
  6
Continuous
 62
   134
370
    13
100
AcDbEllipse
 10
167.37767652
 20
196.9523804552646
 30
0.0
 11
-0.1302361332502073
 21
0.7386058147591541
 31
0.0
210
0.0
220
0.0
230
1.0
 40
0.5
 41
0.0
 42
6.283185307179586
  0
ELLIPSE
  5
288
330
1F
100
AcDbEntity
  8
D-STR-STR2
  6
Continuous
 62
   134
370
    13
100
AcDbEllipse
 10
166.61031908
 20
196.9523804552646
 30
0.0
 11
-0.1302361332502073
 21
0.7386058147591541
 31
0.0
210
0.0
220
0.0
230
1.0
 40
0.5
 41
0.0
 42
6.283185307179586
  0
ELLIPSE
  5
289
330
1F
100
AcDbEntity
  8
D-STR-STR2
  6
Continuous
 62
   134
370
    13
100
AcDbEllipse
 10
165.84296166
 20
196.9523804552646
 30
0.0
 11
-0.1302361332502073
 21
0.7386058147591541
 31
0.0
210
0.0
220
0.0
230
1.0
 40
0.5
 41
0.0
 42
6.283185307179586
  0
ELLIPSE
  5
28A
330
1F
100
AcDbEntity
  8
D-STR-STR2
  6
Continuous
 62
   134
370
    13
100
AcDbEllipse
 10
165.07560422
 20
196.9523804552646
 30
0.0
 11
-0.1302361332502073
 21
0.7386058147591541
 31
0.0
210
0.0
220
0.0
230
1.0
 40
0.5
 41
0.0
 42
6.283185307179586
  0
ELLIPSE
  5
28B
330
1F
100
AcDbEntity
  8
D-STR-STR2
  6
Continuous
 62
   134
370
    13
100
AcDbEllipse
 10
167.37767652
 20
198.4523804552646
 30
0.0
 11
-0.1302361332502073
 21
0.7386058147591541
 31
0.0
210
0.0
220
0.0
230
1.0
 40
0.5
 41
0.0
 42
6.283185307179586
  0
ELLIPSE
  5
28C
330
1F
100
AcDbEntity
  8
D-STR-STR2
  6
Continuous
 62
   134
370
    13
100
AcDbEllipse
 10
166.61031908
 20
198.4523804552646
 30
0.0
 11
-0.1302361332502073
 21
0.7386058147591541
 31
0.0
210
0.0
220
0.0
230
1.0
 40
0.5
 41
0.0
 42
6.283185307179586
  0
ELLIPSE
  5
28D
330
1F
100
AcDbEntity
  8
D-STR-STR2
  6
Continuous
 62
   134
370
    13
100
AcDbEllipse
 10
165.84296166
 20
198.4523804552646
 30
0.0
 11
-0.1302361332502073
 21
0.7386058147591541
 31
0.0
210
0.0
220
0.0
230
1.0
 40
0.5
 41
0.0
 42
6.283185307179586
  0
ELLIPSE
  5
28E
330
1F
100
AcDbEntity
  8
D-STR-STR2
  6
Continuous
 62
   134
370
    13
100
AcDbEllipse
 10
165.07560422
 20
198.4523804552646
 30
0.0
 11
-0.1302361332502073
 21
0.7386058147591541
 31
0.0
210
0.0
220
0.0
230
1.0
 40
0.5
 41
0.0
 42
6.283185307179586
  0
ELLIPSE
  5
28F
330
1F
100
AcDbEntity
  8
D-STR-STR2
  6
Continuous
 62
   134
370
    13
100
AcDbEllipse
 10
157.78272066
 20
196.9523804552646
 30
0.0
 11
-0.1302361332502073
 21
0.7386058147591541
 31
0.0
210
0.0
220
0.0
230
1.0
 40
0.5
 41
0.0
 42
6.283185307179586
  0
ELLIPSE
  5
290
330
1F
100
AcDbEntity
  8
D-STR-STR2
  6
Continuous
 62
   134
370
    13
100
AcDbEllipse
 10
157.01536324
 20
196.9523804552646
 30
0.0
 11
-0.1302361332502073
 21
0.7386058147591541
 31
0.0
210
0.0
220
0.0
230
1.0
 40
0.5
 41
0.0
 42
6.283185307179586
  0
ELLIPSE
  5
291
330
1F
100
AcDbEntity
  8
D-STR-STR2
  6
Continuous
 62
   134
370
    13
100
AcDbEllipse
 10
156.2480058
 20
196.9523804552646
 30
0.0
 11
-0.1302361332502073
 21
0.7386058147591541
 31
0.0
210
0.0
220
0.0
230
1.0
 40
0.5
 41
0.0
 42
6.283185307179586
  0
ELLIPSE
  5
292
330
1F
100
AcDbEntity
  8
D-STR-STR2
  6
Continuous
 62
   134
370
    13
100
AcDbEllipse
 10
157.78272066
 20
198.4523804552646
 30
0.0
 11
-0.1302361332502073
 21
0.7386058147591541
 31
0.0
210
0.0
220
0.0
230
1.0
 40
0.5
 41
0.0
 42
6.283185307179586
  0
ELLIPSE
  5
293
330
1F
100
AcDbEntity
  8
D-STR-STR2
  6
Continuous
 62
   134
370
    13
100
AcDbEllipse
 10
157.01536324
 20
198.4523804552646
 30
0.0
 11
-0.1302361332502073
 21
0.7386058147591541
 31
0.0
210
0.0
220
0.0
230
1.0
 40
0.5
 41
0.0
 42
6.283185307179586
  0
ELLIPSE
  5
294
330
1F
100
AcDbEntity
  8
D-STR-STR2
  6
Continuous
 62
   134
370
    13
100
AcDbEllipse
 10
156.2480058
 20
198.4523804552646
 30
0.0
 11
-0.1302361332502073
 21
0.7386058147591541
 31
0.0
210
0.0
220
0.0
230
1.0
 40
0.5
 41
0.0
 42
6.283185307179586
  0
ELLIPSE
  5
295
330
1F
100
AcDbEntity
  8
D-STR-STR2
  6
Continuous
 62
   134
370
    13
100
AcDbEllipse
 10
155.48064838
 20
196.9523804552646
 30
0.0
 11
-0.1302361332502073
 21
0.7386058147591541
 31
0.0
210
0.0
220
0.0
230
1.0
 40
0.5
 41
0.0
 42
6.283185307179586
  0
ELLIPSE
  5
296
330
1F
100
AcDbEntity
  8
D-STR-STR2
  6
Continuous
 62
   134
370
    13
100
AcDbEllipse
 10
155.48064838
 20
198.4523804552646
 30
0.0
 11
-0.1302361332502073
 21
0.7386058147591541
 31
0.0
210
0.0
220
0.0
230
1.0
 40
0.5
 41
0.0
 42
6.283185307179586
  0
LINE
  5
297
330
1F
100
AcDbEntity
  8
D-STR
  6
Continuous
 62
     7
370
    50
100
AcDbLine
 10
155.08866372
 20
199.2023804552646
 30
0.0
 11
167.78866372
 21
199.2023804552646
 31
0.0
  0
LINE
  5
298
330
1F
100
AcDbEntity
  8
D-STR
  6
Continuous
 62
     7
370
    50
100
AcDbLine
 10
155.08866372
 20
196.2023804552646
 30
0.0
 11
167.78866372
 21
196.2023804552646
 31
0.0
  0
LINE
  5
299
330
1F
100
AcDbEntity
  8
D-STR
  6
Continuous
 62
     7
370
    50
100
AcDbLine
 10
164.88866372
 20
201.4023804552646
 30
0.0
 11
165.08866372
 21
201.4023804552646
 31
0.0
  0
LINE
  5
29A
330
1F
100
AcDbEntity
  8
D-STR
  6
Continuous
 62
     7
370
    50
100
AcDbLine
 10
165.08866372
 20
201.6023804552646
 30
0.0
 11
164.88866372
 21
201.4023804552646
 31
0.0
  0
LINE
  5
29B
330
1F
100
AcDbEntity
  8
D-STR
  6
Continuous
 62
     7
370
    50
100
AcDbLine
 10
157.28866372
 20
201.4023804552646
 30
0.0
 11
164.88866372
 21
201.4023804552646
 31
0.0
  0
LINE
  5
29C
330
1F
100
AcDbEntity
  8
D-STR
  6
Continuous
 62
     7
370
    50
100
AcDbLine
 10
164.73159358
 20
201.4023804552646
 30
0.0
 11
157.53159358
 21
201.4023804552646
 31
0.0
  0
LINE
  5
29D
330
1F
100
AcDbEntity
  8
D-STR
  6
Continuous
 62
     7
370
    50
100
AcDbLine
 10
165.08866372
 20
208.0023804552646
 30
0.0
 11
165.08866372
 21
201.6023804552646
 31
0.0
  0
LINE
  5
29E
330
1F
100
AcDbEntity
  8
D-STR
  6
Continuous
 62
     7
370
    50
100
AcDbLine
 10
157.08866372
 20
201.4023804552646
 30
0.0
 11
157.08866372
 21
201.2023804552646
 31
0.0
  0
LINE
  5
29F
330
1F
100
AcDbEntity
  8
D-STR
  6
Continuous
 62
     7
370
    50
100
AcDbLine
 10
157.28866372
 20
201.4023804552646
 30
0.0
 11
157.08866372
 21
201.4023804552646
 31
0.0
  0
LINE
  5
2A0
330
1F
100
AcDbEntity
  8
D-STR
  6
Continuous
 62
     7
370
    50
100
AcDbLine
 10
157.28866372
 20
201.4023804552646
 30
0.0
 11
157.08866372
 21
201.6023804552646
 31
0.0
  0
LINE
  5
2A1
330
1F
100
AcDbEntity
  8
D-STR
  6
Continuous
 62
     7
370
    50
100
AcDbLine
 10
157.08866372
 20
208.0023804552646
 30
0.0
 11
157.08866372
 21
201.6023804552646
 31
0.0
  0
HATCH
  5
2A2
330
1F
100
AcDbEntity
  8
D-STR-STR2
  6
Continuous
 62
   134
370
    13
100
AcDbHatch
 10
0.0
 20
0.0
 30
0.0
210
0.0
220
0.0
230
1.0
  2
SOLID
 70
     1
 71
     0
 91
        1
 92
        3
 72
     0
 73
     1
 93
        6
 10
164.88866372
 20
201.4023804552646
 10
165.08866372
 20
201.4023804552646
 10
165.08866372
 20
201.2023804552646
 10
157.08866372
 20
201.2023804552646
 10
157.08866372
 20
201.4023804552646
 10
157.28866372
 20
201.4023804552646
 97
        0
 75
     0
 76
     1
 98
        0
  0
LINE
  5
2A3
330
1F
100
AcDbEntity
  8
D-STR
  6
Continuous
 62
     7
370
    50
100
AcDbLine
 10
160.83866372
 20
208.6023804552646
 30
0.0
 11
160.96866372
 21
210.2423804552646
 31
0.0
  0
LINE
  5
2A4
330
1F
100
AcDbEntity
  8
D-STR
  6
Continuous
 62
     7
370
    50
100
AcDbLine
 10
161.33866372
 20
208.6023804552646
 30
0.0
 11
161.20866372
 21
210.2423804552646
 31
0.0
  0
ARC
  5
2A5
330
1F
100
AcDbEntity
  8
D-STR
  6
Continuous
 62
     7
370
    50
100
AcDbCircle
 10
159.08866372
 20
207.6023804552646
 30
0.0
 40
1.0
100
AcDbArc
 50
90.0
 51
180.0
  0
LINE
  5
2A6
330
1F
100
AcDbEntity
  8
D-STR
  6
Continuous
 62
     7
370
    50
100
AcDbLine
 10
158.08866372
 20
207.6023804552646
 30
0.0
 11
158.08866372
 21
204.0221843552646
 31
0.0
  0
ARC
  5
2A7
330
1F
100
AcDbEntity
  8
D-STR
  6
Continuous
 62
     7
370
    50
100
AcDbCircle
 10
163.08866372
 20
207.6023804552646
 30
0.0
 40
1.0
100
AcDbArc
 50
0.0
 51
90.0
  0
LINE
  5
2A8
330
1F
100
AcDbEntity
  8
D-STR
  6
Continuous
 62
     7
370
    50
100
AcDbLine
 10
164.08866372
 20
207.6023804552646
 30
0.0
 11
164.08866372
 21
204.0221843552646
 31
0.0
  0
LINE
  5
2A9
330
1F
100
AcDbEntity
  8
D-STR
  6
Continuous
 62
     7
370
    50
100
AcDbLine
 10
163.08866372
 20
208.6023804552646
 30
0.0
 11
159.08866372
 21
208.6023804552646
 31
0.0
  0
LINE
  5
2AA
330
1F
100
AcDbEntity
  8
D-STR
  6
Continuous
 62
     7
370
    50
100
AcDbLine
 10
165.78866372
 20
210.4024915752646
 30
0.0
 11
161.26866372
 21
210.3023804552646
 31
0.0
  0
LINE
  5
2AB
330
1F
100
AcDbEntity
  8
D-STR
  6
Continuous
 62
     7
370
    50
100
AcDbLine
 10
160.90866372
 20
210.3023804552646
 30
0.0
 11
156.38866372
 21
210.4022372152646
 31
0.0
  0
LINE
  5
2AC
330
1F
100
AcDbEntity
  8
D-STR
  6
Continuous
 62
     7
370
    50
100
AcDbLine
 10
160.98866372
 20
209.9023804552646
 30
0.0
 11
160.96866372
 21
210.2423804552646
 31
0.0
  0
LINE
  5
2AD
330
1F
100
AcDbEntity
  8
D-STR
  6
Continuous
 62
     7
370
    50
100
AcDbLine
 10
161.18866372
 20
209.9023804552646
 30
0.0
 11
161.20866372
 21
210.2423804552646
 31
0.0
  0
LINE
  5
2AE
330
1F
100
AcDbEntity
  8
D-STR
  6
Continuous
 62
     7
370
    50
100
AcDbLine
 10
161.18866372
 20
209.9023804552646
 30
0.0
 11
160.98866372
 21
209.9023804552646
 31
0.0
  0
LINE
  5
2AF
330
1F
100
AcDbEntity
  8
D-STR
  6
Continuous
 62
     7
370
    50
100
AcDbLine
 10
161.26866372
 20
210.3023804552646
 30
0.0
 11
161.20866372
 21
210.2423804552646
 31
0.0
  0
LINE
  5
2B0
330
1F
100
AcDbEntity
  8
D-STR
  6
Continuous
 62
     7
370
    50
100
AcDbLine
 10
160.90866372
 20
210.3023804552646
 30
0.0
 11
160.96866372
 21
210.2423804552646
 31
0.0
  0
LINE
  5
2B1
330
1F
100
AcDbEntity
  8
D-STR
  6
Continuous
 62
     7
370
    50
100
AcDbLine
 10
156.38866372
 20
209.0023804552646
 30
0.0
 11
157.08866372
 21
208.0023804552646
 31
0.0
  0
LINE
  5
2B2
330
1F
100
AcDbEntity
  8
D-STR
  6
Continuous
 62
     7
370
    50
100
AcDbLine
 10
156.38866372
 20
210.4022372152646
 30
0.0
 11
156.38866372
 21
209.0023804552646
 31
0.0
  0
ARC
  5
2B3
330
1F
100
AcDbEntity
  8
D-STR
  6
Continuous
 62
     7
370
    50
100
AcDbCircle
 10
159.08866372
 20
204.0221843552646
 30
0.0
 40
1.0
100
AcDbArc
 50
180.0
 51
258.6900676910885
  0
ARC
  5
2B4
330
1F
100
AcDbEntity
  8
D-STR
  6
Continuous
 62
     7
370
    50
100
AcDbCircle
 10
163.08866372
 20
204.0221843552646
 30
0.0
 40
1.0
100
AcDbArc
 50
281.3099323089115
 51
0.0
  0
LINE
  5
2B5
330
1F
100
AcDbEntity
  8
D-STR
  6
Continuous
 62
     7
370
    50
100
AcDbLine
 10
163.28477986
 20
203.0416036752646
 30
0.0
 11
161.08866372
 21
202.6023804552646
 31
0.0
  0
LINE
  5
2B6
330
1F
100
AcDbEntity
  8
D-STR
  6
Continuous
 62
     7
370
    50
100
AcDbLine
 10
161.08866372
 20
202.6023804552646
 30
0.0
 11
158.89254758
 21
203.0416036752646
 31
0.0
  0
LINE
  5
2B7
330
1F
100
AcDbEntity
  8
D-STR
  6
Continuous
 62
     7
370
    50
100
AcDbLine
 10
167.78866372
 20
210.4024915752646
 30
0.0
 11
167.78866372
 21
196.2023804552646
 31
0.0
  0
LINE
  5
2B8
330
1F
100
AcDbEntity
  8
D-STR
  6
Continuous
 62
     7
370
    50
100
AcDbLine
 10
167.78866372
 20
210.4024915752646
 30
0.0
 11
165.78866372
 21
210.4024915752646
 31
0.0
  0
LINE
  5
2B9
330
1F
100
AcDbEntity
  8
D-STR
  6
Continuous
 62
     7
370
    50
100
AcDbLine
 10
165.78866372
 20
209.0023804552646
 30
0.0
 11
165.08866372
 21
208.0023804552646
 31
0.0
  0
LINE
  5
2BA
330
1F
100
AcDbEntity
  8
D-STR
  6
Continuous
 62
     7
370
    50
100
AcDbLine
 10
165.78866372
 20
209.0023804552646
 30
0.0
 11
165.78866372
 21
210.4024915752646
 31
0.0
  0
LINE
  5
2BB
330
1F
100
AcDbEntity
  8
D-STR
  6
Continuous
 62
     7
370
    50
100
AcDbLine
 10
165.08866372
 20
201.4023804552646
 30
0.0
 11
165.08866372
 21
201.2023804552646
 31
0.0
  0
LINE
  5
2BC
330
1F
100
AcDbEntity
  8
D-STR
  6
Continuous
 62
     7
370
    50
100
AcDbLine
 10
156.08866372
 20
201.2023804552646
 30
0.0
 11
165.08866372
 21
201.2023804552646
 31
0.0
  0
DIMENSION
  5
2BD
330
1F
100
AcDbEntity
  8
D-STR-DIM
  6
Continuous
 62
     5
370
    13
100
AcDbDimension
  2
*D1
 10
42.78866372
 20
180.4024915752646
 30
0.0
 11
40.53866372
 21
195.4024915752646
 31
0.0
 70
   160
  1
1.0m以上
 71
     5
 42
30.0
 53
90.0
  3
Standard
100
AcDbAlignedDimension
 13
57.78866372
 23
210.4024915752646
 33
0.0
 14
57.78866372
 24
180.4024915752646
 34
0.0
 50
270.0
100
AcDbRotatedDimension
1001
ACAD
1000
DSTYLE
1002
{
1070
   271
1070
     2
1070
   178
1070
     5
1070
   177
1070
     5
1070
   176
1070
     5
1070
   289
1070
     3
1070
    77
1070
     1
1070
   174
1070
     1
1070
   172
1070
     1
1070
    73
1070
     1
1070
    74
1070
     0
1070
   173
1070
     1
1070
   279
1070
     2
1070
    44
1040
1.0
1070
    42
1040
1.0
1070
   147
1040
0.0
1070
   140
1040
2.777777777777778
1070
    41
1040
1.0
1070
   340
1005
4D
1002
}
  0
TEXT
  5
2CB
330
1F
100
AcDbEntity
  8
D-TTL-TXT
  6
Continuous
 62
     7
370
    13
100
AcDbText
 10
21.40466321
 20
121.5783400047512
 30
0.0
 40
3.968253968253968
  1
別図２１  横断防止柵・転落防止柵の標準横断図
 41
0.8
  7
ＭＳ ゴシック
 11
21.40466321
 21
120.8534516118941
 31
0.0
100
AcDbText
 73
     1
  0
LINE
  5
2CC
330
1F
100
AcDbEntity
  8
D-BMK
  6
dashed dotted
 62
     5
370
    13
100
AcDbLine
 10
106.89673915
 20
90.81853452668523
 30
0.0
 11
106.89673915
 21
74.89465922668523
 31
0.0
  0
LINE
  5
2CD
330
1F
100
AcDbEntity
  8
D-STR
  6
Continuous
 62
     7
370
    50
100
AcDbLine
 10
136.89673915
 20
82.25659687668522
 30
0.0
 11
106.89673915
 21
82.85659687668522
 31
0.0
  0
LINE
  5
2CE
330
1F
100
AcDbEntity
  8
D-STR
  6
Continuous
 62
     7
370
    50
100
AcDbLine
 10
141.89673915
 20
81.95659687668523
 30
0.0
 11
136.89673915
 21
82.25659687668522
 31
0.0
  0
LINE
  5
2CF
330
1F
100
AcDbEntity
  8
D-STR
  6
Continuous
 62
     7
370
    50
100
AcDbLine
 10
141.84673915
 20
81.45659687668523
 30
0.0
 11
144.14673915
 21
81.45659687668523
 31
0.0
  0
LINE
  5
2D0
330
1F
100
AcDbEntity
  8
D-STR
  6
Continuous
 62
     7
370
    50
100
AcDbLine
 10
141.84673915
 20
81.35659687668523
 30
0.0
 11
144.14673915
 21
81.35659687668523
 31
0.0
  0
LINE
  5
2D1
330
1F
100
AcDbEntity
  8
D-STR
  6
Continuous
 62
     7
370
    50
100
AcDbLine
 10
141.84673915
 20
81.45659687668523
 30
0.0
 11
141.84673915
 21
81.35659687668523
 31
0.0
  0
LINE
  5
2D2
330
1F
100
AcDbEntity
  8
D-STR
  6
Continuous
 62
     7
370
    50
100
AcDbLine
 10
144.14673915
 20
81.45659687668523
 30
0.0
 11
144.14673915
 21
81.35659687668523
 31
0.0
  0
LINE
  5
2D3
330
1F
100
AcDbEntity
  8
D-STR
  6
Continuous
 62
     7
370
    50
100
AcDbLine
 10
141.84673915
 20
81.45659687668523
 30
0.0
 11
142.06972426
 21
83.68644798668522
 31
0.0
  0
ARC
  5
2D4
330
1F
100
AcDbEntity
  8
D-STR
  6
Continuous
 62
     7
370
    50
100
AcDbCircle
 10
142.36823542
 20
83.65659687668523
 30
0.0
 40
0.3
100
AcDbArc
 50
90.0
 51
174.2894068624664
  0
LINE
  5
2D5
330
1F
100
AcDbEntity
  8
D-STR
  6
Continuous
 62
     7
370
    50
100
AcDbLine
 10
142.36823542
 20
83.95659687668523
 30
0.0
 11
143.62524288
 21
83.95659687668523
 31
0.0
  0
LINE
  5
2D6
330
1F
100
AcDbEntity
  8
D-STR
  6
Continuous
 62
     7
370
    50
100
AcDbLine
 10
144.14673915
 20
81.45659687668523
 30
0.0
 11
143.92375404
 21
83.68644798668522
 31
0.0
  0
ARC
  5
2D7
330
1F
100
AcDbEntity
  8
D-STR
  6
Continuous
 62
     7
370
    50
100
AcDbCircle
 10
143.62524288
 20
83.65659687668523
 30
0.0
 40
0.3
100
AcDbArc
 50
5.710593137517466
 51
90.0
  0
POLYLINE
  5
2D8
330
1F
100
AcDbEntity
  8
D-STR-STRB
  6
Continuous
 62
   132
370
    25
100
AcDb3dPolyline
 66
     1
 10
0.0
 20
0.0
 30
0.0
 70
     8
  0
VERTEX
  5
2D9
330
2D8
100
AcDbEntity
  8
D-STR-STRB
  6
Continuous
 62
   132
100
AcDbVertex
100
AcDb3dPolylineVertex
 10
142.3967367
 20
77.00659701668522
 30
0.0
 70
    32
  0
VERTEX
  5
2DA
330
2D8
100
AcDbEntity
  8
D-STR-STRB
  6
Continuous
 62
   132
100
AcDbVertex
100
AcDb3dPolylineVertex
 10
136.89673853
 20
77.00659701668522
 30
0.0
 70
    32
  0
VERTEX
  5
2DB
330
2D8
100
AcDbEntity
  8
D-STR-STRB
  6
Continuous
 62
   132
100
AcDbVertex
100
AcDb3dPolylineVertex
 10
136.89673853
 20
77.20659701668522
 30
0.0
 70
    32
  0
VERTEX
  5
2DC
330
2D8
100
AcDbEntity
  8
D-STR-STRB
  6
Continuous
 62
   132
100
AcDbVertex
100
AcDb3dPolylineVertex
 10
142.3967367
 20
77.20659701668522
 30
0.0
 70
    32
  0
VERTEX
  5
2DD
330
2D8
100
AcDbEntity
  8
D-STR-STRB
  6
Continuous
 62
   132
100
AcDbVertex
100
AcDb3dPolylineVertex
 10
142.3967367
 20
77.00659701668522
 30
0.0
 70
    32
  0
SEQEND
  5
2DE
330
2D8
100
AcDbEntity
  8
D-STR-STRB
  6
Continuous
 62
   132
370
    25
  0
POLYLINE
  5
2DF
330
1F
100
AcDbEntity
  8
D-STR-STRB
  6
Continuous
 62
   132
370
    25
100
AcDb3dPolyline
 66
     1
 10
0.0
 20
0.0
 30
0.0
 70
     8
  0
VERTEX
  5
2E0
330
2DF
100
AcDbEntity
  8
D-STR-STRB
  6
Continuous
 62
   132
100
AcDbVertex
100
AcDb3dPolylineVertex
 10
142.8967367
 20
74.50659701668522
 30
0.0
 70
    32
  0
VERTEX
  5
2E1
330
2DF
100
AcDbEntity
  8
D-STR-STRB
  6
Continuous
 62
   132
100
AcDbVertex
100
AcDb3dPolylineVertex
 10
136.39673792
 20
74.50659701668522
 30
0.0
 70
    32
  0
VERTEX
  5
2E2
330
2DF
100
AcDbEntity
  8
D-STR-STRB
  6
Continuous
 62
   132
100
AcDbVertex
100
AcDb3dPolylineVertex
 10
136.39673792
 20
76.00659701668522
 30
0.0
 70
    32
  0
VERTEX
  5
2E3
330
2DF
100
AcDbEntity
  8
D-STR-STRB
  6
Continuous
 62
   132
100
AcDbVertex
100
AcDb3dPolylineVertex
 10
142.8967367
 20
76.00659701668522
 30
0.0
 70
    32
  0
VERTEX
  5
2E4
330
2DF
100
AcDbEntity
  8
D-STR-STRB
  6
Continuous
 62
   132
100
AcDbVertex
100
AcDb3dPolylineVertex
 10
142.8967367
 20
74.50659701668522
 30
0.0
 70
    32
  0
SEQEND
  5
2E5
330
2DF
100
AcDbEntity
  8
D-STR-STRB
  6
Continuous
 62
   132
370
    25
  0
POLYLINE
  5
2E6
330
1F
100
AcDbEntity
  8
D-STR-STRB
  6
Continuous
 62
   132
370
    25
100
AcDb3dPolyline
 66
     1
 10
0.0
 20
0.0
 30
0.0
 70
     8
  0
VERTEX
  5
2E7
330
2E6
100
AcDbEntity
  8
D-STR-STRB
  6
Continuous
 62
   132
100
AcDbVertex
100
AcDb3dPolylineVertex
 10
142.8967367
 20
76.00659701668522
 30
0.0
 70
    32
  0
VERTEX
  5
2E8
330
2E6
100
AcDbEntity
  8
D-STR-STRB
  6
Continuous
 62
   132
100
AcDbVertex
100
AcDb3dPolylineVertex
 10
136.39673792
 20
76.00659701668522
 30
0.0
 70
    32
  0
VERTEX
  5
2E9
330
2E6
100
AcDbEntity
  8
D-STR-STRB
  6
Continuous
 62
   132
100
AcDbVertex
100
AcDb3dPolylineVertex
 10
136.39673792
 20
77.00659701668522
 30
0.0
 70
    32
  0
VERTEX
  5
2EA
330
2E6
100
AcDbEntity
  8
D-STR-STRB
  6
Continuous
 62
   132
100
AcDbVertex
100
AcDb3dPolylineVertex
 10
142.8967367
 20
77.00659701668522
 30
0.0
 70
    32
  0
VERTEX
  5
2EB
330
2E6
100
AcDbEntity
  8
D-STR-STRB
  6
Continuous
 62
   132
100
AcDbVertex
100
AcDb3dPolylineVertex
 10
142.8967367
 20
76.00659701668522
 30
0.0
 70
    32
  0
SEQEND
  5
2EC
330
2E6
100
AcDbEntity
  8
D-STR-STRB
  6
Continuous
 62
   132
370
    25
  0
ARC
  5
2ED
330
1F
100
AcDbEntity
  8
D-STR-STRB
  6
Continuous
 62
   132
370
    25
100
AcDbCircle
 10
138.64674159
 20
80.50664340668523
 30
0.0
 40
0.5
100
AcDbArc
 50
89.99999700040615
 51
180.0
  0
ARC
  5
2EE
330
1F
100
AcDbEntity
  8
D-STR-STRB
  6
Continuous
 62
   132
370
    25
100
AcDbCircle
 10
140.64674159
 20
80.50664340668523
 30
0.0
 40
0.5
100
AcDbArc
 50
359.9999949998627
 51
89.99999700040615
  0
LINE
  5
2EF
330
1F
100
AcDbEntity
  8
D-STR-STRB
  6
Continuous
 62
   132
370
    25
100
AcDbLine
 10
140.64673915
 20
81.00659701668522
 30
0.0
 11
138.64674159
 21
81.00659701668522
 31
0.0
  0
ARC
  5
2F0
330
1F
100
AcDbEntity
  8
D-STR-STRB
  6
Continuous
 62
   132
370
    25
100
AcDbCircle
 10
138.64674159
 20
78.71650179668522
 30
0.0
 40
0.5
100
AcDbArc
 50
180.0
 51
258.6899979999262
  0
LINE
  5
2F1
330
1F
100
AcDbEntity
  8
D-STR-STRB
  6
Continuous
 62
   132
370
    25
100
AcDbLine
 10
136.89673915
 20
77.30659701668522
 30
0.0
 11
136.99673915
 21
77.20659701668522
 31
0.0
  0
ARC
  5
2F2
330
1F
100
AcDbEntity
  8
D-STR-STRB
  6
Continuous
 62
   132
370
    25
100
AcDbCircle
 10
140.64674159
 20
78.71650179668522
 30
0.0
 40
0.5
100
AcDbArc
 50
281.3099730010112
 51
359.9999949998627
  0
LINE
  5
2F3
330
1F
100
AcDbEntity
  8
D-STR-STRB
  6
Continuous
 62
   132
370
    25
100
AcDbLine
 10
140.74480067
 20
78.22621127668522
 30
0.0
 11
139.64673915
 21
78.00659945668522
 31
0.0
  0
LINE
  5
2F4
330
1F
100
AcDbEntity
  8
D-STR-STRB
  6
Continuous
 62
   132
370
    25
100
AcDbLine
 10
139.64674159
 20
78.00659945668522
 30
0.0
 11
138.54868251
 21
78.22621127668522
 31
0.0
  0
LINE
  5
2F5
330
1F
100
AcDbEntity
  8
D-STR-STRB
  6
Continuous
 62
   132
370
    25
100
AcDbLine
 10
142.3967367
 20
77.30659945668522
 30
0.0
 11
142.2967367
 21
77.20659945668523
 31
0.0
  0
LINE
  5
2F6
330
1F
100
AcDbEntity
  8
D-STR-STRB
  6
Continuous
 62
   132
370
    25
100
AcDbLine
 10
142.2967367
 20
77.20659701668522
 30
0.0
 11
136.99673915
 21
77.20659701668522
 31
0.0
  0
LINE
  5
2F7
330
1F
100
AcDbEntity
  8
D-STR-STRB
  6
Continuous
 62
   132
370
    25
100
AcDbLine
 10
142.3967367
 20
81.35659701668521
 30
0.0
 11
142.3967367
 21
77.30659945668522
 31
0.0
  0
LINE
  5
2F8
330
1F
100
AcDbEntity
  8
D-STR-STRB
  6
Continuous
 62
   132
370
    25
100
AcDbLine
 10
141.14674159
 20
80.50664340668523
 30
0.0
 11
141.14674159
 21
78.71650179668522
 31
0.0
  0
LINE
  5
2F9
330
1F
100
AcDbEntity
  8
D-STR-STRB
  6
Continuous
 62
   132
370
    25
100
AcDbLine
 10
138.14674159
 20
80.50664340668523
 30
0.0
 11
138.14674159
 21
78.71650179668522
 31
0.0
  0
LINE
  5
2FA
330
1F
100
AcDbEntity
  8
D-STR-STRB
  6
Continuous
 62
   132
370
    25
100
AcDbLine
 10
136.89673915
 20
82.25659687668522
 30
0.0
 11
136.89673915
 21
77.30659701668522
 31
0.0
  0
LINE
  5
2FB
330
1F
100
AcDbEntity
  8
D-STR-STRB
  6
Continuous
 62
   132
370
    25
100
AcDbLine
 10
142.39299524
 20
80.35285311668522
 30
0.0
 11
145.59673915
 21
80.35285311668522
 31
0.0
  0
LINE
  5
2FC
330
1F
100
AcDbEntity
  8
D-STR-STRB
  6
Continuous
 62
   132
370
    25
100
AcDbLine
 10
142.42298934
 20
78.85285311668522
 30
0.0
 11
145.59673915
 21
78.85285311668522
 31
0.0
  0
LINE
  5
2FD
330
1F
100
AcDbEntity
  8
D-STR-STRB
  6
Continuous
 62
   132
370
    25
100
AcDbLine
 10
144.04673646
 20
82.45659701668522
 30
0.0
 11
145.04673646
 21
82.45659701668522
 31
0.0
  0
LINE
  5
2FE
330
1F
100
AcDbEntity
  8
D-STR
  6
Continuous
 62
     7
370
    50
100
AcDbLine
 10
145.59673915
 20
82.45659687668523
 30
0.0
 11
144.04673915
 21
82.45659687668523
 31
0.0
  0
LINE
  5
2FF
330
1F
100
AcDbEntity
  8
D-STR-STRB
  6
Continuous
 62
   132
370
    25
100
AcDbLine
 10
145.59673915
 20
78.85285311668522
 30
0.0
 11
145.59673915
 21
82.45659687668523
 31
0.0
  0
LINE
  5
300
330
1F
100
AcDbEntity
  8
D-STR
  6
Continuous
 62
     7
370
    50
100
AcDbLine
 10
76.89673915
 20
82.25659687668522
 30
0.0
 11
106.89673915
 21
82.85659687668522
 31
0.0
  0
LINE
  5
301
330
1F
100
AcDbEntity
  8
D-STR
  6
Continuous
 62
     7
370
    50
100
AcDbLine
 10
71.89673915
 20
81.95659687668523
 30
0.0
 11
76.89673915
 21
82.25659687668522
 31
0.0
  0
LINE
  5
302
330
1F
100
AcDbEntity
  8
D-STR
  6
Continuous
 62
     7
370
    50
100
AcDbLine
 10
71.94673915
 20
81.45659687668523
 30
0.0
 11
69.64673915
 21
81.45659687668523
 31
0.0
  0
LINE
  5
303
330
1F
100
AcDbEntity
  8
D-STR
  6
Continuous
 62
     7
370
    50
100
AcDbLine
 10
71.94673915
 20
81.35659687668523
 30
0.0
 11
69.64673915
 21
81.35659687668523
 31
0.0
  0
LINE
  5
304
330
1F
100
AcDbEntity
  8
D-STR
  6
Continuous
 62
     7
370
    50
100
AcDbLine
 10
71.94673915
 20
81.45659687668523
 30
0.0
 11
71.94673915
 21
81.35659687668523
 31
0.0
  0
LINE
  5
305
330
1F
100
AcDbEntity
  8
D-STR
  6
Continuous
 62
     7
370
    50
100
AcDbLine
 10
69.64673915
 20
81.45659687668523
 30
0.0
 11
69.64673915
 21
81.35659687668523
 31
0.0
  0
LINE
  5
306
330
1F
100
AcDbEntity
  8
D-STR
  6
Continuous
 62
     7
370
    50
100
AcDbLine
 10
71.94673915
 20
81.45659687668523
 30
0.0
 11
71.72375404
 21
83.68644798668522
 31
0.0
  0
ARC
  5
307
330
1F
100
AcDbEntity
  8
D-STR
  6
Continuous
 62
     7
370
    50
100
AcDbCircle
 10
71.42524288
 20
83.65659687668523
 30
0.0
 40
0.3
100
AcDbArc
 50
5.710593137533939
 51
90.0
  0
LINE
  5
308
330
1F
100
AcDbEntity
  8
D-STR
  6
Continuous
 62
     7
370
    50
100
AcDbLine
 10
71.42524288
 20
83.95659687668523
 30
0.0
 11
70.16823542
 21
83.95659687668523
 31
0.0
  0
LINE
  5
309
330
1F
100
AcDbEntity
  8
D-STR
  6
Continuous
 62
     7
370
    50
100
AcDbLine
 10
69.64673915
 20
81.45659687668523
 30
0.0
 11
69.86972426
 21
83.68644798668522
 31
0.0
  0
ARC
  5
30A
330
1F
100
AcDbEntity
  8
D-STR
  6
Continuous
 62
     7
370
    50
100
AcDbCircle
 10
70.16823542
 20
83.65659687668523
 30
0.0
 40
0.3
100
AcDbArc
 50
90.0
 51
174.2894068624798
  0
POLYLINE
  5
30B
330
1F
100
AcDbEntity
  8
D-STR-STRB
  6
Continuous
 62
   132
370
    25
100
AcDb3dPolyline
 66
     1
 10
0.0
 20
0.0
 30
0.0
 70
     8
  0
VERTEX
  5
30C
330
30B
100
AcDbEntity
  8
D-STR-STRB
  6
Continuous
 62
   132
100
AcDbVertex
100
AcDb3dPolylineVertex
 10
71.3967416
 20
77.00659701668522
 30
0.0
 70
    32
  0
VERTEX
  5
30D
330
30B
100
AcDbEntity
  8
D-STR-STRB
  6
Continuous
 62
   132
100
AcDbVertex
100
AcDb3dPolylineVertex
 10
76.89673977000001
 20
77.00659701668522
 30
0.0
 70
    32
  0
VERTEX
  5
30E
330
30B
100
AcDbEntity
  8
D-STR-STRB
  6
Continuous
 62
   132
100
AcDbVertex
100
AcDb3dPolylineVertex
 10
76.89673977000001
 20
77.20659701668522
 30
0.0
 70
    32
  0
VERTEX
  5
30F
330
30B
100
AcDbEntity
  8
D-STR-STRB
  6
Continuous
 62
   132
100
AcDbVertex
100
AcDb3dPolylineVertex
 10
71.3967416
 20
77.20659701668522
 30
0.0
 70
    32
  0
VERTEX
  5
310
330
30B
100
AcDbEntity
  8
D-STR-STRB
  6
Continuous
 62
   132
100
AcDbVertex
100
AcDb3dPolylineVertex
 10
71.3967416
 20
77.00659701668522
 30
0.0
 70
    32
  0
SEQEND
  5
311
330
30B
100
AcDbEntity
  8
D-STR-STRB
  6
Continuous
 62
   132
370
    25
  0
POLYLINE
  5
312
330
1F
100
AcDbEntity
  8
D-STR-STRB
  6
Continuous
 62
   132
370
    25
100
AcDb3dPolyline
 66
     1
 10
0.0
 20
0.0
 30
0.0
 70
     8
  0
VERTEX
  5
313
330
312
100
AcDbEntity
  8
D-STR-STRB
  6
Continuous
 62
   132
100
AcDbVertex
100
AcDb3dPolylineVertex
 10
70.8967416
 20
74.50659701668522
 30
0.0
 70
    32
  0
VERTEX
  5
314
330
312
100
AcDbEntity
  8
D-STR-STRB
  6
Continuous
 62
   132
100
AcDbVertex
100
AcDb3dPolylineVertex
 10
77.39674038
 20
74.50659701668522
 30
0.0
 70
    32
  0
VERTEX
  5
315
330
312
100
AcDbEntity
  8
D-STR-STRB
  6
Continuous
 62
   132
100
AcDbVertex
100
AcDb3dPolylineVertex
 10
77.39674038
 20
76.00659701668522
 30
0.0
 70
    32
  0
VERTEX
  5
316
330
312
100
AcDbEntity
  8
D-STR-STRB
  6
Continuous
 62
   132
100
AcDbVertex
100
AcDb3dPolylineVertex
 10
70.8967416
 20
76.00659701668522
 30
0.0
 70
    32
  0
VERTEX
  5
317
330
312
100
AcDbEntity
  8
D-STR-STRB
  6
Continuous
 62
   132
100
AcDbVertex
100
AcDb3dPolylineVertex
 10
70.8967416
 20
74.50659701668522
 30
0.0
 70
    32
  0
SEQEND
  5
318
330
312
100
AcDbEntity
  8
D-STR-STRB
  6
Continuous
 62
   132
370
    25
  0
POLYLINE
  5
319
330
1F
100
AcDbEntity
  8
D-STR-STRB
  6
Continuous
 62
   132
370
    25
100
AcDb3dPolyline
 66
     1
 10
0.0
 20
0.0
 30
0.0
 70
     8
  0
VERTEX
  5
31A
330
319
100
AcDbEntity
  8
D-STR-STRB
  6
Continuous
 62
   132
100
AcDbVertex
100
AcDb3dPolylineVertex
 10
70.8967416
 20
76.00659701668522
 30
0.0
 70
    32
  0
VERTEX
  5
31B
330
319
100
AcDbEntity
  8
D-STR-STRB
  6
Continuous
 62
   132
100
AcDbVertex
100
AcDb3dPolylineVertex
 10
77.39674038
 20
76.00659701668522
 30
0.0
 70
    32
  0
VERTEX
  5
31C
330
319
100
AcDbEntity
  8
D-STR-STRB
  6
Continuous
 62
   132
100
AcDbVertex
100
AcDb3dPolylineVertex
 10
77.39674038
 20
77.00659701668522
 30
0.0
 70
    32
  0
VERTEX
  5
31D
330
319
100
AcDbEntity
  8
D-STR-STRB
  6
Continuous
 62
   132
100
AcDbVertex
100
AcDb3dPolylineVertex
 10
70.8967416
 20
77.00659701668522
 30
0.0
 70
    32
  0
VERTEX
  5
31E
330
319
100
AcDbEntity
  8
D-STR-STRB
  6
Continuous
 62
   132
100
AcDbVertex
100
AcDb3dPolylineVertex
 10
70.8967416
 20
76.00659701668522
 30
0.0
 70
    32
  0
SEQEND
  5
31F
330
319
100
AcDbEntity
  8
D-STR-STRB
  6
Continuous
 62
   132
370
    25
  0
ARC
  5
320
330
1F
100
AcDbEntity
  8
D-STR-STRB
  6
Continuous
 62
   132
370
    25
100
AcDbCircle
 10
75.14673671
 20
80.50664340668523
 30
0.0
 40
0.5
100
AcDbArc
 50
0.0
 51
90.00000299959383
  0
ARC
  5
321
330
1F
100
AcDbEntity
  8
D-STR-STRB
  6
Continuous
 62
   132
370
    25
100
AcDbCircle
 10
73.14673671
 20
80.50664340668523
 30
0.0
 40
0.5
100
AcDbArc
 50
90.00000299959383
 51
180.0000050001373
  0
LINE
  5
322
330
1F
100
AcDbEntity
  8
D-STR-STRB
  6
Continuous
 62
   132
370
    25
100
AcDbLine
 10
73.14673915
 20
81.00659701668522
 30
0.0
 11
75.14673671
 21
81.00659701668522
 31
0.0
  0
ARC
  5
323
330
1F
100
AcDbEntity
  8
D-STR-STRB
  6
Continuous
 62
   132
370
    25
100
AcDbCircle
 10
75.14673671
 20
78.71650179668522
 30
0.0
 40
0.5
100
AcDbArc
 50
281.3100020000738
 51
0.0
  0
LINE
  5
324
330
1F
100
AcDbEntity
  8
D-STR-STRB
  6
Continuous
 62
   132
370
    25
100
AcDbLine
 10
76.89673915
 20
77.30659701668522
 30
0.0
 11
76.79673915000001
 21
77.20659701668522
 31
0.0
  0
ARC
  5
325
330
1F
100
AcDbEntity
  8
D-STR-STRB
  6
Continuous
 62
   132
370
    25
100
AcDbCircle
 10
73.14673671
 20
78.71650179668522
 30
0.0
 40
0.5
100
AcDbArc
 50
180.0000050001373
 51
258.6900269989888
  0
LINE
  5
326
330
1F
100
AcDbEntity
  8
D-STR-STRB
  6
Continuous
 62
   132
370
    25
100
AcDbLine
 10
73.04867763
 20
78.22621127668522
 30
0.0
 11
74.14673915
 21
78.00659945668522
 31
0.0
  0
LINE
  5
327
330
1F
100
AcDbEntity
  8
D-STR-STRB
  6
Continuous
 62
   132
370
    25
100
AcDbLine
 10
74.14673671
 20
78.00659945668522
 30
0.0
 11
75.24479579
 21
78.22621127668522
 31
0.0
  0
LINE
  5
328
330
1F
100
AcDbEntity
  8
D-STR-STRB
  6
Continuous
 62
   132
370
    25
100
AcDbLine
 10
71.3967416
 20
77.30659945668522
 30
0.0
 11
71.4967416
 21
77.20659945668523
 31
0.0
  0
LINE
  5
329
330
1F
100
AcDbEntity
  8
D-STR-STRB
  6
Continuous
 62
   132
370
    25
100
AcDbLine
 10
71.4967416
 20
77.20659701668522
 30
0.0
 11
76.79673915000001
 21
77.20659701668522
 31
0.0
  0
LINE
  5
32A
330
1F
100
AcDbEntity
  8
D-STR-STRB
  6
Continuous
 62
   132
370
    25
100
AcDbLine
 10
71.3967416
 20
81.35659701668521
 30
0.0
 11
71.3967416
 21
77.30659945668522
 31
0.0
  0
LINE
  5
32B
330
1F
100
AcDbEntity
  8
D-STR-STRB
  6
Continuous
 62
   132
370
    25
100
AcDbLine
 10
72.64673671
 20
80.50664340668523
 30
0.0
 11
72.64673671
 21
78.71650179668522
 31
0.0
  0
LINE
  5
32C
330
1F
100
AcDbEntity
  8
D-STR-STRB
  6
Continuous
 62
   132
370
    25
100
AcDbLine
 10
75.64673671
 20
80.50664340668523
 30
0.0
 11
75.64673671
 21
78.71650179668522
 31
0.0
  0
LINE
  5
32D
330
1F
100
AcDbEntity
  8
D-STR-STRB
  6
Continuous
 62
   132
370
    25
100
AcDbLine
 10
76.89673915
 20
82.25659687668522
 30
0.0
 11
76.89673915
 21
77.30659701668522
 31
0.0
  0
LINE
  5
32E
330
1F
100
AcDbEntity
  8
D-STR-STRB
  6
Continuous
 62
   132
370
    25
100
AcDbLine
 10
71.40048306
 20
80.35285311668522
 30
0.0
 11
68.19673915
 21
80.35285311668522
 31
0.0
  0
LINE
  5
32F
330
1F
100
AcDbEntity
  8
D-STR-STRB
  6
Continuous
 62
   132
370
    25
100
AcDbLine
 10
71.37048896
 20
78.85285311668522
 30
0.0
 11
68.19673915
 21
78.85285311668522
 31
0.0
  0
LINE
  5
330
330
1F
100
AcDbEntity
  8
D-STR-STRB
  6
Continuous
 62
   132
370
    25
100
AcDbLine
 10
69.74674184000001
 20
82.45659701668522
 30
0.0
 11
68.74674184000001
 21
82.45659701668522
 31
0.0
  0
LINE
  5
331
330
1F
100
AcDbEntity
  8
D-STR
  6
Continuous
 62
     7
370
    50
100
AcDbLine
 10
68.19673915
 20
82.45659687668523
 30
0.0
 11
69.74673915
 21
82.45659687668523
 31
0.0
  0
LINE
  5
332
330
1F
100
AcDbEntity
  8
D-STR-STRB
  6
Continuous
 62
   132
370
    25
100
AcDbLine
 10
68.19673915
 20
78.85285311668522
 30
0.0
 11
68.19673915
 21
82.45659687668523
 31
0.0
  0
LINE
  5
333
330
1F
100
AcDbEntity
  8
D-STR
  6
Continuous
 62
     7
370
    50
100
AcDbLine
 10
48.39673915
 20
82.65459687668522
 30
0.0
 11
68.19673915
 21
82.45659687668523
 31
0.0
  0
LINE
  5
334
330
1F
100
AcDbEntity
  8
D-STR
  6
Continuous
 62
     7
370
    50
100
AcDbLine
 10
46.89673915
 20
82.65459687668522
 30
0.0
 11
48.39673915
 21
82.65459687668522
 31
0.0
  0
LINE
  5
335
330
1F
100
AcDbEntity
  8
D-STR
  6
Continuous
 62
     7
370
    50
100
AcDbLine
 10
46.89673915
 20
81.15459687668522
 30
0.0
 11
48.39673915
 21
81.15459687668522
 31
0.0
  0
LINE
  5
336
330
1F
100
AcDbEntity
  8
D-STR
  6
Continuous
 62
     7
370
    50
100
AcDbLine
 10
48.39673915
 20
81.05459687668522
 30
0.0
 11
48.39673915
 21
82.65459687668522
 31
0.0
  0
LINE
  5
337
330
1F
100
AcDbEntity
  8
D-STR
  6
Continuous
 62
     7
370
    50
100
AcDbLine
 10
46.89673915
 20
81.05459687668522
 30
0.0
 11
48.89673915
 21
81.05459687668522
 31
0.0
  0
LINE
  5
338
330
1F
100
AcDbEntity
  8
D-STR
  6
Continuous
 62
     7
370
    50
100
AcDbLine
 10
48.89673915
 20
80.05459687668522
 30
0.0
 11
48.89673915
 21
81.05459687668522
 31
0.0
  0
LINE
  5
339
330
1F
100
AcDbEntity
  8
D-STR
  6
Continuous
 62
     7
370
    50
100
AcDbLine
 10
46.89673915
 20
80.05459687668522
 30
0.0
 11
49.39673915
 21
80.05459687668522
 31
0.0
  0
LINE
  5
33A
330
1F
100
AcDbEntity
  8
D-STR
  6
Continuous
 62
     7
370
    50
100
AcDbLine
 10
49.39673915
 20
79.05459687668522
 30
0.0
 11
49.39673915
 21
80.05459687668522
 31
0.0
  0
LINE
  5
33B
330
1F
100
AcDbEntity
  8
D-STR
  6
Continuous
 62
     7
370
    50
100
AcDbLine
 10
46.89673915
 20
79.05459687668522
 30
0.0
 11
49.39673915
 21
79.05459687668522
 31
0.0
  0
LINE
  5
33C
330
1F
100
AcDbEntity
  8
D-STR
  6
Continuous
 62
     7
370
    50
100
AcDbLine
 10
46.89673915
 20
79.05459687668522
 30
0.0
 11
46.89673915
 21
82.65459687668522
 31
0.0
  0
LINE
  5
33D
330
1F
100
AcDbEntity
  8
D-BMK
  6
dashed dotted
 62
     5
370
    13
100
AcDbLine
 10
146.16823915
 20
77.65659687668523
 30
0.0
 11
146.16823915
 21
90.75659687668522
 31
0.0
  0
LINE
  5
33E
330
1F
100
AcDbEntity
  8
D-STR
  6
Continuous
 62
     7
370
    50
100
AcDbLine
 10
145.59673915
 20
77.65659687668523
 30
0.0
 11
145.59673915
 21
90.75659687668522
 31
0.0
  0
LINE
  5
33F
330
1F
100
AcDbEntity
  8
D-STR
  6
Continuous
 62
     7
370
    50
100
AcDbLine
 10
145.59673915
 20
90.75659687668522
 30
0.0
 11
146.73973915
 21
90.75659687668522
 31
0.0
  0
LINE
  5
340
330
1F
100
AcDbEntity
  8
D-STR
  6
Continuous
 62
     7
370
    50
100
AcDbLine
 10
146.73973915
 20
77.65659687668523
 30
0.0
 11
146.73973915
 21
90.75659687668522
 31
0.0
  0
LINE
  5
341
330
1F
100
AcDbEntity
  8
D-STR
  6
Continuous
 62
     7
370
    50
100
AcDbLine
 10
145.59673915
 20
77.65659687668523
 30
0.0
 11
146.73973915
 21
77.65659687668523
 31
0.0
  0
LINE
  5
342
330
1F
100
AcDbEntity
  8
D-BMK
  6
dashed dotted
 62
     5
370
    13
100
AcDbLine
 10
145.84372335
 20
90.24309687668521
 30
0.0
 11
146.51492595
 21
90.24309687668521
 31
0.0
  0
LINE
  5
343
330
1F
100
AcDbEntity
  8
D-BMK
  6
dashed dotted
 62
     5
370
    13
100
AcDbLine
 10
145.84372335
 20
86.74309687668521
 30
0.0
 11
146.48636414
 21
86.74309687668521
 31
0.0
  0
CIRCLE
  5
344
330
1F
100
AcDbEntity
  8
D-STR
  6
Continuous
 62
     7
370
    50
100
AcDbCircle
 10
146.16823915
 20
90.24309687668521
 30
0.0
 40
0.2135
  0
CIRCLE
  5
345
330
1F
100
AcDbEntity
  8
D-STR
  6
Continuous
 62
     7
370
    50
100
AcDbCircle
 10
146.16823915
 20
86.74309687668521
 30
0.0
 40
0.2135
  0
LINE
  5
346
330
1F
100
AcDbEntity
  8
D-STR
  6
Continuous
 62
     7
370
    50
100
AcDbLine
 10
165.69923915
 20
79.22864687668522
 30
0.0
 11
165.69923915
 21
82.85864687668521
 31
0.0
  0
LINE
  5
347
330
1F
100
AcDbEntity
  8
D-STR
  6
Continuous
 62
     7
370
    50
100
AcDbLine
 10
168.69923915
 20
70.59792571668521
 30
0.0
 11
168.69923915
 21
82.85864687668521
 31
0.0
  0
LINE
  5
348
330
1F
100
AcDbEntity
  8
D-STR
  6
Continuous
 62
     7
370
    50
100
AcDbLine
 10
165.69923915
 20
82.85864687668523
 30
0.0
 11
168.69923915
 21
82.85864687668523
 31
0.0
  0
LINE
  5
349
330
1F
100
AcDbEntity
  8
D-BMK
  6
dashed dotted
 62
     5
370
    13
100
AcDbLine
 10
167.19923915
 20
80.85864687668523
 30
0.0
 11
167.19923915
 21
93.85864687668523
 31
0.0
  0
LINE
  5
34A
330
1F
100
AcDbEntity
  8
D-STR
  6
Continuous
 62
     7
370
    50
100
AcDbLine
 10
166.89673915
 20
80.85864687668523
 30
0.0
 11
167.50173915
 21
80.85864687668523
 31
0.0
  0
LINE
  5
34B
330
1F
100
AcDbEntity
  8
D-BMK
  6
dashed dotted
 62
     5
370
    13
100
AcDbLine
 10
166.89673915
 20
93.64514687668522
 30
0.0
 11
167.50173915
 21
93.64514687668522
 31
0.0
  0
CIRCLE
  5
34C
330
1F
100
AcDbEntity
  8
D-STR
  6
Continuous
 62
     7
370
    50
100
AcDbCircle
 10
167.19923915
 20
93.64514687668522
 30
0.0
 40
0.2135
  0
LINE
  5
34D
330
1F
100
AcDbEntity
  8
D-STR
  6
Continuous
 62
     7
370
    50
100
AcDbLine
 10
166.89673915
 20
80.85864687668523
 30
0.0
 11
166.89673915
 21
93.95864687668522
 31
0.0
  0
LINE
  5
34E
330
1F
100
AcDbEntity
  8
D-STR
  6
Continuous
 62
     7
370
    50
100
AcDbLine
 10
166.89673915
 20
93.95864687668522
 30
0.0
 11
167.50173915
 21
93.95864687668522
 31
0.0
  0
LINE
  5
34F
330
1F
100
AcDbEntity
  8
D-STR
  6
Continuous
 62
     7
370
    50
100
AcDbLine
 10
167.50173915
 20
80.85864687668523
 30
0.0
 11
167.50173915
 21
93.95864687668522
 31
0.0
  0
LINE
  5
350
330
1F
100
AcDbEntity
  8
D-BMK
  6
dashed dotted
 62
     5
370
    13
100
AcDbLine
 10
166.89673915
 20
90.94514687668521
 30
0.0
 11
167.50173915
 21
90.94514687668521
 31
0.0
  0
LINE
  5
351
330
1F
100
AcDbEntity
  8
D-BMK
  6
dashed dotted
 62
     5
370
    13
100
AcDbLine
 10
166.89673915
 20
88.24514687668523
 30
0.0
 11
167.50173915
 21
88.24514687668523
 31
0.0
  0
LINE
  5
352
330
1F
100
AcDbEntity
  8
D-BMK
  6
dashed dotted
 62
     5
370
    13
100
AcDbLine
 10
166.89673915
 20
85.54514687668522
 30
0.0
 11
167.50173915
 21
85.54514687668522
 31
0.0
  0
CIRCLE
  5
353
330
1F
100
AcDbEntity
  8
D-STR
  6
Continuous
 62
     7
370
    50
100
AcDbCircle
 10
167.19923915
 20
90.94514687668521
 30
0.0
 40
0.2135
  0
CIRCLE
  5
354
330
1F
100
AcDbEntity
  8
D-STR
  6
Continuous
 62
     7
370
    50
100
AcDbCircle
 10
167.19923915
 20
88.24514687668523
 30
0.0
 40
0.2135
  0
CIRCLE
  5
355
330
1F
100
AcDbEntity
  8
D-STR
  6
Continuous
 62
     7
370
    50
100
AcDbCircle
 10
167.19923915
 20
85.54514687668522
 30
0.0
 40
0.2135
  0
LINE
  5
356
330
1F
100
AcDbEntity
  8
D-STR-HTXT
  6
Continuous
 62
     7
370
    13
100
AcDbLine
 10
68.87999877906593
 20
89.03061821934547
 30
0.0
 11
72.41860397
 21
92.81220101668522
 31
0.0
  0
LINE
  5
357
330
1F
100
AcDbEntity
  8
D-STR-HTXT
  6
Continuous
 62
     7
370
    13
100
AcDbLine
 10
68.19673915
 20
88.30044270668523
 30
0.0
 11
69.00169469784262
 21
88.91674161450115
 31
0.0
  0
LINE
  5
358
330
1F
100
AcDbEntity
  8
D-STR-HTXT
  6
Continuous
 62
     7
370
    13
100
AcDbLine
 10
68.19673915
 20
88.30044270668523
 30
0.0
 11
68.75830286028922
 21
89.14449482418978
 31
0.0
  0
LINE
  5
359
330
1F
100
AcDbEntity
  8
D-STR-HTXT
  6
Continuous
 62
     7
370
    13
100
AcDbLine
 10
69.00169469784262
 20
88.91674161450115
 30
0.0
 11
68.75830286028922
 21
89.14449482418978
 31
0.0
  0
LINE
  5
35A
330
1F
100
AcDbEntity
  8
D-STR-HTXT
  6
Continuous
 62
     7
370
    13
100
AcDbLine
 10
68.8407035882741
 20
88.79348183293796
 30
0.0
 11
68.97735551408728
 21
88.93951693547001
 31
0.0
  0
LINE
  5
35B
330
1F
100
AcDbEntity
  8
D-STR-HTXT
  6
Continuous
 62
     7
370
    13
100
AcDbLine
 10
68.95301633033193
 20
88.96229225643887
 30
0.0
 11
68.67971247870557
 21
88.67022205137478
 31
0.0
  0
LINE
  5
35C
330
1F
100
AcDbEntity
  8
D-STR-HTXT
  6
Continuous
 62
     7
370
    13
100
AcDbLine
 10
68.51872136913705
 20
88.5469622698116
 30
0.0
 11
68.9286771465766
 21
88.98506757740775
 31
0.0
  0
LINE
  5
35D
330
1F
100
AcDbEntity
  8
D-STR-HTXT
  6
Continuous
 62
     7
370
    13
100
AcDbLine
 10
68.90433796282126
 20
89.00784289837661
 30
0.0
 11
68.35773025956853
 21
88.42370248824841
 31
0.0
  0
LINE
  5
35E
330
1F
100
AcDbEntity
  8
D-STR-HTXT
  6
Continuous
 62
     7
370
    13
100
AcDbLine
 10
68.19673915
 20
88.30044270668523
 30
0.0
 11
68.87999877906591
 21
89.03061821934547
 31
0.0
  0
LINE
  5
35F
330
1F
100
AcDbEntity
  8
D-STR-HTXT
  6
Continuous
 62
     7
370
    13
100
AcDbLine
 10
68.85565959531057
 20
89.05339354031433
 30
0.0
 11
68.30905189205784
 21
88.46925313018613
 31
0.0
  0
LINE
  5
360
330
1F
100
AcDbEntity
  8
D-STR-HTXT
  6
Continuous
 62
     7
370
    13
100
AcDbLine
 10
68.42136463411569
 20
88.63806355368705
 30
0.0
 11
68.83132041155524
 21
89.0761688612832
 31
0.0
  0
LINE
  5
361
330
1F
100
AcDbEntity
  8
D-STR-HTXT
  6
Continuous
 62
     7
370
    13
100
AcDbLine
 10
68.8069812277999
 20
89.09894418225205
 30
0.0
 11
68.53367737617353
 21
88.80687397718796
 31
0.0
  0
LINE
  5
362
330
1F
100
AcDbEntity
  8
D-STR-HTXT
  6
Continuous
 62
     7
370
    13
100
AcDbLine
 10
68.64599011823137
 20
88.97568440068888
 30
0.0
 11
68.78264204404455
 21
89.12171950322093
 31
0.0
  0
LINE
  5
363
330
1F
100
AcDbEntity
  8
D-STR-HTXT
  6
Continuous
 62
     7
370
    13
100
AcDbLine
 10
72.41860397
 20
92.81220101668522
 30
0.0
 11
98.71860397
 21
92.81220101668522
 31
0.0
  0
TEXT
  5
364
330
1F
100
AcDbEntity
  8
D-STR-HTXT
  6
Continuous
 62
     7
370
    13
100
AcDbText
 10
76.90193730333334
 20
93.81962289168523
 30
0.0
 40
2.777777777777778
  1
横断防止柵等
 41
0.8
  7
ＭＳ ゴシック
 72
     1
 11
85.56860397000001
 21
93.31220101668522
 31
0.0
100
AcDbText
 73
     1
  0
LINE
  5
365
330
1F
100
AcDbEntity
  8
D-BMK
  6
dashed dotted
 62
     5
370
    13
100
AcDbLine
 10
67.62523915
 20
77.65659687668523
 30
0.0
 11
67.62523915
 21
90.75659687668522
 31
0.0
  0
LINE
  5
366
330
1F
100
AcDbEntity
  8
D-STR
  6
Continuous
 62
     7
370
    50
100
AcDbLine
 10
68.19673915
 20
77.65659687668523
 30
0.0
 11
68.19673915
 21
90.75659687668522
 31
0.0
  0
LINE
  5
367
330
1F
100
AcDbEntity
  8
D-STR
  6
Continuous
 62
     7
370
    50
100
AcDbLine
 10
68.19673915
 20
90.75659687668522
 30
0.0
 11
67.05373915
 21
90.75659687668522
 31
0.0
  0
LINE
  5
368
330
1F
100
AcDbEntity
  8
D-STR
  6
Continuous
 62
     7
370
    50
100
AcDbLine
 10
67.05373915
 20
77.65659687668523
 30
0.0
 11
67.05373915
 21
90.75659687668522
 31
0.0
  0
LINE
  5
369
330
1F
100
AcDbEntity
  8
D-BMK
  6
dashed dotted
 62
     5
370
    13
100
AcDbLine
 10
67.94975496
 20
90.24309687668521
 30
0.0
 11
67.27855235000001
 21
90.24309687668521
 31
0.0
  0
LINE
  5
36A
330
1F
100
AcDbEntity
  8
D-BMK
  6
dashed dotted
 62
     5
370
    13
100
AcDbLine
 10
67.94975496
 20
86.74309687668521
 30
0.0
 11
67.30711416000001
 21
86.74309687668521
 31
0.0
  0
CIRCLE
  5
36B
330
1F
100
AcDbEntity
  8
D-STR
  6
Continuous
 62
     7
370
    50
100
AcDbCircle
 10
67.62523915
 20
90.24309687668521
 30
0.0
 40
0.2135
  0
CIRCLE
  5
36C
330
1F
100
AcDbEntity
  8
D-STR
  6
Continuous
 62
     7
370
    50
100
AcDbCircle
 10
67.62523915
 20
86.74309687668521
 30
0.0
 40
0.2135
  0
LINE
  5
36D
330
1F
100
AcDbEntity
  8
D-STR-HTXT
  6
Continuous
 62
     7
370
    13
100
AcDbLine
 10
144.9134795209462
 20
88.29511465935683
 30
0.0
 11
140.30741876
 21
93.21744964668521
 31
0.0
  0
LINE
  5
36E
330
1F
100
AcDbEntity
  8
D-STR-HTXT
  6
Continuous
 62
     7
370
    13
100
AcDbLine
 10
145.59673915
 20
87.56493914668522
 30
0.0
 11
145.0351754397248
 21
88.40899126419912
 31
0.0
  0
LINE
  5
36F
330
1F
100
AcDbEntity
  8
D-STR-HTXT
  6
Continuous
 62
     7
370
    13
100
AcDbLine
 10
145.59673915
 20
87.56493914668522
 30
0.0
 11
144.7917836021676
 21
88.18123805451452
 31
0.0
  0
LINE
  5
370
330
1F
100
AcDbEntity
  8
D-STR-HTXT
  6
Continuous
 62
     7
370
    13
100
AcDbLine
 10
145.0351754397248
 20
88.40899126419912
 30
0.0
 11
144.7917836021676
 21
88.18123805451452
 31
0.0
  0
LINE
  5
371
330
1F
100
AcDbEntity
  8
D-STR-HTXT
  6
Continuous
 62
     7
370
    13
100
AcDbLine
 10
145.1474881817798
 20
88.24018084069633
 30
0.0
 11
145.0108362559691
 21
88.38621594323065
 31
0.0
  0
LINE
  5
372
330
1F
100
AcDbEntity
  8
D-STR-HTXT
  6
Continuous
 62
     7
370
    13
100
AcDbLine
 10
144.9864970722134
 20
88.3634406222622
 30
0.0
 11
145.2598009238349
 21
88.07137041719356
 31
0.0
  0
LINE
  5
373
330
1F
100
AcDbEntity
  8
D-STR-HTXT
  6
Continuous
 62
     7
370
    13
100
AcDbLine
 10
145.3721136658899
 20
87.90255999369077
 30
0.0
 11
144.9621578884577
 21
88.34066530129374
 31
0.0
  0
LINE
  5
374
330
1F
100
AcDbEntity
  8
D-STR-HTXT
  6
Continuous
 62
     7
370
    13
100
AcDbLine
 10
144.9378187047019
 20
88.31788998032528
 30
0.0
 11
145.484426407945
 21
87.733749570188
 31
0.0
  0
LINE
  5
375
330
1F
100
AcDbEntity
  8
D-STR-HTXT
  6
Continuous
 62
     7
370
    13
100
AcDbLine
 10
145.59673915
 20
87.56493914668522
 30
0.0
 11
144.9134795209462
 21
88.29511465935681
 31
0.0
  0
LINE
  5
376
330
1F
100
AcDbEntity
  8
D-STR-HTXT
  6
Continuous
 62
     7
370
    13
100
AcDbLine
 10
144.8891403371905
 20
88.27233933838836
 30
0.0
 11
145.4357480404335
 21
87.68819892825108
 31
0.0
  0
LINE
  5
377
330
1F
100
AcDbEntity
  8
D-STR-HTXT
  6
Continuous
 62
     7
370
    13
100
AcDbLine
 10
145.274756930867
 20
87.81145870981695
 30
0.0
 11
144.8648011534348
 21
88.2495640174199
 31
0.0
  0
LINE
  5
378
330
1F
100
AcDbEntity
  8
D-STR-HTXT
  6
Continuous
 62
     7
370
    13
100
AcDbLine
 10
144.840461969679
 20
88.22678869645144
 30
0.0
 11
145.1137658213005
 21
87.9347184913828
 31
0.0
  0
LINE
  5
379
330
1F
100
AcDbEntity
  8
D-STR-HTXT
  6
Continuous
 62
     7
370
    13
100
AcDbLine
 10
144.9527747117341
 20
88.05797827294867
 30
0.0
 11
144.8161227859233
 21
88.20401337548299
 31
0.0
  0
LINE
  5
37A
330
1F
100
AcDbEntity
  8
D-STR-HTXT
  6
Continuous
 62
     7
370
    13
100
AcDbLine
 10
140.30741876
 20
93.21744964668521
 30
0.0
 11
114.00741876
 21
93.21744964668521
 31
0.0
  0
TEXT
  5
37B
330
1F
100
AcDbEntity
  8
D-STR-HTXT
  6
Continuous
 62
     7
370
    13
100
AcDbText
 10
118.4907520933333
 20
94.22487152168522
 30
0.0
 40
2.777777777777778
  1
横断防止柵等
 41
0.8
  7
ＭＳ ゴシック
 72
     1
 11
127.15741876
 21
93.71744964668521
 31
0.0
100
AcDbText
 73
     1
  0
LINE
  5
37C
330
1F
100
AcDbEntity
  8
D-STR
  6
Continuous
 62
     7
370
    50
100
AcDbLine
 10
68.19673915
 20
77.65659687668523
 30
0.0
 11
67.05373915
 21
77.65659687668523
 31
0.0
  0
TEXT
  5
37D
330
1F
100
AcDbEntity
  8
D-STR-DIM
  6
Continuous
 62
     5
370
    13
100
AcDbText
 10
50.28320907222222
 20
94.49001875168524
 30
0.0
 40
2.777777777777778
  1
2.0m以上
 41
0.8
  7
ＭＳ ゴシック
 72
     1
 11
56.06098685
 21
93.98259687668524
 31
0.0
100
AcDbText
 73
     1
  0
DIMENSION
  5
37E
330
1F
100
AcDbEntity
  8
D-STR-DIM
  6
Continuous
 62
     5
370
    13
100
AcDbDimension
  2
*D2
 10
66.89673915
 20
97.98259687668524
 30
0.0
 11
55.36098685
 21
100.2325968766852
 31
0.0
 70
   160
  1
有効幅員
 71
     5
 42
20.0
  3
Standard
100
AcDbAlignedDimension
 13
46.89673915
 23
82.65459687668522
 33
0.0
 14
66.89673915
 24
82.46959687668522
 34
0.0
100
AcDbRotatedDimension
1001
ACAD
1000
DSTYLE
1002
{
1070
   271
1070
     2
1070
   178
1070
     5
1070
   177
1070
     5
1070
   176
1070
     5
1070
   289
1070
     3
1070
    77
1070
     1
1070
   174
1070
     1
1070
   172
1070
     1
1070
    73
1070
     0
1070
    74
1070
     0
1070
   173
1070
     1
1070
   279
1070
     2
1070
    44
1040
0.9999999999999858
1070
    42
1040
1.0
1070
   147
1040
0.0
1070
   140
1040
2.777777777777778
1070
    41
1040
0.9999999999999749
1070
   340
1005
4D
1002
}
  0
TEXT
  5
38B
330
1F
100
AcDbEntity
  8
D-STR-DIM
  6
Continuous
 62
     5
370
    13
100
AcDbText
 10
65.45785026111112
 20
94.49001875168524
 30
0.0
 40
2.777777777777778
  1
 500
 41
0.8
  7
ＭＳ ゴシック
 72
     1
 11
68.34673915
 21
93.98259687668524
 31
0.0
100
AcDbText
 73
     1
  0
DIMENSION
  5
38C
330
1F
100
AcDbEntity
  8
D-STR-DIM
  6
Continuous
 62
     5
370
    13
100
AcDbDimension
  2
*D3
 10
71.89673915
 20
97.98259687668524
 30
0.0
 11
69.39673915000002
 21
100.2325968766852
 31
0.0
 70
   160
  1
施設帯
 71
     5
 42
5.0
  3
Standard
100
AcDbAlignedDimension
 13
66.89673915
 23
82.46959687668522
 33
0.0
 14
71.89673915
 24
81.95659687668523
 34
0.0
100
AcDbRotatedDimension
1001
ACAD
1000
DSTYLE
1002
{
1070
   271
1070
     2
1070
   178
1070
     5
1070
   177
1070
     5
1070
   176
1070
     5
1070
   289
1070
     3
1070
    77
1070
     1
1070
   174
1070
     1
1070
   172
1070
     1
1070
    73
1070
     0
1070
    74
1070
     0
1070
   173
1070
     1
1070
   279
1070
     2
1070
    44
1040
0.9999999999999858
1070
    42
1040
1.0
1070
   147
1040
0.0
1070
   140
1040
2.777777777777778
1070
    41
1040
0.9999999999999749
1070
   340
1005
4D
1002
}
  0
DIMENSION
  5
399
330
1F
100
AcDbEntity
  8
D-STR-DIM
  6
Continuous
 62
     5
370
    13
100
AcDbDimension
  2
*D4
 10
141.89673915
 20
97.98259687668524
 30
0.0
 11
106.89673915
 21
100.2325968766852
 31
0.0
 70
   160
  1
車道幅員
 71
     5
 42
70.0
  3
Standard
100
AcDbAlignedDimension
 13
71.89673915
 23
81.95659687668523
 33
0.0
 14
141.89673915
 24
81.95659687668523
 34
0.0
100
AcDbRotatedDimension
1001
ACAD
1000
DSTYLE
1002
{
1070
   271
1070
     2
1070
   178
1070
     5
1070
   177
1070
     5
1070
   176
1070
     5
1070
   289
1070
     3
1070
    77
1070
     1
1070
   174
1070
     1
1070
   172
1070
     1
1070
    73
1070
     0
1070
    74
1070
     0
1070
   173
1070
     1
1070
   279
1070
     2
1070
    44
1040
0.9999999999999858
1070
    42
1040
1.0
1070
   147
1040
0.0
1070
   140
1040
2.777777777777778
1070
    41
1040
0.9999999999999749
1070
   340
1005
4D
1002
}
  0
TEXT
  5
3A6
330
1F
100
AcDbEntity
  8
D-STR-DIM
  6
Continuous
 62
     5
370
    13
100
AcDbText
 10
140.4578502611111
 20
99.539375983604
 30
0.0
 40
2.777777777777778
  1
 500
 41
0.8
  7
ＭＳ ゴシック
 72
     1
 11
143.34673915
 21
99.031954108604
 31
0.0
100
AcDbText
 73
     1
  0
DIMENSION
  5
3A7
330
1F
100
AcDbEntity
  8
D-STR-DIM
  6
Continuous
 62
     5
370
    13
100
AcDbDimension
  2
*D5
 10
146.89673915
 20
103.288312877011
 30
0.0
 11
144.39673915
 21
105.538312877011
 31
0.0
 70
   160
  1
施設帯
 71
     5
 42
5.0
  3
Standard
100
AcDbAlignedDimension
 13
141.89673915
 23
87.26231287701094
 33
0.0
 14
146.89673915
 24
87.78831287701094
 34
0.0
100
AcDbRotatedDimension
1001
ACAD
1000
DSTYLE
1002
{
1070
   271
1070
     2
1070
   178
1070
     5
1070
   177
1070
     5
1070
   176
1070
     5
1070
   289
1070
     3
1070
    77
1070
     1
1070
   174
1070
     1
1070
   172
1070
     1
1070
    73
1070
     0
1070
    74
1070
     0
1070
   173
1070
     1
1070
   279
1070
     2
1070
    44
1040
1.0
1070
    42
1040
1.0
1070
   147
1040
0.0
1070
   140
1040
2.777777777777778
1070
    41
1040
0.9999999999999749
1070
   340
1005
4D
1002
}
  0
DIMENSION
  5
3B4
330
1F
100
AcDbEntity
  8
D-STR-DIM
  6
Continuous
 62
     5
370
    13
100
AcDbDimension
  2
*D6
 10
166.89673915
 20
97.98259687668524
 30
0.0
 11
156.89673915
 21
100.2325968766852
 31
0.0
 70
   160
  1
有効幅員
 71
     5
 42
20.0
  3
Standard
100
AcDbAlignedDimension
 13
146.89673915
 23
82.48259687668522
 33
0.0
 14
166.89673915
 24
93.95864687668522
 34
0.0
100
AcDbRotatedDimension
1001
ACAD
1000
DSTYLE
1002
{
1070
   271
1070
     2
1070
   178
1070
     5
1070
   177
1070
     5
1070
   176
1070
     5
1070
   289
1070
     3
1070
    77
1070
     1
1070
   174
1070
     1
1070
   172
1070
     1
1070
    73
1070
     0
1070
    74
1070
     0
1070
   173
1070
     1
1070
   279
1070
     2
1070
    44
1040
0.9999999999999858
1070
    42
1040
1.0
1070
   147
1040
0.0
1070
   140
1040
2.777777777777778
1070
    41
1040
1.0
1070
   340
1005
4D
1002
}
  0
LINE
  5
3C1
330
1F
100
AcDbEntity
  8
D-STR
  6
Continuous
 62
     7
370
    50
100
AcDbLine
 10
145.59673915
 20
82.45659687668523
 30
0.0
 11
165.69923915
 21
82.85864687668523
 31
0.0
  0
DIMENSION
  5
3C8
330
1F
100
AcDbEntity
  8
D-STR-DIM
  6
Continuous
 62
     5
370
    13
100
AcDbDimension
  2
*D8
 10
167.78866372
 20
230.4024915752646
 30
0.0
 11
116.78866372
 21
233.1524915752646
 31
0.0
 70
   160
  1
有効幅員 5.0m以上
 71
     5
 42
102.0
  3
Standard
100
AcDbAlignedDimension
 13
65.78866372
 23
210.4024915752646
 33
0.0
 14
167.78866372
 24
210.4024915752646
 34
0.0
100
AcDbRotatedDimension
1001
ACAD
1000
DSTYLE
1002
{
1070
   271
1070
     2
1070
   178
1070
     5
1070
   177
1070
     5
1070
   176
1070
     5
1070
   289
1070
     3
1070
    77
1070
     1
1070
   174
1070
     1
1070
   172
1070
     1
1070
    73
1070
     0
1070
    74
1070
     0
1070
   173
1070
     1
1070
   279
1070
     2
1070
    44
1040
1.0
1070
    42
1040
5.0
1070
   147
1040
0.0
1070
   140
1040
2.777777777777778
1070
    41
1040
1.0
1070
   340
1005
4D
1070
   344
1005
3C2
1070
   343
1005
3C2
1002
}
  0
TEXT
  5
3D5
330
1F
100
AcDbEntity
  8
D-STR-DIM
  6
Continuous
 62
     5
370
    13
100
AcDbText
 10
80.01547145508701
 20
89.23299063923544
 30
0.0
 40
2.777777777777778
  1
H=0.8m
 41
0.8
  7
ＭＳ ゴシック
 72
     1
 11
84.34880478842034
 21
88.72556876423543
 31
0.0
100
AcDbText
 73
     1
  0
TEXT
  5
3D6
330
1F
100
AcDbEntity
  8
D-STR-DIM
  6
Continuous
 62
     5
370
    13
100
AcDbText
 10
120.4561440205266
 20
89.35909932139964
 30
0.0
 40
2.777777777777778
  1
H=0.8m
 41
0.8
  7
ＭＳ ゴシック
 72
     1
 11
124.7894773538599
 21
88.85167744639963
 31
0.0
100
AcDbText
 73
     1
  0
TEXT
  5
3D7
330
1F
100
AcDbEntity
  8
D-STR-DIM
  6
Continuous
 62
     5
370
    13
100
AcDbText
 10
151.9724313922356
 20
94.15718053514348
 30
0.0
 40
2.777777777777778
  1
2.0m以上
 41
0.8
  7
ＭＳ ゴシック
 72
     1
 11
157.7502091700134
 21
93.64975866014348
 31
0.0
100
AcDbText
 73
     1
  0
LINE
  5
3D8
330
1F
100
AcDbEntity
  8
D-STR-HTXT
  6
Continuous
 62
     7
370
    13
100
AcDbLine
 10
168.8487525734569
 20
89.03061821934548
 30
0.0
 11
172.3873577643909
 21
92.81220101668522
 31
0.0
  0
LINE
  5
3D9
330
1F
100
AcDbEntity
  8
D-STR-HTXT
  6
Continuous
 62
     7
370
    13
100
AcDbLine
 10
168.1654929443909
 20
88.30044270668523
 30
0.0
 11
168.9704484922336
 21
88.91674161450116
 31
0.0
  0
LINE
  5
3DA
330
1F
100
AcDbEntity
  8
D-STR-HTXT
  6
Continuous
 62
     7
370
    13
100
AcDbLine
 10
168.1654929443909
 20
88.30044270668523
 30
0.0
 11
168.7270566546802
 21
89.14449482418982
 31
0.0
  0
LINE
  5
3DB
330
1F
100
AcDbEntity
  8
D-STR-HTXT
  6
Continuous
 62
     7
370
    13
100
AcDbLine
 10
168.9704484922336
 20
88.91674161450116
 30
0.0
 11
168.7270566546802
 21
89.14449482418982
 31
0.0
  0
LINE
  5
3DC
330
1F
100
AcDbEntity
  8
D-STR-HTXT
  6
Continuous
 62
     7
370
    13
100
AcDbLine
 10
168.8094573826651
 20
88.79348183293797
 30
0.0
 11
168.9461093084783
 21
88.93951693547002
 31
0.0
  0
LINE
  5
3DD
330
1F
100
AcDbEntity
  8
D-STR-HTXT
  6
Continuous
 62
     7
370
    13
100
AcDbLine
 10
168.9217701247229
 20
88.96229225643889
 30
0.0
 11
168.6484662730965
 21
88.67022205137478
 31
0.0
  0
LINE
  5
3DE
330
1F
100
AcDbEntity
  8
D-STR-HTXT
  6
Continuous
 62
     7
370
    13
100
AcDbLine
 10
168.487475163528
 20
88.54696226981159
 30
0.0
 11
168.8974309409676
 21
88.98506757740776
 31
0.0
  0
LINE
  5
3DF
330
1F
100
AcDbEntity
  8
D-STR-HTXT
  6
Continuous
 62
     7
370
    13
100
AcDbLine
 10
168.8730917572122
 20
89.00784289837662
 30
0.0
 11
168.3264840539595
 21
88.4237024882484
 31
0.0
  0
LINE
  5
3E0
330
1F
100
AcDbEntity
  8
D-STR-HTXT
  6
Continuous
 62
     7
370
    13
100
AcDbLine
 10
168.165492944391
 20
88.3004427066852
 30
0.0
 11
168.8487525734569
 21
89.03061821934548
 31
0.0
  0
LINE
  5
3E1
330
1F
100
AcDbEntity
  8
D-STR-HTXT
  6
Continuous
 62
     7
370
    13
100
AcDbLine
 10
168.8244133897015
 20
89.05339354031435
 30
0.0
 11
168.2778056864488
 21
88.46925313018612
 31
0.0
  0
LINE
  5
3E2
330
1F
100
AcDbEntity
  8
D-STR-HTXT
  6
Continuous
 62
     7
370
    13
100
AcDbLine
 10
168.3901184285066
 20
88.63806355368703
 30
0.0
 11
168.8000742059462
 21
89.07616886128321
 31
0.0
  0
LINE
  5
3E3
330
1F
100
AcDbEntity
  8
D-STR-HTXT
  6
Continuous
 62
     7
370
    13
100
AcDbLine
 10
168.7757350221909
 20
89.09894418225207
 30
0.0
 11
168.5024311705645
 21
88.80687397718796
 31
0.0
  0
LINE
  5
3E4
330
1F
100
AcDbEntity
  8
D-STR-HTXT
  6
Continuous
 62
     7
370
    13
100
AcDbLine
 10
168.6147439126223
 20
88.97568440068889
 30
0.0
 11
168.7513958384355
 21
89.12171950322094
 31
0.0
  0
LINE
  5
3E5
330
1F
100
AcDbEntity
  8
D-STR-HTXT
  6
Continuous
 62
     7
370
    13
100
AcDbLine
 10
172.3873577643909
 20
92.81220101668522
 30
0.0
 11
195.0
 21
92.81220101668522
 31
0.0
  0
TEXT
  5
3E6
330
1F
100
AcDbEntity
  8
D-STR-HTXT
  6
Continuous
 62
     7
370
    13
100
AcDbText
 10
173.1833333333334
 20
93.81962289168523
 30
0.0
 40
2.777777777777778
  1
転落防止柵等
 41
0.8
  7
ＭＳ ゴシック
 72
     1
 11
181.85
 21
93.31220101668522
 31
0.0
100
AcDbText
 73
     1
  0
TEXT
  5
3E7
330
1F
100
AcDbEntity
  8
D-STR-DIM
  6
Continuous
 62
     5
370
    13
100
AcDbText
 10
179.9842252494779
 20
89.23299063923544
 30
0.0
 40
2.777777777777778
  1
H=1.1m
 41
0.8
  7
ＭＳ ゴシック
 72
     1
 11
184.3175585828113
 21
88.72556876423543
 31
0.0
100
AcDbText
 73
     1
  0
TEXT
  5
3E8
330
1F
100
AcDbEntity
  8
D-STR-DIM
  6
Continuous
 62
     5
370
    13
100
AcDbText
 10
35.88474732262389
 20
228.3054581278728
 30
0.0
 40
2.777777777777778
  1
H=1.1m
 41
0.8
  7
ＭＳ ゴシック
 72
     1
 11
40.21808065595722
 21
227.7980362528728
 31
0.0
100
AcDbText
 73
     1
  0
LINE
  5
3E9
330
1F
100
AcDbEntity
  8
D-TTL
  6
Continuous
 62
     7
370
    13
100
AcDbLine
 10
168.69923915
 20
73.64906142676553
 30
0.0
 11
187.8790300089246
 21
73.64906142676553
 31
0.0
  0
LINE
  5
3EA
330
1F
100
AcDbEntity
  8
D-TTL
  6
Continuous
 62
     7
370
    13
100
AcDbLine
 10
168.69923915
 20
82.85864687668521
 30
0.0
 11
168.69923915
 21
73.64906142676553
 31
0.0
  0
DIMENSION
  5
3EB
330
1F
100
AcDbEntity
  8
D-STR-DIM
  6
Continuous
 62
     5
370
    13
100
AcDbDimension
  2
*D9
 10
181.3703285363677
 20
82.85864687668521
 30
0.0
 11
178.6203285363677
 21
78.25385415172536
 31
0.0
 70
   160
  1
1.0m以上
 71
     5
 42
9.209585449919686
 53
90.0
  3
Standard
100
AcDbAlignedDimension
 13
168.69923915
 23
73.64906142676553
 33
0.0
 14
168.69923915
 24
82.85864687668521
 34
0.0
 50
90.0
100
AcDbRotatedDimension
1001
ACAD
1000
DSTYLE
1002
{
1070
   271
1070
     2
1070
   178
1070
     5
1070
   177
1070
     5
1070
   176
1070
     5
1070
   289
1070
     3
1070
    77
1070
     1
1070
   174
1070
     1
1070
   172
1070
     1
1070
    73
1070
     1
1070
    74
1070
     0
1070
   173
1070
     1
1070
   279
1070
     2
1070
    44
1040
1.0
1070
    42
1040
5.0
1070
   147
1040
0.0
1070
   140
1040
2.777777777777778
1070
    41
1040
1.0
1070
   340
1005
4D
1070
   344
1005
3C2
1070
   343
1005
3C2
1002
}
  0
TEXT
  5
3F8
330
1F
100
AcDbEntity
  8
D-TTL-TXT
  6
Continuous
 62
     7
370
    13
100
AcDbText
 10
47.48178716543173
 20
114.0091373585117
 30
0.0
 40
3.968253968253968
  1
（第１７条第１項第３号・第４号関係)
 41
0.8
  7
ＭＳ ゴシック
 11
47.48178716543173
 21
113.2842489656545
 31
0.0
100
AcDbText
 73
     1
  0
ENDSEC
  0
SECTION
  2
OBJECTS
  0
DICTIONARY
  5
C
330
0
100
AcDbDictionary
281
     1
  3
ACAD_GROUP
350
D
  3
ACAD_LAYOUT
350
1A
  3
ACAD_MATERIAL
350
3B
  3
ACAD_MLEADERSTYLE
350
41D
  3
ACAD_MLINESTYLE
350
17
  3
ACAD_PLOTSETTINGS
350
19
  3
ACAD_PLOTSTYLENAME
350
E
  3
ACAD_SCALELIST
350
3F9
  3
ACAD_VISUALSTYLE
350
2A
  3
AcDbVariableDictionary
350
41B
  0
DICTIONARY
  5
D
102
{ACAD_REACTORS
330
C
102
}
330
C
100
AcDbDictionary
281
     1
  0
DICTIONARY
  5
1A
102
{ACAD_REACTORS
330
C
102
}
330
C
100
AcDbDictionary
281
     1
  3
Layout1
350
1E
  3
Layout2
350
26
  3
Model
350
22
  0
DICTIONARY
  5
3B
102
{ACAD_REACTORS
330
C
102
}
330
C
100
AcDbDictionary
281
     1
  3
ByBlock
350
3D
  3
ByLayer
350
3C
  3
Global
350
3E
  0
DICTIONARY
  5
41D
102
{ACAD_REACTORS
330
C
102
}
330
C
100
AcDbDictionary
281
     1
  0
DICTIONARY
  5
17
102
{ACAD_REACTORS
330
C
102
}
330
C
100
AcDbDictionary
281
     1
  3
Standard
350
18
  0
DICTIONARY
  5
19
102
{ACAD_REACTORS
330
C
102
}
330
C
100
AcDbDictionary
281
     1
  0
ACDBDICTIONARYWDFLT
  5
E
102
{ACAD_REACTORS
330
C
102
}
330
C
100
AcDbDictionary
281
     1
  3
Normal
350
F
100
AcDbDictionaryWithDefault
340
F
  0
DICTIONARY
  5
3F9
102
{ACAD_REACTORS
330
C
102
}
330
C
100
AcDbDictionary
281
     1
  3
A0
350
3FA
  3
A1
350
3FB
  3
A2
350
3FC
  3
A3
350
3FD
  3
A4
350
3FE
  3
A5
350
3FF
  3
A6
350
400
  3
A7
350
401
  3
A8
350
402
  3
A9
350
403
  3
B0
350
404
  3
B1
350
405
  3
B2
350
406
  3
B3
350
407
  3
B4
350
408
  3
B5
350
409
  3
B6
350
40A
  3
B7
350
40B
  3
B8
350
40C
  3
B9
350
40D
  3
C0
350
40E
  3
C1
350
40F
  3
C2
350
410
  3
C3
350
411
  3
C4
350
412
  3
C5
350
413
  3
C6
350
414
  3
C7
350
415
  3
C8
350
416
  3
C9
350
417
  3
D0
350
418
  3
D1
350
419
  3
D2
350
41A
  0
DICTIONARY
  5
2A
102
{ACAD_REACTORS
330
C
102
}
330
C
100
AcDbDictionary
281
     1
  3
2dWireframe
350
2F
  3
3D Hidden
350
31
  3
3dWireframe
350
30
  3
Basic
350
32
  3
Brighten
350
36
  3
ColorChange
350
3A
  3
Conceptual
350
34
  3
Dim
350
35
  3
Facepattern
350
39
  3
Flat
350
2B
  3
FlatWithEdges
350
2C
  3
Gouraud
350
2D
  3
GouraudWithEdges
350
2E
  3
Linepattern
350
38
  3
Realistic
350
33
  3
Thicken
350
37
  0
DICTIONARY
  5
41B
102
{ACAD_REACTORS
330
C
102
}
330
C
100
AcDbDictionary
281
     1
  3
CANNOSCALE
350
41E
  3
DIMASSOC
350
41F
  3
HIDETEXT
350
420
  0
LAYOUT
  5
1E
102
{ACAD_REACTORS
330
1A
102
}
330
1A
100
AcDbPlotSettings
  1

  2
none_device
  4

  6

 40
0.0
 41
0.0
 42
0.0
 43
0.0
 44
0.0
 45
0.0
 46
0.0
 47
0.0
 48
0.0
 49
0.0
140
0.0
141
0.0
142
1.0
143
1.0
 70
   688
 72
     0
 73
     0
 74
     5
  7

 75
    16
147
1.0
148
0.0
149
0.0
100
AcDbLayout
  1
Layout1
 70
     1
 71
     1
 10
0.0
 20
0.0
 11
12.0
 21
9.0
 12
0.0
 22
0.0
 32
0.0
 14
1.000000000000000E+20
 24
1.000000000000000E+20
 34
1.000000000000000E+20
 15
-1.000000000000000E+20
 25
-1.000000000000000E+20
 35
-1.000000000000000E+20
146
0.0
 13
0.0
 23
0.0
 33
0.0
 16
1.0
 26
0.0
 36
0.0
 17
0.0
 27
1.0
 37
0.0
 76
     0
330
1B
  0
LAYOUT
  5
26
102
{ACAD_REACTORS
330
1A
102
}
330
1A
100
AcDbPlotSettings
  1

  2
none_device
  4

  6

 40
0.0
 41
0.0
 42
0.0
 43
0.0
 44
0.0
 45
0.0
 46
0.0
 47
0.0
 48
0.0
 49
0.0
140
0.0
141
0.0
142
1.0
143
1.0
 70
   688
 72
     0
 73
     0
 74
     5
  7

 75
    16
147
1.0
148
0.0
149
0.0
100
AcDbLayout
  1
Layout2
 70
     1
 71
     2
 10
0.0
 20
0.0
 11
0.0
 21
0.0
 12
0.0
 22
0.0
 32
0.0
 14
0.0
 24
0.0
 34
0.0
 15
0.0
 25
0.0
 35
0.0
146
0.0
 13
0.0
 23
0.0
 33
0.0
 16
1.0
 26
0.0
 36
0.0
 17
0.0
 27
1.0
 37
0.0
 76
     0
330
23
  0
LAYOUT
  5
22
102
{ACAD_REACTORS
330
1A
102
}
330
1A
100
AcDbPlotSettings
  1

  2
none_device
  4

  6

 40
0.0
 41
0.0
 42
0.0
 43
0.0
 44
0.0
 45
0.0
 46
0.0
 47
0.0
 48
0.0
 49
0.0
140
0.0
141
0.0
142
1.0
143
1.0
 70
  1712
 72
     0
 73
     0
 74
     0
  7

 75
     0
147
1.0
148
0.0
149
0.0
100
AcDbLayout
  1
Model
 70
     1
 71
     0
 10
21.40466321
 20
70.59792571668521
 11
195.0
 21
259.0350806534261
 12
0.0
 22
0.0
 32
0.0
 14
21.40466321
 24
70.59792571668521
 34
0.0
 15
195.0
 25
259.0350806534261
 35
0.0
146
0.0
 13
0.0
 23
0.0
 33
0.0
 16
1.0
 26
0.0
 36
0.0
 17
0.0
 27
1.0
 37
0.0
 76
     0
330
1F
331
29
  0
MATERIAL
  5
3D
102
{ACAD_REACTORS
330
3B
102
}
102
{ACAD_XDICTIONARY
360
443
102
}
330
3B
100
AcDbMaterial
  1
ByBlock
  0
MATERIAL
  5
3C
102
{ACAD_REACTORS
330
3B
102
}
102
{ACAD_XDICTIONARY
360
441
102
}
330
3B
100
AcDbMaterial
  1
ByLayer
  0
MATERIAL
  5
3E
102
{ACAD_REACTORS
330
3B
102
}
102
{ACAD_XDICTIONARY
360
445
102
}
330
3B
100
AcDbMaterial
  1
Global
  0
MLINESTYLE
  5
18
102
{ACAD_REACTORS
330
17
102
}
330
17
100
AcDbMlineStyle
  2
Standard
 70
     0
  3

 62
   256
 51
90.0
 52
90.0
 71
     2
 49
0.5
 62
   256
  6
BYLAYER
 49
-0.5
 62
   256
  6
BYLAYER
  0
ACDBPLACEHOLDER
  5
F
102
{ACAD_REACTORS
330
E
102
}
330
E
  0
SCALE
  5
3FA
102
{ACAD_REACTORS
330
3F9
102
}
330
3F9
100
AcDbScale
 70
     0
300
1:1
140
1.0
141
1.0
290
     1
  0
SCALE
  5
3FB
102
{ACAD_REACTORS
330
3F9
102
}
330
3F9
100
AcDbScale
 70
     0
300
1:2
140
1.0
141
2.0
290
     0
  0
SCALE
  5
3FC
102
{ACAD_REACTORS
330
3F9
102
}
330
3F9
100
AcDbScale
 70
     0
300
1:4
140
1.0
141
4.0
290
     0
  0
SCALE
  5
3FD
102
{ACAD_REACTORS
330
3F9
102
}
330
3F9
100
AcDbScale
 70
     0
300
1:5
140
1.0
141
5.0
290
     0
  0
SCALE
  5
3FE
102
{ACAD_REACTORS
330
3F9
102
}
330
3F9
100
AcDbScale
 70
     0
300
1:8
140
1.0
141
8.0
290
     0
  0
SCALE
  5
3FF
102
{ACAD_REACTORS
330
3F9
102
}
330
3F9
100
AcDbScale
 70
     0
300
1:10
140
1.0
141
10.0
290
     0
  0
SCALE
  5
400
102
{ACAD_REACTORS
330
3F9
102
}
330
3F9
100
AcDbScale
 70
     0
300
1:16
140
1.0
141
16.0
290
     0
  0
SCALE
  5
401
102
{ACAD_REACTORS
330
3F9
102
}
330
3F9
100
AcDbScale
 70
     0
300
1:20
140
1.0
141
20.0
290
     0
  0
SCALE
  5
402
102
{ACAD_REACTORS
330
3F9
102
}
330
3F9
100
AcDbScale
 70
     0
300
1:30
140
1.0
141
30.0
290
     0
  0
SCALE
  5
403
102
{ACAD_REACTORS
330
3F9
102
}
330
3F9
100
AcDbScale
 70
     0
300
1:40
140
1.0
141
40.0
290
     0
  0
SCALE
  5
404
102
{ACAD_REACTORS
330
3F9
102
}
330
3F9
100
AcDbScale
 70
     0
300
1:50
140
1.0
141
50.0
290
     0
  0
SCALE
  5
405
102
{ACAD_REACTORS
330
3F9
102
}
330
3F9
100
AcDbScale
 70
     0
300
1:100
140
1.0
141
100.0
290
     0
  0
SCALE
  5
406
102
{ACAD_REACTORS
330
3F9
102
}
330
3F9
100
AcDbScale
 70
     0
300
2:1
140
2.0
141
1.0
290
     0
  0
SCALE
  5
407
102
{ACAD_REACTORS
330
3F9
102
}
330
3F9
100
AcDbScale
 70
     0
300
4:1
140
4.0
141
1.0
290
     0
  0
SCALE
  5
408
102
{ACAD_REACTORS
330
3F9
102
}
330
3F9
100
AcDbScale
 70
     0
300
8:1
140
8.0
141
1.0
290
     0
  0
SCALE
  5
409
102
{ACAD_REACTORS
330
3F9
102
}
330
3F9
100
AcDbScale
 70
     0
300
10:1
140
10.0
141
1.0
290
     0
  0
SCALE
  5
40A
102
{ACAD_REACTORS
330
3F9
102
}
330
3F9
100
AcDbScale
 70
     0
300
100:1
140
100.0
141
1.0
290
     0
  0
SCALE
  5
40B
102
{ACAD_REACTORS
330
3F9
102
}
330
3F9
100
AcDbScale
 70
     0
300
1/128" = 1'-0"
140
0.0078125
141
12.0
290
     0
  0
SCALE
  5
40C
102
{ACAD_REACTORS
330
3F9
102
}
330
3F9
100
AcDbScale
 70
     0
300
1/64" = 1'-0"
140
0.015625
141
12.0
290
     0
  0
SCALE
  5
40D
102
{ACAD_REACTORS
330
3F9
102
}
330
3F9
100
AcDbScale
 70
     0
300
1/32" = 1'-0"
140
0.03125
141
12.0
290
     0
  0
SCALE
  5
40E
102
{ACAD_REACTORS
330
3F9
102
}
330
3F9
100
AcDbScale
 70
     0
300
1/16" = 1'-0"
140
0.0625
141
12.0
290
     0
  0
SCALE
  5
40F
102
{ACAD_REACTORS
330
3F9
102
}
330
3F9
100
AcDbScale
 70
     0
300
3/32" = 1'-0"
140
0.09375
141
12.0
290
     0
  0
SCALE
  5
410
102
{ACAD_REACTORS
330
3F9
102
}
330
3F9
100
AcDbScale
 70
     0
300
1/8" = 1'-0"
140
0.125
141
12.0
290
     0
  0
SCALE
  5
411
102
{ACAD_REACTORS
330
3F9
102
}
330
3F9
100
AcDbScale
 70
     0
300
3/16" = 1'-0"
140
0.1875
141
12.0
290
     0
  0
SCALE
  5
412
102
{ACAD_REACTORS
330
3F9
102
}
330
3F9
100
AcDbScale
 70
     0
300
1/4" = 1'-0"
140
0.25
141
12.0
290
     0
  0
SCALE
  5
413
102
{ACAD_REACTORS
330
3F9
102
}
330
3F9
100
AcDbScale
 70
     0
300
3/8" = 1'-0"
140
0.375
141
12.0
290
     0
  0
SCALE
  5
414
102
{ACAD_REACTORS
330
3F9
102
}
330
3F9
100
AcDbScale
 70
     0
300
1/2" = 1'-0"
140
0.5
141
12.0
290
     0
  0
SCALE
  5
415
102
{ACAD_REACTORS
330
3F9
102
}
330
3F9
100
AcDbScale
 70
     0
300
3/4" = 1'-0"
140
0.75
141
12.0
290
     0
  0
SCALE
  5
416
102
{ACAD_REACTORS
330
3F9
102
}
330
3F9
100
AcDbScale
 70
     0
300
1" = 1'-0"
140
1.0
141
12.0
290
     0
  0
SCALE
  5
417
102
{ACAD_REACTORS
330
3F9
102
}
330
3F9
100
AcDbScale
 70
     0
300
1-1/2" = 1'-0"
140
1.5
141
12.0
290
     0
  0
SCALE
  5
418
102
{ACAD_REACTORS
330
3F9
102
}
330
3F9
100
AcDbScale
 70
     0
300
3" = 1'-0"
140
3.0
141
12.0
290
     0
  0
SCALE
  5
419
102
{ACAD_REACTORS
330
3F9
102
}
330
3F9
100
AcDbScale
 70
     0
300
6" = 1'-0"
140
6.0
141
12.0
290
     0
  0
SCALE
  5
41A
102
{ACAD_REACTORS
330
3F9
102
}
330
3F9
100
AcDbScale
 70
     0
300
1'-0" = 1'-0"
140
12.0
141
12.0
290
     0
  0
VISUALSTYLE
  5
2F
102
{ACAD_REACTORS
330
2A
102
}
102
{ACAD_XDICTIONARY
360
429
102
}
330
2A
100
AcDbVisualStyle
  2
2dWireframe
 70
     4
 71
     0
 72
     2
 73
     0
 90
        0
 40
-0.6
 41
-30.0
 62
     5
 63
     7
 74
     1
 91
        4
 64
     7
 65
   257
 75
     1
175
     1
 42
1.0
 92
        0
 66
   257
 43
1.0
 76
     1
 77
     6
 78
     2
 67
     7
 79
     5
170
     0
171
     0
290
     0
174
     0
 93
        1
 44
0.0
173
     0
291
     0
 45
0.0
1001
ACAD
1000
AcDbSavedByObjectVersion
1070
     0
  0
VISUALSTYLE
  5
31
102
{ACAD_REACTORS
330
2A
102
}
102
{ACAD_XDICTIONARY
360
42D
102
}
330
2A
100
AcDbVisualStyle
  2
3D Hidden
 70
     6
 71
     1
 72
     2
 73
     2
 90
        0
 40
-0.6
 41
-30.0
 62
     5
 63
     7
 74
     2
 91
        2
 64
     7
 65
   257
 75
     2
175
     1
 42
40.0
 92
        0
 66
   257
 43
1.0
 76
     1
 77
     6
 78
     2
 67
     7
 79
     3
170
     0
171
     0
290
     0
174
     0
 93
        1
 44
0.0
173
     0
291
     0
 45
0.0
1001
ACAD
1000
AcDbSavedByObjectVersion
1070
     0
  0
VISUALSTYLE
  5
30
102
{ACAD_REACTORS
330
2A
102
}
102
{ACAD_XDICTIONARY
360
42B
102
}
330
2A
100
AcDbVisualStyle
  2
3dWireframe
 70
     5
 71
     0
 72
     2
 73
     0
 90
        0
 40
-0.6
 41
-30.0
 62
     5
 63
     7
 74
     1
 91
        4
 64
     7
 65
   257
 75
     1
175
     1
 42
1.0
 92
        0
 66
   257
 43
1.0
 76
     1
 77
     6
 78
     2
 67
     7
 79
     5
170
     0
171
     0
290
     0
174
     0
 93
        1
 44
0.0
173
     0
291
     0
 45
0.0
1001
ACAD
1000
AcDbSavedByObjectVersion
1070
     0
  0
VISUALSTYLE
  5
32
102
{ACAD_REACTORS
330
2A
102
}
102
{ACAD_XDICTIONARY
360
42F
102
}
330
2A
100
AcDbVisualStyle
  2
Basic
 70
     7
 71
     1
 72
     0
 73
     1
 90
        0
 40
-0.6
 41
-30.0
 62
     5
 63
     7
 74
     0
 91
        4
 64
     7
 65
   257
 75
     1
175
     1
 42
1.0
 92
        8
 66
     7
 43
1.0
 76
     1
 77
     6
 78
     2
 67
     7
 79
     5
170
     0
171
     0
290
     0
174
     0
 93
        1
 44
0.0
173
     0
291
     1
 45
0.0
1001
ACAD
1000
AcDbSavedByObjectVersion
1070
     0
  0
VISUALSTYLE
  5
36
102
{ACAD_REACTORS
330
2A
102
}
102
{ACAD_XDICTIONARY
360
437
102
}
330
2A
100
AcDbVisualStyle
  2
Brighten
 70
    12
 71
     2
 72
     2
 73
     0
 90
        0
 40
-0.6
 41
-30.0
 62
     5
 63
     7
 74
     1
 91
        4
 64
     7
 65
   257
 75
     1
175
     1
 42
1.0
 92
        8
 66
     7
 43
1.0
 76
     1
 77
     6
 78
     2
 67
     7
 79
     5
170
     0
171
     0
290
     0
174
     0
 93
        1
 44
50.0
173
     0
291
     1
 45
0.0
1001
ACAD
1000
AcDbSavedByObjectVersion
1070
     0
  0
VISUALSTYLE
  5
3A
102
{ACAD_REACTORS
330
2A
102
}
102
{ACAD_XDICTIONARY
360
43F
102
}
330
2A
100
AcDbVisualStyle
  2
ColorChange
 70
    16
 71
     2
 72
     2
 73
     3
 90
        0
 40
-0.6
 41
-30.0
 62
     5
 63
     8
 74
     1
 91
        4
 64
     7
 65
   257
 75
     1
175
     1
 42
1.0
 92
        8
 66
     8
 43
1.0
 76
     1
 77
     6
 78
     2
 67
     7
 79
     5
170
     0
171
     0
290
     0
174
     0
 93
        1
 44
0.0
173
     0
291
     1
 45
0.0
1001
ACAD
1000
AcDbSavedByObjectVersion
1070
     0
  0
VISUALSTYLE
  5
34
102
{ACAD_REACTORS
330
2A
102
}
102
{ACAD_XDICTIONARY
360
433
102
}
330
2A
100
AcDbVisualStyle
  2
Conceptual
 70
     9
 71
     3
 72
     2
 73
     0
 90
        0
 40
-0.6
 41
-30.0
 62
     5
 63
     7
 74
     2
 91
        2
 64
     7
 65
   257
 75
     1
175
     1
 42
40.0
 92
        8
 66
     7
 43
1.0
 76
     1
 77
     6
 78
     2
 67
     7
 79
     3
170
     0
171
     0
290
     0
174
     0
 93
        1
 44
0.0
173
     0
291
     0
 45
0.0
1001
ACAD
1000
AcDbSavedByObjectVersion
1070
     0
  0
VISUALSTYLE
  5
35
102
{ACAD_REACTORS
330
2A
102
}
102
{ACAD_XDICTIONARY
360
435
102
}
330
2A
100
AcDbVisualStyle
  2
Dim
 70
    11
 71
     2
 72
     2
 73
     0
 90
        0
 40
-0.6
 41
-30.0
 62
     5
 63
     7
 74
     1
 91
        4
 64
     7
 65
   257
 75
     1
175
     1
 42
1.0
 92
        8
 66
     7
 43
1.0
 76
     1
 77
     6
 78
     2
 67
     7
 79
     5
170
     0
171
     0
290
     0
174
     0
 93
        1
 44
-50.0
173
     0
291
     1
 45
0.0
1001
ACAD
1000
AcDbSavedByObjectVersion
1070
     0
  0
VISUALSTYLE
  5
39
102
{ACAD_REACTORS
330
2A
102
}
102
{ACAD_XDICTIONARY
360
43D
102
}
330
2A
100
AcDbVisualStyle
  2
Facepattern
 70
    15
 71
     2
 72
     2
 73
     0
 90
        0
 40
-0.6
 41
-30.0
 62
     5
 63
     7
 74
     1
 91
        4
 64
     7
 65
   257
 75
     1
175
     1
 42
1.0
 92
        8
 66
     7
 43
1.0
 76
     1
 77
     6
 78
     2
 67
     7
 79
     5
170
     0
171
     0
290
     0
174
     0
 93
        1
 44
0.0
173
     0
291
     1
 45
0.0
1001
ACAD
1000
AcDbSavedByObjectVersion
1070
     0
  0
VISUALSTYLE
  5
2B
102
{ACAD_REACTORS
330
2A
102
}
102
{ACAD_XDICTIONARY
360
421
102
}
330
2A
100
AcDbVisualStyle
  2
Flat
 70
     0
 71
     2
 72
     1
 73
     1
 90
        2
 40
-0.6
 41
30.0
 62
     5
 63
     7
 74
     0
 91
        4
 64
     7
 65
   257
 75
     1
175
     1
 42
1.0
 92
        8
 66
     7
 43
1.0
 76
     1
 77
     6
 78
     2
 67
     7
 79
     5
170
     0
171
     0
290
     0
174
     0
 93
       13
 44
0.0
173
     0
291
     1
 45
0.0
1001
ACAD
1000
AcDbSavedByObjectVersion
1070
     0
  0
VISUALSTYLE
  5
2C
102
{ACAD_REACTORS
330
2A
102
}
102
{ACAD_XDICTIONARY
360
423
102
}
330
2A
100
AcDbVisualStyle
  2
FlatWithEdges
 70
     1
 71
     2
 72
     1
 73
     1
 90
        2
 40
-0.6
 41
30.0
 62
     5
 63
     7
 74
     1
 91
        4
 64
     7
 65
   257
 75
     1
175
     1
 42
1.0
 92
        0
 66
   257
 43
1.0
 76
     1
 77
     6
 78
     2
 67
     7
 79
     5
170
     0
171
     0
290
     0
174
     0
 93
       13
 44
0.0
173
     0
291
     1
 45
0.0
1001
ACAD
1000
AcDbSavedByObjectVersion
1070
     0
  0
VISUALSTYLE
  5
2D
102
{ACAD_REACTORS
330
2A
102
}
102
{ACAD_XDICTIONARY
360
425
102
}
330
2A
100
AcDbVisualStyle
  2
Gouraud
 70
     2
 71
     2
 72
     2
 73
     1
 90
        2
 40
-0.6
 41
30.0
 62
     5
 63
     7
 74
     0
 91
        4
 64
     7
 65
   257
 75
     1
175
     1
 42
1.0
 92
        0
 66
     7
 43
1.0
 76
     1
 77
     6
 78
     2
 67
     7
 79
     5
170
     0
171
     0
290
     0
174
     0
 93
       13
 44
0.0
173
     0
291
     1
 45
0.0
1001
ACAD
1000
AcDbSavedByObjectVersion
1070
     0
  0
VISUALSTYLE
  5
2E
102
{ACAD_REACTORS
330
2A
102
}
102
{ACAD_XDICTIONARY
360
427
102
}
330
2A
100
AcDbVisualStyle
  2
GouraudWithEdges
 70
     3
 71
     2
 72
     2
 73
     1
 90
        2
 40
-0.6
 41
30.0
 62
     5
 63
     7
 74
     1
 91
        4
 64
     7
 65
   257
 75
     1
175
     1
 42
1.0
 92
        0
 66
   257
 43
1.0
 76
     1
 77
     6
 78
     2
 67
     7
 79
     5
170
     0
171
     0
290
     0
174
     0
 93
       13
 44
0.0
173
     0
291
     1
 45
0.0
1001
ACAD
1000
AcDbSavedByObjectVersion
1070
     0
  0
VISUALSTYLE
  5
38
102
{ACAD_REACTORS
330
2A
102
}
102
{ACAD_XDICTIONARY
360
43B
102
}
330
2A
100
AcDbVisualStyle
  2
Linepattern
 70
    14
 71
     2
 72
     2
 73
     0
 90
        0
 40
-0.6
 41
-30.0
 62
     5
 63
     7
 74
     1
 91
        4
 64
     7
 65
   257
 75
     7
175
     7
 42
1.0
 92
        8
 66
     7
 43
1.0
 76
     1
 77
     6
 78
     2
 67
     7
 79
     5
170
     0
171
     0
290
     0
174
     0
 93
        1
 44
0.0
173
     0
291
     1
 45
0.0
1001
ACAD
1000
AcDbSavedByObjectVersion
1070
     0
  0
VISUALSTYLE
  5
33
102
{ACAD_REACTORS
330
2A
102
}
102
{ACAD_XDICTIONARY
360
431
102
}
330
2A
100
AcDbVisualStyle
  2
Realistic
 70
     8
 71
     2
 72
     2
 73
     0
 90
        0
 40
-0.6
 41
-30.0
 62
     5
 63
     7
 74
     1
 91
        0
 64
     7
 65
   257
 75
     1
175
     1
 42
1.0
 92
        8
 66
     8
 43
1.0
 76
     1
 77
     6
 78
     2
 67
     7
 79
     5
170
     0
171
     0
290
     0
174
     0
 93
       13
 44
0.0
173
     0
291
     0
 45
0.0
1001
ACAD
1000
AcDbSavedByObjectVersion
1070
     0
  0
VISUALSTYLE
  5
37
102
{ACAD_REACTORS
330
2A
102
}
102
{ACAD_XDICTIONARY
360
439
102
}
330
2A
100
AcDbVisualStyle
  2
Thicken
 70
    13
 71
     2
 72
     2
 73
     0
 90
        0
 40
-0.6
 41
-30.0
 62
     5
 63
     7
 74
     1
 91
        4
 64
     7
 65
   257
 75
     1
175
     1
 42
1.0
 92
       12
 66
     7
 43
1.0
 76
     1
 77
     6
 78
     2
 67
     7
 79
     5
170
     0
171
     0
290
     0
174
     0
 93
        1
 44
0.0
173
     0
291
     1
 45
0.0
1001
ACAD
1000
AcDbSavedByObjectVersion
1070
     0
  0
DICTIONARYVAR
  5
41E
102
{ACAD_REACTORS
330
41B
102
}
330
41B
100
DictionaryVariables
280
     0
  1
1:1
  0
DICTIONARYVAR
  5
41F
102
{ACAD_REACTORS
330
41B
102
}
330
41B
100
DictionaryVariables
280
     0
  1
2
  0
DICTIONARYVAR
  5
420
102
{ACAD_REACTORS
330
41B
102
}
330
41B
100
DictionaryVariables
280
     0
  1
1
  0
DICTIONARY
  5
443
330
3D
100
AcDbDictionary
280
     1
281
     1
  3
ACAD_XREC_ROUNDTRIP
360
444
  0
DICTIONARY
  5
441
330
3C
100
AcDbDictionary
280
     1
281
     1
  3
ACAD_XREC_ROUNDTRIP
360
442
  0
DICTIONARY
  5
445
330
3E
100
AcDbDictionary
280
     1
281
     1
  3
ACAD_XREC_ROUNDTRIP
360
446
  0
DICTIONARY
  5
429
330
2F
100
AcDbDictionary
280
     1
281
     1
  3
ACAD_XREC_ROUNDTRIP
360
42A
  0
DICTIONARY
  5
42D
330
31
100
AcDbDictionary
280
     1
281
     1
  3
ACAD_XREC_ROUNDTRIP
360
42E
  0
DICTIONARY
  5
42B
330
30
100
AcDbDictionary
280
     1
281
     1
  3
ACAD_XREC_ROUNDTRIP
360
42C
  0
DICTIONARY
  5
42F
330
32
100
AcDbDictionary
280
     1
281
     1
  3
ACAD_XREC_ROUNDTRIP
360
430
  0
DICTIONARY
  5
437
330
36
100
AcDbDictionary
280
     1
281
     1
  3
ACAD_XREC_ROUNDTRIP
360
438
  0
DICTIONARY
  5
43F
330
3A
100
AcDbDictionary
280
     1
281
     1
  3
ACAD_XREC_ROUNDTRIP
360
440
  0
DICTIONARY
  5
433
330
34
100
AcDbDictionary
280
     1
281
     1
  3
ACAD_XREC_ROUNDTRIP
360
434
  0
DICTIONARY
  5
435
330
35
100
AcDbDictionary
280
     1
281
     1
  3
ACAD_XREC_ROUNDTRIP
360
436
  0
DICTIONARY
  5
43D
330
39
100
AcDbDictionary
280
     1
281
     1
  3
ACAD_XREC_ROUNDTRIP
360
43E
  0
DICTIONARY
  5
421
330
2B
100
AcDbDictionary
280
     1
281
     1
  3
ACAD_XREC_ROUNDTRIP
360
422
  0
DICTIONARY
  5
423
330
2C
100
AcDbDictionary
280
     1
281
     1
  3
ACAD_XREC_ROUNDTRIP
360
424
  0
DICTIONARY
  5
425
330
2D
100
AcDbDictionary
280
     1
281
     1
  3
ACAD_XREC_ROUNDTRIP
360
426
  0
DICTIONARY
  5
427
330
2E
100
AcDbDictionary
280
     1
281
     1
  3
ACAD_XREC_ROUNDTRIP
360
428
  0
DICTIONARY
  5
43B
330
38
100
AcDbDictionary
280
     1
281
     1
  3
ACAD_XREC_ROUNDTRIP
360
43C
  0
DICTIONARY
  5
431
330
33
100
AcDbDictionary
280
     1
281
     1
  3
ACAD_XREC_ROUNDTRIP
360
432
  0
DICTIONARY
  5
439
330
37
100
AcDbDictionary
280
     1
281
     1
  3
ACAD_XREC_ROUNDTRIP
360
43A
  0
XRECORD
  5
444
102
{ACAD_REACTORS
330
443
102
}
330
443
100
AcDbXrecord
280
     1
102
MATERIAL
148
0.0
149
0.0
149
0.0
 93
        0
 94
      127
282
     0
 72
     1
 77
     1
171
     1
175
     1
179
     1
273
     0
  0
XRECORD
  5
442
102
{ACAD_REACTORS
330
441
102
}
330
441
100
AcDbXrecord
280
     1
102
MATERIAL
148
0.0
149
0.0
149
0.0
 93
        0
 94
      127
282
     0
 72
     1
 77
     1
171
     1
175
     1
179
     1
273
     0
  0
XRECORD
  5
446
102
{ACAD_REACTORS
330
445
102
}
330
445
100
AcDbXrecord
280
     1
102
MATERIAL
148
0.0
149
0.0
149
0.0
 93
        0
 94
      127
282
     0
 72
     1
 77
     1
171
     1
175
     1
179
     1
273
     0
  0
XRECORD
  5
42A
102
{ACAD_REACTORS
330
429
102
}
330
429
100
AcDbXrecord
280
     1
102
RTVSPropertyOp0
 70
     1
102
RTVSPropertyOp1
 70
     1
102
RTVSPropertyOp2
 70
     1
102
RTVSPropertyOp3
 70
     1
102
RTVSPropertyOp4
 70
     1
102
RTVSPropertyOp5
 70
     1
102
RTVSPropertyOp6
 70
     1
102
RTVSPropertyOp7
 70
     1
102
RTVSPropertyOp8
 70
     1
102
RTVSPropertyOp9
 70
     1
102
RTVSPropertyOp10
 70
     1
102
RTVSPropertyOp11
 70
     1
102
RTVSPropertyOp12
 70
     1
102
RTVSPropertyOp13
 70
     1
102
RTVSPropertyOp14
 70
     1
102
RTVSPropertyOp15
 70
     1
102
RTVSPropertyOp16
 70
     1
102
RTVSPropertyOp17
 70
     1
102
RTVSPropertyOp18
 70
     1
102
RTVSPropertyOp19
 70
     1
102
RTVSPropertyOp20
 70
     1
102
RTVSPropertyOp21
 70
     1
102
RTVSPropertyOp22
 70
     1
102
RTVSPropertyOp23
 70
     1
102
RTVSPropertyOp24
 70
     1
102
RTVSPropertyOp25
 70
     1
102
RTVSPropertyOp26
 70
     1
102
RTVSPropertyOp27
 70
     1
  0
XRECORD
  5
42E
102
{ACAD_REACTORS
330
42D
102
}
330
42D
100
AcDbXrecord
280
     1
102
RTVSPropertyOp0
 70
     1
102
RTVSPropertyOp1
 70
     1
102
RTVSPropertyOp2
 70
     1
102
RTVSPropertyOp3
 70
     1
102
RTVSPropertyOp4
 70
     1
102
RTVSPropertyOp5
 70
     1
102
RTVSPropertyOp6
 70
     1
102
RTVSPropertyOp7
 70
     1
102
RTVSPropertyOp8
 70
     1
102
RTVSPropertyOp9
 70
     1
102
RTVSPropertyOp10
 70
     1
102
RTVSPropertyOp11
 70
     1
102
RTVSPropertyOp12
 70
     1
102
RTVSPropertyOp13
 70
     1
102
RTVSPropertyOp14
 70
     1
102
RTVSPropertyOp15
 70
     1
102
RTVSPropertyOp16
 70
     1
102
RTVSPropertyOp17
 70
     1
102
RTVSPropertyOp18
 70
     1
102
RTVSPropertyOp19
 70
     1
102
RTVSPropertyOp20
 70
     1
102
RTVSPropertyOp21
 70
     1
102
RTVSPropertyOp22
 70
     1
102
RTVSPropertyOp23
 70
     1
102
RTVSPropertyOp24
 70
     1
102
RTVSPropertyOp25
 70
     1
102
RTVSPropertyOp26
 70
     1
102
RTVSPropertyOp27
 70
     1
  0
XRECORD
  5
42C
102
{ACAD_REACTORS
330
42B
102
}
330
42B
100
AcDbXrecord
280
     1
102
RTVSPropertyOp0
 70
     1
102
RTVSPropertyOp1
 70
     1
102
RTVSPropertyOp2
 70
     1
102
RTVSPropertyOp3
 70
     1
102
RTVSPropertyOp4
 70
     1
102
RTVSPropertyOp5
 70
     1
102
RTVSPropertyOp6
 70
     1
102
RTVSPropertyOp7
 70
     1
102
RTVSPropertyOp8
 70
     1
102
RTVSPropertyOp9
 70
     1
102
RTVSPropertyOp10
 70
     1
102
RTVSPropertyOp11
 70
     1
102
RTVSPropertyOp12
 70
     1
102
RTVSPropertyOp13
 70
     1
102
RTVSPropertyOp14
 70
     1
102
RTVSPropertyOp15
 70
     1
102
RTVSPropertyOp16
 70
     1
102
RTVSPropertyOp17
 70
     1
102
RTVSPropertyOp18
 70
     1
102
RTVSPropertyOp19
 70
     1
102
RTVSPropertyOp20
 70
     1
102
RTVSPropertyOp21
 70
     1
102
RTVSPropertyOp22
 70
     1
102
RTVSPropertyOp23
 70
     1
102
RTVSPropertyOp24
 70
     1
102
RTVSPropertyOp25
 70
     1
102
RTVSPropertyOp26
 70
     1
102
RTVSPropertyOp27
 70
     1
  0
XRECORD
  5
430
102
{ACAD_REACTORS
330
42F
102
}
330
42F
100
AcDbXrecord
280
     1
102
RTVSPropertyOp0
 70
     1
102
RTVSPropertyOp1
 70
     1
102
RTVSPropertyOp2
 70
     1
102
RTVSPropertyOp3
 70
     1
102
RTVSPropertyOp4
 70
     1
102
RTVSPropertyOp5
 70
     1
102
RTVSPropertyOp6
 70
     1
102
RTVSPropertyOp7
 70
     1
102
RTVSPropertyOp8
 70
     1
102
RTVSPropertyOp9
 70
     1
102
RTVSPropertyOp10
 70
     1
102
RTVSPropertyOp11
 70
     1
102
RTVSPropertyOp12
 70
     1
102
RTVSPropertyOp13
 70
     1
102
RTVSPropertyOp14
 70
     1
102
RTVSPropertyOp15
 70
     1
102
RTVSPropertyOp16
 70
     1
102
RTVSPropertyOp17
 70
     1
102
RTVSPropertyOp18
 70
     1
102
RTVSPropertyOp19
 70
     1
102
RTVSPropertyOp20
 70
     1
102
RTVSPropertyOp21
 70
     1
102
RTVSPropertyOp22
 70
     1
102
RTVSPropertyOp23
 70
     1
102
RTVSPropertyOp24
 70
     1
102
RTVSPropertyOp25
 70
     1
102
RTVSPropertyOp26
 70
     1
102
RTVSPropertyOp27
 70
     1
  0
XRECORD
  5
438
102
{ACAD_REACTORS
330
437
102
}
330
437
100
AcDbXrecord
280
     1
102
RTVSPropertyOp0
 70
     1
102
RTVSPropertyOp1
 70
     1
102
RTVSPropertyOp2
 70
     1
102
RTVSPropertyOp3
 70
     1
102
RTVSPropertyOp4
 70
     1
102
RTVSPropertyOp5
 70
     1
102
RTVSPropertyOp6
 70
     1
102
RTVSPropertyOp7
 70
     1
102
RTVSPropertyOp8
 70
     1
102
RTVSPropertyOp9
 70
     1
102
RTVSPropertyOp10
 70
     1
102
RTVSPropertyOp11
 70
     1
102
RTVSPropertyOp12
 70
     1
102
RTVSPropertyOp13
 70
     1
102
RTVSPropertyOp14
 70
     1
102
RTVSPropertyOp15
 70
     1
102
RTVSPropertyOp16
 70
     1
102
RTVSPropertyOp17
 70
     1
102
RTVSPropertyOp18
 70
     1
102
RTVSPropertyOp19
 70
     1
102
RTVSPropertyOp20
 70
     1
102
RTVSPropertyOp21
 70
     1
102
RTVSPropertyOp22
 70
     1
102
RTVSPropertyOp23
 70
     1
102
RTVSPropertyOp24
 70
     1
102
RTVSPropertyOp25
 70
     1
102
RTVSPropertyOp26
 70
     1
102
RTVSPropertyOp27
 70
     1
  0
XRECORD
  5
440
102
{ACAD_REACTORS
330
43F
102
}
330
43F
100
AcDbXrecord
280
     1
102
RTVSPropertyOp0
 70
     1
102
RTVSPropertyOp1
 70
     1
102
RTVSPropertyOp2
 70
     1
102
RTVSPropertyOp3
 70
     1
102
RTVSPropertyOp4
 70
     1
102
RTVSPropertyOp5
 70
     1
102
RTVSPropertyOp6
 70
     1
102
RTVSPropertyOp7
 70
     1
102
RTVSPropertyOp8
 70
     1
102
RTVSPropertyOp9
 70
     1
102
RTVSPropertyOp10
 70
     1
102
RTVSPropertyOp11
 70
     1
102
RTVSPropertyOp12
 70
     1
102
RTVSPropertyOp13
 70
     1
102
RTVSPropertyOp14
 70
     1
102
RTVSPropertyOp15
 70
     1
102
RTVSPropertyOp16
 70
     1
102
RTVSPropertyOp17
 70
     1
102
RTVSPropertyOp18
 70
     1
102
RTVSPropertyOp19
 70
     1
102
RTVSPropertyOp20
 70
     1
102
RTVSPropertyOp21
 70
     1
102
RTVSPropertyOp22
 70
     1
102
RTVSPropertyOp23
 70
     1
102
RTVSPropertyOp24
 70
     1
102
RTVSPropertyOp25
 70
     1
102
RTVSPropertyOp26
 70
     1
102
RTVSPropertyOp27
 70
     1
  0
XRECORD
  5
434
102
{ACAD_REACTORS
330
433
102
}
330
433
100
AcDbXrecord
280
     1
102
RTVSPropertyOp0
 70
     1
102
RTVSPropertyOp1
 70
     1
102
RTVSPropertyOp2
 70
     1
102
RTVSPropertyOp3
 70
     1
102
RTVSPropertyOp4
 70
     1
102
RTVSPropertyOp5
 70
     1
102
RTVSPropertyOp6
 70
     1
102
RTVSPropertyOp7
 70
     1
102
RTVSPropertyOp8
 70
     1
102
RTVSPropertyOp9
 70
     1
102
RTVSPropertyOp10
 70
     1
102
RTVSPropertyOp11
 70
     1
102
RTVSPropertyOp12
 70
     1
102
RTVSPropertyOp13
 70
     1
102
RTVSPropertyOp14
 70
     1
102
RTVSPropertyOp15
 70
     1
102
RTVSPropertyOp16
 70
     1
102
RTVSPropertyOp17
 70
     1
102
RTVSPropertyOp18
 70
     1
102
RTVSPropertyOp19
 70
     1
102
RTVSPropertyOp20
 70
     1
102
RTVSPropertyOp21
 70
     1
102
RTVSPropertyOp22
 70
     1
102
RTVSPropertyOp23
 70
     1
102
RTVSPropertyOp24
 70
     1
102
RTVSPropertyOp25
 70
     1
102
RTVSPropertyOp26
 70
     1
102
RTVSPropertyOp27
 70
     1
  0
XRECORD
  5
436
102
{ACAD_REACTORS
330
435
102
}
330
435
100
AcDbXrecord
280
     1
102
RTVSPropertyOp0
 70
     1
102
RTVSPropertyOp1
 70
     1
102
RTVSPropertyOp2
 70
     1
102
RTVSPropertyOp3
 70
     1
102
RTVSPropertyOp4
 70
     1
102
RTVSPropertyOp5
 70
     1
102
RTVSPropertyOp6
 70
     1
102
RTVSPropertyOp7
 70
     1
102
RTVSPropertyOp8
 70
     1
102
RTVSPropertyOp9
 70
     1
102
RTVSPropertyOp10
 70
     1
102
RTVSPropertyOp11
 70
     1
102
RTVSPropertyOp12
 70
     1
102
RTVSPropertyOp13
 70
     1
102
RTVSPropertyOp14
 70
     1
102
RTVSPropertyOp15
 70
     1
102
RTVSPropertyOp16
 70
     1
102
RTVSPropertyOp17
 70
     1
102
RTVSPropertyOp18
 70
     1
102
RTVSPropertyOp19
 70
     1
102
RTVSPropertyOp20
 70
     1
102
RTVSPropertyOp21
 70
     1
102
RTVSPropertyOp22
 70
     1
102
RTVSPropertyOp23
 70
     1
102
RTVSPropertyOp24
 70
     1
102
RTVSPropertyOp25
 70
     1
102
RTVSPropertyOp26
 70
     1
102
RTVSPropertyOp27
 70
     1
  0
XRECORD
  5
43E
102
{ACAD_REACTORS
330
43D
102
}
330
43D
100
AcDbXrecord
280
     1
102
RTVSPropertyOp0
 70
     1
102
RTVSPropertyOp1
 70
     1
102
RTVSPropertyOp2
 70
     1
102
RTVSPropertyOp3
 70
     1
102
RTVSPropertyOp4
 70
     1
102
RTVSPropertyOp5
 70
     1
102
RTVSPropertyOp6
 70
     1
102
RTVSPropertyOp7
 70
     1
102
RTVSPropertyOp8
 70
     1
102
RTVSPropertyOp9
 70
     1
102
RTVSPropertyOp10
 70
     1
102
RTVSPropertyOp11
 70
     1
102
RTVSPropertyOp12
 70
     1
102
RTVSPropertyOp13
 70
     1
102
RTVSPropertyOp14
 70
     1
102
RTVSPropertyOp15
 70
     1
102
RTVSPropertyOp16
 70
     1
102
RTVSPropertyOp17
 70
     1
102
RTVSPropertyOp18
 70
     1
102
RTVSPropertyOp19
 70
     1
102
RTVSPropertyOp20
 70
     1
102
RTVSPropertyOp21
 70
     1
102
RTVSPropertyOp22
 70
     1
102
RTVSPropertyOp23
 70
     1
102
RTVSPropertyOp24
 70
     1
102
RTVSPropertyOp25
 70
     1
102
RTVSPropertyOp26
 70
     1
102
RTVSPropertyOp27
 70
     1
  0
XRECORD
  5
422
102
{ACAD_REACTORS
330
421
102
}
330
421
100
AcDbXrecord
280
     1
102
RTVSPropertyOp0
 70
     1
102
RTVSPropertyOp1
 70
     1
102
RTVSPropertyOp2
 70
     1
102
RTVSPropertyOp3
 70
     1
102
RTVSPropertyOp4
 70
     1
102
RTVSPropertyOp5
 70
     1
102
RTVSPropertyOp6
 70
     1
102
RTVSPropertyOp7
 70
     1
102
RTVSPropertyOp8
 70
     1
102
RTVSPropertyOp9
 70
     1
102
RTVSPropertyOp10
 70
     1
102
RTVSPropertyOp11
 70
     1
102
RTVSPropertyOp12
 70
     1
102
RTVSPropertyOp13
 70
     1
102
RTVSPropertyOp14
 70
     1
102
RTVSPropertyOp15
 70
     1
102
RTVSPropertyOp16
 70
     1
102
RTVSPropertyOp17
 70
     1
102
RTVSPropertyOp18
 70
     1
102
RTVSPropertyOp19
 70
     1
102
RTVSPropertyOp20
 70
     1
102
RTVSPropertyOp21
 70
     1
102
RTVSPropertyOp22
 70
     1
102
RTVSPropertyOp23
 70
     1
102
RTVSPropertyOp24
 70
     1
102
RTVSPropertyOp25
 70
     1
102
RTVSPropertyOp26
 70
     1
102
RTVSPropertyOp27
 70
     1
  0
XRECORD
  5
424
102
{ACAD_REACTORS
330
423
102
}
330
423
100
AcDbXrecord
280
     1
102
RTVSPropertyOp0
 70
     1
102
RTVSPropertyOp1
 70
     1
102
RTVSPropertyOp2
 70
     1
102
RTVSPropertyOp3
 70
     1
102
RTVSPropertyOp4
 70
     1
102
RTVSPropertyOp5
 70
     1
102
RTVSPropertyOp6
 70
     1
102
RTVSPropertyOp7
 70
     1
102
RTVSPropertyOp8
 70
     1
102
RTVSPropertyOp9
 70
     1
102
RTVSPropertyOp10
 70
     1
102
RTVSPropertyOp11
 70
     1
102
RTVSPropertyOp12
 70
     1
102
RTVSPropertyOp13
 70
     1
102
RTVSPropertyOp14
 70
     1
102
RTVSPropertyOp15
 70
     1
102
RTVSPropertyOp16
 70
     1
102
RTVSPropertyOp17
 70
     1
102
RTVSPropertyOp18
 70
     1
102
RTVSPropertyOp19
 70
     1
102
RTVSPropertyOp20
 70
     1
102
RTVSPropertyOp21
 70
     1
102
RTVSPropertyOp22
 70
     1
102
RTVSPropertyOp23
 70
     1
102
RTVSPropertyOp24
 70
     1
102
RTVSPropertyOp25
 70
     1
102
RTVSPropertyOp26
 70
     1
102
RTVSPropertyOp27
 70
     1
  0
XRECORD
  5
426
102
{ACAD_REACTORS
330
425
102
}
330
425
100
AcDbXrecord
280
     1
102
RTVSPropertyOp0
 70
     1
102
RTVSPropertyOp1
 70
     1
102
RTVSPropertyOp2
 70
     1
102
RTVSPropertyOp3
 70
     1
102
RTVSPropertyOp4
 70
     1
102
RTVSPropertyOp5
 70
     1
102
RTVSPropertyOp6
 70
     1
102
RTVSPropertyOp7
 70
     1
102
RTVSPropertyOp8
 70
     1
102
RTVSPropertyOp9
 70
     1
102
RTVSPropertyOp10
 70
     1
102
RTVSPropertyOp11
 70
     1
102
RTVSPropertyOp12
 70
     1
102
RTVSPropertyOp13
 70
     1
102
RTVSPropertyOp14
 70
     1
102
RTVSPropertyOp15
 70
     1
102
RTVSPropertyOp16
 70
     1
102
RTVSPropertyOp17
 70
     1
102
RTVSPropertyOp18
 70
     1
102
RTVSPropertyOp19
 70
     1
102
RTVSPropertyOp20
 70
     1
102
RTVSPropertyOp21
 70
     1
102
RTVSPropertyOp22
 70
     1
102
RTVSPropertyOp23
 70
     1
102
RTVSPropertyOp24
 70
     1
102
RTVSPropertyOp25
 70
     1
102
RTVSPropertyOp26
 70
     1
102
RTVSPropertyOp27
 70
     1
  0
XRECORD
  5
428
102
{ACAD_REACTORS
330
427
102
}
330
427
100
AcDbXrecord
280
     1
102
RTVSPropertyOp0
 70
     1
102
RTVSPropertyOp1
 70
     1
102
RTVSPropertyOp2
 70
     1
102
RTVSPropertyOp3
 70
     1
102
RTVSPropertyOp4
 70
     1
102
RTVSPropertyOp5
 70
     1
102
RTVSPropertyOp6
 70
     1
102
RTVSPropertyOp7
 70
     1
102
RTVSPropertyOp8
 70
     1
102
RTVSPropertyOp9
 70
     1
102
RTVSPropertyOp10
 70
     1
102
RTVSPropertyOp11
 70
     1
102
RTVSPropertyOp12
 70
     1
102
RTVSPropertyOp13
 70
     1
102
RTVSPropertyOp14
 70
     1
102
RTVSPropertyOp15
 70
     1
102
RTVSPropertyOp16
 70
     1
102
RTVSPropertyOp17
 70
     1
102
RTVSPropertyOp18
 70
     1
102
RTVSPropertyOp19
 70
     1
102
RTVSPropertyOp20
 70
     1
102
RTVSPropertyOp21
 70
     1
102
RTVSPropertyOp22
 70
     1
102
RTVSPropertyOp23
 70
     1
102
RTVSPropertyOp24
 70
     1
102
RTVSPropertyOp25
 70
     1
102
RTVSPropertyOp26
 70
     1
102
RTVSPropertyOp27
 70
     1
  0
XRECORD
  5
43C
102
{ACAD_REACTORS
330
43B
102
}
330
43B
100
AcDbXrecord
280
     1
102
RTVSPropertyOp0
 70
     1
102
RTVSPropertyOp1
 70
     1
102
RTVSPropertyOp2
 70
     1
102
RTVSPropertyOp3
 70
     1
102
RTVSPropertyOp4
 70
     1
102
RTVSPropertyOp5
 70
     1
102
RTVSPropertyOp6
 70
     1
102
RTVSPropertyOp7
 70
     1
102
RTVSPropertyOp8
 70
     1
102
RTVSPropertyOp9
 70
     1
102
RTVSPropertyOp10
 70
     1
102
RTVSPropertyOp11
 70
     1
102
RTVSPropertyOp12
 70
     1
102
RTVSPropertyOp13
 70
     1
102
RTVSPropertyOp14
 70
     1
102
RTVSPropertyOp15
 70
     1
102
RTVSPropertyOp16
 70
     1
102
RTVSPropertyOp17
 70
     1
102
RTVSPropertyOp18
 70
     1
102
RTVSPropertyOp19
 70
     1
102
RTVSPropertyOp20
 70
     1
102
RTVSPropertyOp21
 70
     1
102
RTVSPropertyOp22
 70
     1
102
RTVSPropertyOp23
 70
     1
102
RTVSPropertyOp24
 70
     1
102
RTVSPropertyOp25
 70
     1
102
RTVSPropertyOp26
 70
     1
102
RTVSPropertyOp27
 70
     1
  0
XRECORD
  5
432
102
{ACAD_REACTORS
330
431
102
}
330
431
100
AcDbXrecord
280
     1
102
RTVSPropertyOp0
 70
     1
102
RTVSPropertyOp1
 70
     1
102
RTVSPropertyOp2
 70
     1
102
RTVSPropertyOp3
 70
     1
102
RTVSPropertyOp4
 70
     1
102
RTVSPropertyOp5
 70
     1
102
RTVSPropertyOp6
 70
     1
102
RTVSPropertyOp7
 70
     1
102
RTVSPropertyOp8
 70
     1
102
RTVSPropertyOp9
 70
     1
102
RTVSPropertyOp10
 70
     1
102
RTVSPropertyOp11
 70
     1
102
RTVSPropertyOp12
 70
     1
102
RTVSPropertyOp13
 70
     1
102
RTVSPropertyOp14
 70
     1
102
RTVSPropertyOp15
 70
     1
102
RTVSPropertyOp16
 70
     1
102
RTVSPropertyOp17
 70
     1
102
RTVSPropertyOp18
 70
     1
102
RTVSPropertyOp19
 70
     1
102
RTVSPropertyOp20
 70
     1
102
RTVSPropertyOp21
 70
     1
102
RTVSPropertyOp22
 70
     1
102
RTVSPropertyOp23
 70
     1
102
RTVSPropertyOp24
 70
     1
102
RTVSPropertyOp25
 70
     1
102
RTVSPropertyOp26
 70
     1
102
RTVSPropertyOp27
 70
     1
  0
XRECORD
  5
43A
102
{ACAD_REACTORS
330
439
102
}
330
439
100
AcDbXrecord
280
     1
102
RTVSPropertyOp0
 70
     1
102
RTVSPropertyOp1
 70
     1
102
RTVSPropertyOp2
 70
     1
102
RTVSPropertyOp3
 70
     1
102
RTVSPropertyOp4
 70
     1
102
RTVSPropertyOp5
 70
     1
102
RTVSPropertyOp6
 70
     1
102
RTVSPropertyOp7
 70
     1
102
RTVSPropertyOp8
 70
     1
102
RTVSPropertyOp9
 70
     1
102
RTVSPropertyOp10
 70
     1
102
RTVSPropertyOp11
 70
     1
102
RTVSPropertyOp12
 70
     1
102
RTVSPropertyOp13
 70
     1
102
RTVSPropertyOp14
 70
     1
102
RTVSPropertyOp15
 70
     1
102
RTVSPropertyOp16
 70
     1
102
RTVSPropertyOp17
 70
     1
102
RTVSPropertyOp18
 70
     1
102
RTVSPropertyOp19
 70
     1
102
RTVSPropertyOp20
 70
     1
102
RTVSPropertyOp21
 70
     1
102
RTVSPropertyOp22
 70
     1
102
RTVSPropertyOp23
 70
     1
102
RTVSPropertyOp24
 70
     1
102
RTVSPropertyOp25
 70
     1
102
RTVSPropertyOp26
 70
     1
102
RTVSPropertyOp27
 70
     1
  0
ENDSEC
  0
EOF
